<?xml version="1.0" standalone="no"?>
<!DOCTYPE svg PUBLIC "-//W3C//DTD SVG 1.1//EN" "http://www.w3.org/Graphics/SVG/1.1/DTD/svg11.dtd" >
<svg xmlns="http://www.w3.org/2000/svg" xmlns:xlink="http://www.w3.org/1999/xlink" version="1.1">
<metadata></metadata>
<defs>
<font id="visby_cfextra_bold" horiz-adv-x="1288" >
<font-face units-per-em="2048" ascent="1638" descent="-410" />
<missing-glyph horiz-adv-x="413" />
<glyph unicode="&#xfb01;" horiz-adv-x="1275" d="M25 813v252h141v31q0 97 27 172t67 118t93.5 70t99 36t90.5 9q138 0 207 -41v-248q-41 21 -115 21q-75 0 -113.5 -40t-38.5 -112v-16h697v-1065h-318v813h-379v-813h-317v813h-141zM862 1178v276h318v-276h-318z" />
<glyph horiz-adv-x="0" />
<glyph horiz-adv-x="682" />
<glyph unicode=" "  horiz-adv-x="413" />
<glyph unicode="&#x09;" horiz-adv-x="413" />
<glyph unicode="&#xa0;" horiz-adv-x="413" />
<glyph unicode="!" horiz-adv-x="552" d="M96 160q0 80 53 130t127 50t127.5 -50.5t53.5 -129.5t-53.5 -129.5t-127.5 -50.5t-127 50t-53 130zM119 479v975h327v-975h-327z" />
<glyph unicode="&#x22;" horiz-adv-x="763" d="M63 889v565h273v-565h-273zM428 889v565h272v-565h-272z" />
<glyph unicode="#" horiz-adv-x="1126" d="M92 369v276h82l10 143h-92v277h111l26 369h324l-27 -369h111l27 369h323l-26 -369h73v-277h-92l-10 -143h102v-276h-123l-26 -369h-324l27 369h-111l-26 -369h-324l27 369h-62zM498 645h110l10 143h-110z" />
<glyph unicode="$" horiz-adv-x="919" d="M45 477l252 68q39 -123 154 -123q46 0 78 23t32 65q0 60 -90 90l-143 53q-128 46 -190 127t-62 185q0 122 82.5 203t212.5 104v182h198v-186q108 -25 181 -96.5t96 -176.5l-248 -61q-33 100 -123 100q-43 0 -67.5 -21.5t-24.5 -51.5q0 -62 92 -91l133 -49 q266 -90 266 -311q0 -130 -83.5 -215t-221.5 -111v-184h-198v180q-133 18 -219 93t-107 204z" />
<glyph unicode="%" horiz-adv-x="1429" d="M72 1212q0 106 73.5 179t180.5 73t180.5 -73t73.5 -179t-73.5 -178.5t-180.5 -72.5t-180.5 72.5t-73.5 178.5zM158 150l841 1310l238 -149l-840 -1311zM274 1212q0 -22 14.5 -36.5t37.5 -14.5t37 14.5t14 36.5t-14 37t-37 15t-37.5 -15t-14.5 -37zM850 242 q0 106 73.5 179t180.5 73t180.5 -73t73.5 -179t-73.5 -179t-180.5 -73t-180.5 73t-73.5 179zM1053 242q0 -22 14 -37t37 -15t37 15t14 37t-14 36.5t-37 14.5t-37 -14.5t-14 -36.5z" />
<glyph unicode="&#x26;" horiz-adv-x="1454" d="M76 461q0 99 29.5 182t79 137t108 87.5t121.5 45.5l-248 541h833v-262h-460l198 -475h-59q-132 0 -205.5 -61.5t-73.5 -170.5q0 -110 72 -169.5t172 -59.5q41 0 78 8t74.5 30t65 55t44.5 87.5t17 124.5v350h450v-252h-151l-4 -280q0 -45 26 -78t80 -33q41 0 76 17v-242 q-18 -28 -63 -41.5t-89 -13.5q-107 0 -170 67.5t-63 175.5v-4q-39 -106 -148.5 -176.5t-279.5 -70.5q-100 0 -190.5 31t-162.5 89.5t-114.5 151.5t-42.5 209z" />
<glyph unicode="'" horiz-adv-x="399" d="M63 889v565h273v-565h-273z" />
<glyph unicode="(" horiz-adv-x="729" d="M92 655q0 507 217 871h312q-207 -377 -207 -871q0 -523 207 -921h-312q-217 388 -217 921z" />
<glyph unicode=")" horiz-adv-x="729" d="M92 -266q207 398 207 921q0 494 -207 871h311q218 -366 218 -871q0 -531 -218 -921h-311z" />
<glyph unicode="*" horiz-adv-x="1112" d="M154 1106l63 266l215 -63l-8 227h258l-2 -227l215 63l63 -266l-186 -51l133 -176l-231 -140l-119 166l-119 -166l-229 140l133 176z" />
<glyph unicode="+" horiz-adv-x="980" d="M92 444v267h264v264h267v-264h266v-267h-266v-262h-267v262h-264z" />
<glyph unicode="," horiz-adv-x="567" d="M43 -270l199 565h272l-201 -565h-270z" />
<glyph unicode="-" horiz-adv-x="819" d="M92 426v266h635v-266h-635z" />
<glyph unicode="." horiz-adv-x="487" d="M63 160q0 79 53.5 129.5t127.5 50.5t127 -50t53 -130t-53 -130t-127 -50t-127.5 50.5t-53.5 129.5z" />
<glyph unicode="/" horiz-adv-x="1058" d="M86 0l598 1536h330l-598 -1536h-330z" />
<glyph unicode="0" horiz-adv-x="1642" d="M76 727q0 162 60 303.5t162 238t238 151.5t285 55t285.5 -55t238 -151.5t162 -238t60.5 -303.5q0 -216 -103 -388.5t-273 -265.5t-370 -93q-149 0 -285 55t-238 151.5t-162 237.5t-60 303zM401 727q0 -198 121.5 -325.5t298.5 -127.5t298.5 127.5t121.5 325.5 t-121.5 325.5t-298.5 127.5t-298.5 -127.5t-121.5 -325.5z" />
<glyph unicode="1" horiz-adv-x="817" d="M104 1163v291h568v-1454h-318v1163h-250z" />
<glyph unicode="2" horiz-adv-x="1140" d="M55 0l461 618q135 181 175 251t40 141q0 43 -12.5 75.5t-30 50t-41 28t-41.5 13.5t-35 3q-27 0 -54 -9t-54.5 -29t-44.5 -59.5t-17 -93.5v-39h-321v66q0 92 30.5 173.5t89.5 146t155.5 102t219.5 37.5q223 0 357.5 -118.5t134.5 -301.5q0 -82 -34.5 -167t-68.5 -135 t-112 -152q-14 -19 -21 -28l-219 -292h453v-281h-1010z" />
<glyph unicode="3" horiz-adv-x="1191" d="M66 303l235 143q39 -96 110 -143t152 -47q101 0 170.5 65t69.5 175q0 144 -119.5 210.5t-284.5 0.5l232 471h-488v276h938l-282 -536q135 -31 231 -152t96 -293q0 -111 -44 -204.5t-119 -156t-175 -97.5t-213 -35q-186 0 -321 90.5t-188 232.5z" />
<glyph unicode="4" horiz-adv-x="1208" d="M66 307v277l610 870h323v-870h154v-277h-154v-307h-323v307h-610zM385 584h291v440z" />
<glyph unicode="5" horiz-adv-x="1142" d="M55 281l244 133q15 -51 79 -101.5t154 -50.5q42 0 81.5 12.5t74 38t55.5 70.5t21 104q0 108 -65.5 170t-161.5 62q-45 0 -83.5 -13t-63.5 -34t-38 -35.5t-22 -28.5l-244 111l94 735h754v-276h-504l-39 -258q5 6 29 19t77.5 26.5t112.5 13.5q71 0 139 -20.5t127.5 -61.5 t104 -98t70.5 -136.5t26 -170.5q0 -120 -43 -218.5t-116.5 -162t-170 -97.5t-204.5 -34q-177 0 -305.5 82.5t-182.5 218.5z" />
<glyph unicode="6" horiz-adv-x="1124" d="M66 463q0 65 14.5 129t32 109.5t53 105t55.5 87.5t62 85l346 475h358l-405 -555q36 4 57 4q172 0 296 -126.5t124 -323.5q0 -109 -41.5 -199.5t-111.5 -149.5t-160 -91.5t-187 -32.5q-98 0 -186 32.5t-157 92.5t-109.5 153t-40.5 205zM367 444q0 -79 53.5 -134.5 t142.5 -55.5t142 55.5t53 134.5q0 80 -53 136.5t-142 56.5t-142.5 -56.5t-53.5 -136.5z" />
<glyph unicode="7" horiz-adv-x="1087" d="M61 1178v276h965l-600 -1454h-315l495 1178h-545z" />
<glyph unicode="8" horiz-adv-x="1159" d="M66 440q0 132 62.5 233t156.5 148q-55 47 -93 116.5t-38 158.5q0 156 117.5 267.5t308.5 111.5t308.5 -111.5t117.5 -267.5q0 -88 -38 -158t-94 -117q94 -48 157 -148.5t63 -232.5q0 -106 -43 -194.5t-115 -145.5t-164 -88.5t-192 -31.5t-192 31.5t-164 88.5t-115 145.5 t-43 194.5zM383 461q0 -84 57 -138.5t140 -54.5q82 0 138 55t56 138q0 87 -57.5 139.5t-136.5 52.5t-138 -52.5t-59 -139.5zM442 1071q0 -55 37.5 -95t100.5 -40q62 0 98.5 40t36.5 95q0 59 -40 97t-95 38q-56 0 -97 -37.5t-41 -97.5z" />
<glyph unicode="9" horiz-adv-x="1124" d="M66 1001q0 144 71.5 254t184 165t243.5 55q98 0 186.5 -33t157 -93t109.5 -153t41 -205q0 -65 -14.5 -129t-32 -109.5t-53 -105t-55.5 -87.5t-62 -85l-346 -475h-359l406 555q-36 -4 -58 -4q-172 0 -295.5 126.5t-123.5 323.5zM367 1010q0 -80 52.5 -136.5t141.5 -56.5 t143 56.5t54 136.5q0 78 -54 134t-143 56t-141.5 -55.5t-52.5 -134.5z" />
<glyph unicode=":" horiz-adv-x="565" d="M94 160q0 80 53 130t127 50t127.5 -50.5t53.5 -129.5t-53.5 -129.5t-127.5 -50.5t-127 50t-53 130zM94 903q0 80 53 130t127 50t127.5 -50.5t53.5 -129.5t-53.5 -129.5t-127.5 -50.5t-127 50t-53 130z" />
<glyph unicode=";" horiz-adv-x="602" d="M43 -270l199 565h272l-201 -565h-270zM178 903q0 80 53 130t127 50t127.5 -50.5t53.5 -129.5t-53.5 -129.5t-127.5 -50.5t-127 50t-53 130z" />
<glyph unicode="&#x3c;" horiz-adv-x="1017" d="M92 387v211l854 387v-297l-471 -196l471 -193v-299z" />
<glyph unicode="=" horiz-adv-x="870" d="M92 252v266h686v-266h-686zM92 600v266h686v-266h-686z" />
<glyph unicode="&#x3e;" horiz-adv-x="1017" d="M72 0v299l471 193l-471 196v297l854 -387v-211z" />
<glyph unicode="?" horiz-adv-x="1093" d="M53 969v24q0 235 134 358.5t368 123.5q228 0 356.5 -110.5t128.5 -295.5q0 -70 -19 -127t-48.5 -95t-66 -70t-73 -59.5t-66 -56t-48.5 -67.5t-19 -86v-39h-321v45q0 71 18.5 128.5t48.5 95.5t66 69t72 55.5t66 48.5t48.5 54.5t18.5 66.5q0 22 -7 47t-24 53t-52 46t-83 18 q-51 0 -88.5 -19.5t-57.5 -51.5t-29 -65t-9 -67v-24h-314zM356 160q0 79 53.5 129.5t127.5 50.5t127 -50t53 -130t-53 -130t-127 -50t-127.5 50.5t-53.5 129.5z" />
<glyph unicode="@" horiz-adv-x="1626" d="M76 733q0 162 64.5 303t171 236t245 149t285.5 54q140 0 268 -48.5t226 -135.5t156 -218.5t58 -286.5q0 -88 -19.5 -159.5t-52 -119t-76.5 -80t-91 -46.5t-97 -14q-45 0 -82.5 10.5t-62.5 29t-40.5 34t-30 36t-17.5 23.5q-3 -1 -19.5 -22t-38.5 -44.5t-66 -43t-97 -19.5 t-102.5 21t-91 62t-66.5 110.5t-25 158.5q0 168 84.5 261t200.5 93q30 0 56.5 -6.5t43.5 -16.5t32 -22t22 -22.5t14 -18t8 -9.5t4 3l29 78h164v-408q0 -25 17 -44t46 -19q37 0 55.5 34.5t18.5 125.5q0 226 -122 347.5t-317 121.5q-205 0 -340 -135.5t-135 -352.5 q0 -230 137 -365t347 -135q145 0 293 70v-264q-137 -59 -302 -59q-203 0 -374.5 92.5t-276 266.5t-104.5 394zM733 723q0 -113 80 -113q84 0 84 113q0 115 -84 115q-80 0 -80 -115z" />
<glyph unicode="A" horiz-adv-x="1482" d="M14 0l555 1454h344l555 -1454h-350l-82 231h-590l-81 -231h-351zM555 530h373l-187 525z" />
<glyph unicode="B" horiz-adv-x="1196" d="M96 0v1454h549q178 0 290 -100t112 -252q0 -107 -54 -180.5t-127 -108.5q54 -15 100.5 -44.5t87 -74.5t64 -112t23.5 -148q0 -199 -131.5 -316.5t-374.5 -117.5h-539zM420 283h194q103 0 154 48.5t51 135.5q0 85 -52 134.5t-157 49.5h-190v-368zM420 901h162 q75 0 114 37.5t39 99.5q0 65 -41 99t-119 34h-155v-270z" />
<glyph unicode="C" horiz-adv-x="1482" d="M76 727q0 166 60.5 308t163.5 237.5t240.5 149t290.5 53.5q83 0 160.5 -16t157.5 -52t152 -102t126 -158l-233 -162q-62 90 -154 136t-200 46q-184 0 -307 -120.5t-123 -319.5q0 -201 124.5 -320.5t307.5 -119.5q228 0 352 182l233 -162q-54 -92 -126.5 -158 t-152.5 -101.5t-158 -51.5t-161 -16q-153 0 -290.5 53.5t-240 149t-162.5 236.5t-60 308z" />
<glyph unicode="D" horiz-adv-x="1413" d="M96 0v1454h566q144 0 272.5 -54t221.5 -149t147.5 -231t54.5 -293t-54.5 -293t-147.5 -231t-221.5 -149t-272.5 -54h-566zM420 305h229q180 0 276.5 115t96.5 307t-96.5 307t-276.5 115h-229v-844z" />
<glyph unicode="E" horiz-adv-x="1021" d="M96 0v1454h842v-297h-518v-278h434v-293h-434v-289h536v-297h-860z" />
<glyph unicode="F" horiz-adv-x="993" d="M96 0v1454h832v-295h-508v-291h481v-276h-481v-592h-324z" />
<glyph unicode="G" horiz-adv-x="1576" d="M76 727q0 166 61 308t165 237.5t242.5 149t291.5 53.5q81 0 159 -16t158 -52t152.5 -102.5t126.5 -157.5l-234 -162q-124 182 -358 182q-185 0 -307.5 -119t-122.5 -321q0 -204 121 -327.5t309 -123.5q59 0 111 13.5t98 42.5t80 79.5t51 118.5h-324v269h637 q11 -74 11 -143q0 -73 -12 -140q-23 -132 -83.5 -229t-149.5 -167t-199.5 -105t-232.5 -35q-152 0 -288.5 53.5t-239 148.5t-163 237t-60.5 308z" />
<glyph unicode="H" horiz-adv-x="1388" d="M96 0v1454h324v-575h549v575h323v-1454h-323v580h-549v-580h-324z" />
<glyph unicode="I" horiz-adv-x="516" d="M96 0v1454h324v-1454h-324z" />
<glyph unicode="J" horiz-adv-x="1089" d="M35 209l207 209q98 -127 221 -127q21 0 40 2.5t52 16.5t56 38.5t41 75t18 119.5v911h323v-956q0 -113 -30.5 -203.5t-80.5 -148t-118 -96t-138.5 -54.5t-146.5 -16q-151 0 -263.5 61.5t-180.5 167.5z" />
<glyph unicode="K" horiz-adv-x="1341" d="M96 0v1454h324v-612l491 612h361l-541 -659l586 -795h-354l-422 563l-121 -149v-414h-324z" />
<glyph unicode="L" horiz-adv-x="1015" d="M96 0v1454h324v-1157h541v-297h-865z" />
<glyph unicode="M" horiz-adv-x="1781" d="M96 0v1454h357l438 -1042l438 1042h357v-1454h-324v834h-10l-342 -834h-238l-342 834h-10v-834h-324z" />
<glyph unicode="N" horiz-adv-x="1458" d="M96 0v1454h324l608 -924h10v924h324v-1454h-324l-608 924h-10v-924h-324z" />
<glyph unicode="O" horiz-adv-x="1658" d="M76 727q0 163 60 303.5t162 237.5t240 152t291 55t291 -55t240 -152t162.5 -237.5t60.5 -303.5t-60.5 -303.5t-162.5 -237t-240 -151.5t-291 -55q-206 0 -377 93t-273.5 265t-102.5 389zM410 727q0 -196 121.5 -318t297.5 -122q177 0 298.5 122t121.5 318t-121.5 318 t-298.5 122q-176 0 -297.5 -122t-121.5 -318z" />
<glyph unicode="P" horiz-adv-x="1212" d="M96 0v1454h533q238 0 383 -137t145 -367q0 -226 -145.5 -362.5t-382.5 -136.5h-209v-451h-324zM420 748h178q231 0 231 202q0 207 -231 207h-178v-409z" />
<glyph unicode="Q" horiz-adv-x="1658" d="M76 727q0 163 60 303.5t162 237.5t240 152t291 55t291 -55t240 -152t162.5 -237.5t60.5 -303.5q0 -274 -160 -471l195 -256h-367l-53 70q-175 -90 -369 -90q-206 0 -377 93t-273.5 265t-102.5 389zM410 727q0 -196 121.5 -318t297.5 -122q97 0 175 37l-254 331h366 l94 -123q39 89 39 195q0 196 -121.5 318t-298.5 122q-176 0 -297.5 -122t-121.5 -318z" />
<glyph unicode="R" horiz-adv-x="1280" d="M96 0v1454h529q234 0 378 -137t144 -367q0 -151 -66.5 -259.5t-187.5 -166.5l332 -524h-342l-287 469h-176v-469h-324zM420 745h172q227 0 227 205q0 207 -227 207h-172v-412z" />
<glyph unicode="S" horiz-adv-x="1128" d="M45 344l262 121q81 -193 256 -193q79 0 132 40t53 120q0 63 -40.5 101.5t-146.5 80.5l-90 35q-83 33 -142.5 66.5t-115.5 83t-85.5 117.5t-29.5 153q0 122 63.5 216t168 142t231.5 48q92 0 172 -26t138 -71.5t99.5 -98.5t69.5 -114l-239 -135q-90 158 -228 158 q-69 0 -112 -32t-43 -91q0 -51 40 -91t148 -83l99 -39q200 -79 289 -177t89 -247q0 -88 -30 -162.5t-80.5 -126.5t-117.5 -88.5t-140 -53.5t-148 -17q-191 0 -336 101.5t-186 262.5z" />
<glyph unicode="T" horiz-adv-x="1085" d="M45 1157v297h995v-297h-335v-1157h-324v1157h-336z" />
<glyph unicode="U" horiz-adv-x="1314" d="M96 551v903h324v-905q0 -62 15 -110.5t38.5 -77t55.5 -47t63 -25t65 -6.5q43 0 81.5 11.5t75.5 39t59 83t22 132.5v905h324v-903q0 -136 -44 -246t-121 -180t-178.5 -107.5t-218.5 -37.5q-118 0 -219 37.5t-177.5 107.5t-120.5 180t-44 246z" />
<glyph unicode="V" horiz-adv-x="1503" d="M25 1454h350l377 -1055l376 1055h351l-555 -1454h-344z" />
<glyph unicode="W" horiz-adv-x="2109" d="M35 1454h340l264 -899l289 899h256l286 -899l265 899h340l-455 -1454h-256l-309 909l-307 -909h-256z" />
<glyph unicode="X" horiz-adv-x="1398" d="M25 0l485 733l-477 721h379l288 -434l287 434h377l-477 -719l487 -735h-379l-297 449l-297 -449h-376z" />
<glyph unicode="Y" horiz-adv-x="1454" d="M35 1454h366l326 -588l326 588h366l-530 -891v-563h-324v563z" />
<glyph unicode="Z" horiz-adv-x="1214" d="M25 0l657 1157h-629v297h1127l-658 -1157h635v-297h-1132z" />
<glyph unicode="[" horiz-adv-x="655" d="M92 -266v1792h471v-277h-147v-1239h147v-276h-471z" />
<glyph unicode="\" horiz-adv-x="1058" d="M45 1536h330l598 -1536h-330z" />
<glyph unicode="]" horiz-adv-x="655" d="M92 10h148v1239h-148v277h471v-1792h-471v276z" />
<glyph unicode="^" horiz-adv-x="1034" d="M92 973l342 461h166l342 -461h-268l-156 213l-158 -213h-268z" />
<glyph unicode="_" horiz-adv-x="1208" d="M92 0h1024v-276h-1024v276z" />
<glyph unicode="`" horiz-adv-x="491" d="M20 1516h250l201 -324h-244z" />
<glyph unicode="a" d="M45 532q0 134 45 242t118.5 174.5t162.5 101.5t182 35q124 0 211 -49.5t104 -91.5h6v121h318v-1065h-318v121h-6q-17 -42 -104 -91.5t-211 -49.5q-93 0 -182 35t-162.5 101t-118.5 174t-45 242zM358 532q0 -124 76.5 -197t183.5 -73q110 0 187.5 72.5t77.5 197.5 t-77.5 198t-187.5 73q-107 0 -183.5 -73.5t-76.5 -197.5z" />
<glyph unicode="b" d="M96 0v1454h318v-510h6q17 42 104 91.5t211 49.5q93 0 182 -35t162.5 -101.5t118.5 -174.5t45 -242t-45 -242t-118.5 -174t-162.5 -101t-182 -35q-124 0 -211 49.5t-104 91.5h-6v-121h-318zM406 532q0 -125 77 -197.5t187 -72.5q107 0 183.5 73t76.5 197t-76.5 197.5 t-183.5 73.5q-110 0 -187 -73t-77 -198z" />
<glyph unicode="c" horiz-adv-x="1116" d="M45 535q0 105 31.5 195t86 154.5t127 110.5t154.5 68t168 22q144 0 263.5 -66.5t195.5 -195.5l-229 -149q-91 125 -230 125q-106 0 -180 -73t-74 -191q0 -121 74 -195t180 -74q139 0 230 125l229 -149q-77 -128 -196.5 -195t-262.5 -67q-86 0 -168 22.5t-154.5 68.5 t-127 110.5t-86 156t-31.5 197.5z" />
<glyph unicode="d" d="M45 532q0 134 45 242t118.5 174.5t162.5 101.5t182 35q124 0 211 -49.5t104 -91.5h6v510h318v-1454h-318v121h-6q-17 -42 -104 -91.5t-211 -49.5q-93 0 -182 35t-162.5 101t-118.5 174t-45 242zM358 532q0 -124 76.5 -197t183.5 -73q110 0 187.5 72.5t77.5 197.5 t-77.5 198t-187.5 73q-107 0 -183.5 -73.5t-76.5 -197.5z" />
<glyph unicode="e" horiz-adv-x="1163" d="M45 530q0 130 46 237.5t123 175.5t173.5 105t200.5 37q84 0 164.5 -23t154.5 -75t125.5 -128t73.5 -192q12 -61 12 -128q0 -61 -10 -129h-758q32 -85 107.5 -128.5t183.5 -43.5q149 0 256 81l143 -149q-69 -87 -181 -138.5t-253 -51.5q-111 0 -212 37.5t-179 105.5 t-124 174t-46 233zM344 637h485q-16 88 -84 135t-153 47q-86 0 -154.5 -46t-93.5 -136z" />
<glyph unicode="f" horiz-adv-x="815" d="M25 813v252h141v49q0 96 26.5 168.5t65.5 113t93.5 65.5t100.5 32.5t97 7.5q132 0 201 -41v-248q-48 21 -115 21q-77 0 -114.5 -40.5t-37.5 -111.5v-16h267v-252h-267v-813h-317v813h-141z" />
<glyph unicode="g" d="M45 532q0 108 30 199.5t80 155.5t116 109.5t138 67t146 21.5q121 0 205.5 -49.5t101.5 -91.5h12v121h318v-975q0 -121 -37 -215t-94 -149.5t-135.5 -91t-151.5 -48t-151 -12.5q-213 0 -310 64v253q36 -24 106.5 -38.5t143.5 -14.5q147 0 229 62t82 163v58h-12 q-17 -42 -101.5 -91.5t-205.5 -49.5q-74 0 -146 21.5t-138 66.5t-116 109t-80 155.5t-30 199.5zM358 532q0 -124 77.5 -197t185.5 -73q110 0 186 72.5t76 197.5t-76 198t-186 73q-108 0 -185.5 -73.5t-77.5 -197.5z" />
<glyph unicode="h" horiz-adv-x="1222" d="M96 0v1454h318v-524q102 155 315 155q83 0 153 -26.5t125.5 -80t87 -143.5t31.5 -208v-627h-317v571q0 103 -52 167.5t-147 64.5q-94 0 -145 -64.5t-51 -167.5v-571h-318z" />
<glyph unicode="i" horiz-adv-x="509" d="M96 0v1065h318v-1065h-318zM96 1178v276h318v-276h-318z" />
<glyph unicode="j" horiz-adv-x="516" d="M-184 -102h65q58 0 96 9t68 32.5t43.5 68t13.5 113.5v944h318v-977q0 -254 -123.5 -368.5t-398.5 -114.5h-82v293zM102 1178v276h318v-276h-318z" />
<glyph unicode="k" horiz-adv-x="1212" d="M96 0v1454h318v-792l352 403h379l-418 -463l461 -602h-350l-308 387l-116 -131v-256h-318z" />
<glyph unicode="l" horiz-adv-x="509" d="M96 0v1454h318v-1454h-318z" />
<glyph unicode="m" horiz-adv-x="1845" d="M96 0v1065h318v-131q98 151 297 151q202 0 301 -167q115 167 348 167q178 0 283.5 -117.5t105.5 -353.5v-614h-317v602q0 98 -47.5 149.5t-122.5 51.5q-80 0 -130.5 -52t-50.5 -149v-602h-317v602q0 98 -47.5 149.5t-122.5 51.5q-79 0 -129.5 -52t-50.5 -149v-602h-318z " />
<glyph unicode="n" horiz-adv-x="1222" d="M96 0v1065h318v-135q102 155 315 155q83 0 153 -26.5t125.5 -80t87 -143.5t31.5 -208v-627h-317v571q0 103 -52 167.5t-147 64.5q-94 0 -145 -64.5t-51 -167.5v-571h-318z" />
<glyph unicode="o" horiz-adv-x="1220" d="M45 532q0 105 32 196t86.5 155.5t127 110.5t153.5 68.5t166 22.5q106 0 206 -36.5t181 -103.5t130 -174.5t49 -238.5t-49 -238t-130 -174.5t-180.5 -103.5t-206.5 -36t-206.5 36t-180.5 103.5t-129.5 174.5t-48.5 238zM358 532q0 -120 73 -193t179 -73t179 73t73 193 t-73 193.5t-179 73.5t-179 -73.5t-73 -193.5z" />
<glyph unicode="p" d="M96 -389v1454h318v-121h6q17 42 104 91.5t211 49.5q93 0 182 -35t162.5 -101.5t118.5 -174.5t45 -242t-45 -242t-118.5 -174t-162.5 -101t-182 -35q-124 0 -211 49.5t-104 91.5h-6v-510h-318zM406 532q0 -125 77 -197.5t187 -72.5q107 0 183.5 73t76.5 197t-76.5 197.5 t-183.5 73.5q-110 0 -187 -73t-77 -198z" />
<glyph unicode="q" d="M45 532q0 134 45 242t118.5 174.5t162.5 101.5t182 35q124 0 211 -49.5t104 -91.5h6v121h318v-1454h-318v510h-6q-17 -42 -104 -91.5t-211 -49.5q-93 0 -182 35t-162.5 101t-118.5 174t-45 242zM358 532q0 -124 76.5 -197t183.5 -73q110 0 187.5 72.5t77.5 197.5 t-77.5 198t-187.5 73q-107 0 -183.5 -73.5t-76.5 -197.5z" />
<glyph unicode="r" horiz-adv-x="864" d="M96 0v1065h318v-289q28 139 110 224t219 85q42 0 76 -10v-301q-38 6 -74 6q-155 0 -243 -94t-88 -248v-438h-318z" />
<glyph unicode="s" horiz-adv-x="909" d="M35 283l252 67q39 -123 153 -123q46 0 78.5 23t32.5 65q0 61 -90 91l-144 53q-128 46 -189.5 126.5t-61.5 184.5q0 144 112 229.5t275 85.5q150 0 252.5 -77t130.5 -207l-248 -62q-33 101 -123 101q-43 0 -67.5 -22t-24.5 -52q0 -61 92 -90l133 -49q266 -90 266 -312 q0 -157 -118 -246t-302 -89q-166 0 -275.5 77.5t-133.5 225.5z" />
<glyph unicode="t" horiz-adv-x="798" d="M45 813v252h158v272h317v-272h223v-252h-223v-434q0 -46 30.5 -78.5t96.5 -32.5q46 0 101 17v-242q-55 -55 -205 -55q-157 0 -248.5 82.5t-91.5 257.5v485h-158z" />
<glyph unicode="u" horiz-adv-x="1222" d="M96 438v627h318v-571q0 -104 51.5 -168t146.5 -64q94 0 145.5 64.5t51.5 167.5v571h317v-1065h-317v135q-102 -155 -315 -155q-83 0 -153 26.5t-126 80t-87.5 143.5t-31.5 208z" />
<glyph unicode="v" horiz-adv-x="1236" d="M25 1065h323l270 -692l271 692h323l-446 -1065h-295z" />
<glyph unicode="w" horiz-adv-x="1875" d="M25 1065h315l223 -690l232 690h286l232 -690l223 690h315l-389 -1065h-288l-236 662l-236 -662h-288z" />
<glyph unicode="x" horiz-adv-x="1204" d="M14 0l406 547l-365 518h359l188 -289l189 289h358l-365 -518l406 -547h-363l-225 315l-225 -315h-363z" />
<glyph unicode="y" horiz-adv-x="1236" d="M25 1065h323l270 -692l271 692h323l-446 -1065l-164 -389h-311l176 401z" />
<glyph unicode="z" horiz-adv-x="1081" d="M25 0l528 788h-467v277h971l-529 -789h484v-276h-987z" />
<glyph unicode="{" horiz-adv-x="743" d="M92 627l92 149v508q0 60 17 105.5t42 71t59.5 41t63.5 20t60 4.5h225v-277h-71q-72 0 -72 -61v-422l-119 -139l119 -135v-420q0 -62 72 -62h71v-276h-225q-33 0 -62 4.5t-63.5 20t-59 40.5t-41 70.5t-16.5 105.5v506z" />
<glyph unicode="|" horiz-adv-x="530" d="M127 -184v1638h276v-1638h-276z" />
<glyph unicode="}" horiz-adv-x="743" d="M92 10h72q72 0 72 62v420l118 135l-118 139v422q0 61 -72 61h-72v277h225q31 0 60 -4.5t63.5 -20t59.5 -41t42 -71t17 -105.5v-508l92 -149l-92 -146v-506q0 -60 -16.5 -105.5t-41 -70.5t-59 -40.5t-63.5 -20t-62 -4.5h-225v276z" />
<glyph unicode="~" horiz-adv-x="1019" d="M92 473q0 123 63 199t183 76q50 0 89 -10.5t62 -26t42.5 -30.5t41.5 -25.5t48 -10.5q73 0 73 51h234q0 -122 -63 -198t-183 -76q-62 0 -107.5 16t-66.5 35t-49.5 35t-59.5 16q-73 0 -73 -51h-234z" />
<glyph unicode="&#xa1;" horiz-adv-x="577" d="M96 905q0 80 53 130t127 50t127.5 -50.5t53.5 -129.5t-53.5 -129.5t-127.5 -50.5t-127 50t-53 130zM119 -389v975h327v-975h-327z" />
<glyph unicode="&#xa2;" horiz-adv-x="1116" d="M45 678q0 116 40.5 213t109 162.5t155.5 106t185 52.5v222h149v-222q121 -14 221 -77.5t166 -173.5l-229 -148q-67 92 -158 113v-502q90 24 158 113l229 -146q-67 -109 -167 -174t-220 -80v-219h-149v219q-78 9 -149.5 36.5t-133.5 74t-108 108t-72.5 144.5t-26.5 178z M358 678q0 -95 49.5 -162t127.5 -90v498q-78 -23 -127.5 -88.5t-49.5 -157.5z" />
<glyph unicode="&#xa3;" horiz-adv-x="1171" d="M61 547v233h117q-82 145 -82 269q0 130 68.5 228t183 148t256.5 50q146 0 258.5 -51.5t178 -156t65.5 -249.5v-41h-305v37q0 19 -3.5 38.5t-16 47t-32.5 48t-58.5 35.5t-88.5 15q-58 0 -99 -18.5t-61.5 -49.5t-29.5 -63t-9 -66q0 -15 2.5 -31t4.5 -27.5t9.5 -29.5 t10 -25.5t13.5 -28.5t13 -25t16 -28t15 -26h326v-233h-244v-6q0 -83 -36 -156.5t-93 -124.5h647v-260h-1021v260q5 4 28 21t33.5 25t33 27.5t34.5 33.5t28.5 36t25 42.5t15 47t6.5 54.5h-209z" />
<glyph unicode="&#xa4;" horiz-adv-x="1183" d="M76 702l88 89q-37 81 -37 184q0 107 41 194l-92 93l190 188l80 -80q109 64 240 64q134 0 248 -68l84 84l190 -188l-100 -101q36 -82 36 -186q0 -91 -32 -176l96 -97l-190 -190l-78 78q-113 -74 -254 -74q-134 0 -248 68l-72 -72zM377 975q0 -26 6.5 -53.5t22.5 -56 t39 -51t59.5 -36.5t81.5 -14q56 1 99.5 22t67 54t35 67.5t11.5 67.5t-11.5 68t-35 68t-67 54t-99.5 21q-55 -1 -98 -22t-66 -54t-34 -67.5t-11 -67.5z" />
<glyph unicode="&#xa5;" horiz-adv-x="1454" d="M35 1454h366l326 -588l326 588h366l-530 -891v-26h291v-156h-291v-70h291v-157h-291v-154h-324v154h-272v157h272v70h-272v156h272v26z" />
<glyph unicode="&#xa6;" horiz-adv-x="530" d="M127 -184v573h276v-573h-276zM127 881v573h276v-573h-276z" />
<glyph unicode="&#xa7;" horiz-adv-x="911" d="M45 -39v250h234v-105q17 -22 57 -43.5t100 -21.5q81 0 121.5 30t40.5 79q0 53 -26 82t-89 55l-141 47q-136 49 -213.5 129t-77.5 207q0 139 90 223q-90 90 -90 219q0 154 110 239t283 85q121 0 237.5 -48.5t135.5 -93.5v-247h-231v102q-10 21 -52 40t-92 19 q-63 0 -101 -28t-38 -78q0 -82 113 -117l155 -55q151 -55 223 -135.5t72 -204.5q0 -137 -86 -223q86 -86 86 -220q0 -85 -32 -149.5t-90.5 -104t-136.5 -59.5t-173 -20q-131 0 -237.5 45t-151.5 102zM303 659q0 -81 113 -116l129 -45q53 30 53 94q0 53 -26 82t-89 55 l-102 35q-78 -29 -78 -105z" />
<glyph unicode="&#xa8;" horiz-adv-x="864" d="M20 1180v311h293v-311h-293zM551 1180v311h293v-311h-293z" />
<glyph unicode="&#xa9;" horiz-adv-x="1605" d="M76 727q0 161 60.5 301.5t161 235.5t232 149.5t273.5 54.5t273.5 -54.5t232 -149.5t161 -235.5t60.5 -301.5t-60.5 -301.5t-161 -235.5t-232 -149.5t-273.5 -54.5t-273.5 54.5t-232 149.5t-161 235.5t-60.5 301.5zM350 727q0 -210 130.5 -339.5t322.5 -129.5t322 129.5 t130 339.5t-130 339.5t-322 129.5t-322.5 -129.5t-130.5 -339.5zM457 727q0 168 102 270.5t256 102.5q78 0 141 -29t101 -82l-148 -176q-33 33 -78 33q-46 0 -76 -36t-30 -83t30 -83t76 -36q45 0 78 33l148 -176q-38 -53 -101 -82t-141 -29q-154 0 -256 102.5t-102 270.5z " />
<glyph unicode="&#xaa;" horiz-adv-x="831" d="M45 983q0 105 74 158t198 59l158 6q1 42 -34 65t-85 23q-43 0 -88 -16.5t-75 -48.5l-109 121q37 47 110.5 83.5t178.5 36.5q154 0 239 -85t84 -242v-197q0 -58 8 -91.5t31 -88.5h-184q-22 11 -39 78q-67 -84 -205 -84q-121 0 -191.5 59.5t-70.5 163.5zM254 985 q0 -23 19.5 -41t60.5 -18q94 0 141 108v23l-160 -10q-61 -4 -61 -62z" />
<glyph unicode="&#xab;" horiz-adv-x="911" d="M82 522v117l307 309l96 -102l-192 -266l192 -267l-96 -102zM457 522v117l307 309l96 -102l-192 -266l192 -267l-96 -102z" />
<glyph unicode="&#xac;" horiz-adv-x="1116" d="M92 352v266h932v-479h-303v213h-629z" />
<glyph unicode="&#xad;" horiz-adv-x="819" d="M92 426v266h635v-266h-635z" />
<glyph unicode="&#xae;" horiz-adv-x="1605" d="M76 727q0 165 60.5 308t161 239t232 150.5t273.5 54.5t273.5 -54.5t232 -150.5t161 -239t60.5 -308q0 -161 -60.5 -301.5t-161 -235.5t-232 -149.5t-273.5 -54.5t-273.5 54.5t-232 149.5t-161 235.5t-60.5 301.5zM350 727q0 -210 130.5 -339.5t322.5 -129.5t322 129.5 t130 339.5q0 217 -129.5 348t-322.5 131t-323 -131t-130 -348zM559 406v663h283q117 0 175 -62t58 -171q0 -73 -25.5 -122.5t-95.5 -99.5l144 -208h-197l-125 200h-28v-200h-189zM741 770h70q18 0 26 1t21.5 6.5t19 20.5t5.5 40q0 22 -6 36.5t-18 20.5t-22.5 8t-25.5 2h-70 v-135z" />
<glyph unicode="&#xaf;" horiz-adv-x="815" d="M20 1180v239h775v-239h-775z" />
<glyph unicode="&#xb0;" horiz-adv-x="751" d="M66 1174q0 127 91.5 214t217.5 87q127 0 219 -87t92 -214q0 -128 -92.5 -217t-218.5 -89t-217.5 89t-91.5 217zM299 1174q0 -28 17.5 -53t58.5 -25q42 0 60 25t18 53q0 27 -18 50t-60 23q-41 0 -58.5 -23t-17.5 -50z" />
<glyph unicode="&#xb1;" horiz-adv-x="980" d="M92 651v267h264v264h267v-264h266v-267h-266v-262h-267v262h-264zM147 2v266h687v-266h-687z" />
<glyph unicode="&#xb2;" horiz-adv-x="481" d="M55 1247v29q0 72 50.5 119t121.5 47q70 0 121 -46.5t51 -107.5q0 -54 -29.5 -96.5t-109.5 -124.5l-96 -100h242v-66h-345v66l140 141q58 60 75 79t31.5 46t14.5 55q0 37 -28.5 63.5t-66.5 26.5q-39 0 -67.5 -26.5t-28.5 -75.5v-29h-76z" />
<glyph unicode="&#xb3;" horiz-adv-x="505" d="M66 1079h77q-17 -46 19.5 -83.5t89.5 -37.5q45 0 77.5 28t32.5 71q0 58 -41 80.5t-110 7.5v65q129 11 129 90q0 30 -26 53t-62 23q-45 0 -73 -34t-19 -87h-80q-9 77 43 131t129 54q65 0 114.5 -43.5t49.5 -96.5q0 -64 -62 -108q38 -16 62 -50.5t24 -84.5 q0 -69 -56 -116.5t-132 -47.5q-87 0 -141 55.5t-45 130.5z" />
<glyph unicode="&#xb4;" horiz-adv-x="417" d="M20 1192l211 324h250l-217 -324h-244z" />
<glyph unicode="&#xb5;" horiz-adv-x="1222" d="M96 -389v1454h318v-571q0 -104 51.5 -168t146.5 -64q94 0 145.5 64.5t51.5 167.5v571h317v-1065h-317v135q-102 -155 -315 -155q-40 0 -80 6v-375h-318z" />
<glyph unicode="&#xb6;" horiz-adv-x="1746" d="M76 950q0 230 145 367t383 137h533v-1454h-324v451h-209q-237 0 -382.5 136.5t-145.5 362.5zM403 950q0 -202 232 -202h178v409h-178q-232 0 -232 -207zM1327 0v1454h324v-1454h-324z" />
<glyph unicode="&#xb7;" horiz-adv-x="528" d="M84 559q0 80 53 130t127 50t127 -50t53 -130t-53 -130t-127 -50t-127 50t-53 130z" />
<glyph unicode="&#xb8;" horiz-adv-x="475" d="M20 -131l74 131h219l-49 -74q86 -4 138.5 -56.5t52.5 -127.5q0 -60 -37.5 -108t-97 -73t-133.5 -32.5t-148 12.5v90q199 -3 199 84q0 45 -46 73t-147 17z" />
<glyph unicode="&#xb9;" horiz-adv-x="397" d="M104 1395l72 41h76v-535h-76v453l-35 -23z" />
<glyph unicode="&#xba;" horiz-adv-x="753" d="M45 1108q0 100 51.5 179t127 118t155.5 39q79 0 153.5 -39t125.5 -118t51 -179q0 -101 -51 -180t-125 -117.5t-154 -38.5q-81 0 -156 38.5t-126.5 117.5t-51.5 180zM250 1108q0 -57 39 -94t90 -37q49 0 88 37.5t39 93.5q0 55 -39 93t-88 38q-51 0 -90 -38t-39 -93z" />
<glyph unicode="&#xbb;" horiz-adv-x="911" d="M51 313l193 267l-193 266l96 102l308 -309v-117l-308 -311zM426 313l192 267l-192 266l96 102l307 -309v-117l-307 -311z" />
<glyph unicode="&#xbc;" horiz-adv-x="1165" d="M51 0l893 1434h86l-880 -1434h-99zM57 1395l72 41h76v-535h-76v453l-35 -23zM713 156l270 379h76v-316h55v-63h-55v-156h-76v156h-270zM850 219h133v195z" />
<glyph unicode="&#xbd;" horiz-adv-x="1114" d="M51 0l893 1434h86l-880 -1434h-99zM57 1395l72 41h76v-535h-76v453l-35 -23zM713 346v29q0 72 50.5 119t121.5 47q70 0 121 -46.5t51 -107.5q0 -54 -29.5 -96.5t-109.5 -124.5l-97 -100h242v-66h-344v66l139 141q58 60 75 79t31.5 46t14.5 55q0 38 -28.5 64t-65.5 26 q-39 0 -68 -26.5t-29 -75.5v-29h-75z" />
<glyph unicode="&#xbe;" horiz-adv-x="1202" d="M51 1079h78q-17 -46 19.5 -83.5t89.5 -37.5q45 0 77.5 28t32.5 71q0 58 -41 80.5t-110 7.5v65q129 11 129 90q0 30 -26 53t-62 23q-45 0 -73.5 -34t-19.5 -87h-79q-9 77 43 131t129 54q65 0 114 -43.5t49 -96.5q0 -65 -61 -108q38 -16 62 -50.5t24 -84.5 q0 -69 -56 -116.5t-132 -47.5q-87 0 -141.5 56t-45.5 130zM109 0l892 1434h86l-880 -1434h-98zM750 156l270 379h76v-316h55v-63h-55v-156h-76v156h-270zM887 219h133v195z" />
<glyph unicode="&#xbf;" horiz-adv-x="1093" d="M53 -4q0 70 19 127t48.5 95t66 70t73 59.5t66 56t48.5 67.5t19 86v39h322v-45q0 -71 -18.5 -128.5t-48.5 -95.5t-66 -69t-72 -55.5t-66 -48.5t-48.5 -54.5t-18.5 -66.5q0 -22 7 -47t24 -53t52 -46t83 -18q51 0 88.5 19.5t57.5 51.5t29 65t9 67v24h313v-24 q0 -235 -133.5 -358.5t-367.5 -123.5q-228 0 -357 111t-129 295zM377 905q0 80 53 130t127 50t127 -50t53 -130t-53 -130t-127 -50t-127 50t-53 130z" />
<glyph unicode="&#xc0;" horiz-adv-x="1482" d="M14 0l555 1454h344l555 -1454h-350l-82 231h-590l-81 -231h-351zM416 1905h250l200 -324h-243zM555 530h373l-187 525z" />
<glyph unicode="&#xc1;" horiz-adv-x="1482" d="M14 0l555 1454h344l555 -1454h-350l-82 231h-590l-81 -231h-351zM555 530h373l-187 525zM631 1581l211 324h250l-218 -324h-243z" />
<glyph unicode="&#xc2;" horiz-adv-x="1482" d="M14 0l555 1454h344l555 -1454h-350l-82 231h-590l-81 -231h-351zM424 1647l209 258h217l209 -258l-150 -136l-168 207l-168 -207zM555 530h373l-187 525z" />
<glyph unicode="&#xc3;" horiz-adv-x="1482" d="M14 0l555 1454h344l555 -1454h-350l-82 231h-590l-81 -231h-351zM373 1616q0 125 65 194.5t160 69.5q42 0 80 -15.5t60.5 -33.5t48.5 -33.5t47 -15.5q24 0 43.5 14t19.5 43h213q0 -123 -66 -192.5t-161 -69.5q-42 0 -79 15t-59.5 33t-48.5 33t-47 15q-24 0 -43.5 -14 t-19.5 -43h-213zM555 530h373l-187 525z" />
<glyph unicode="&#xc4;" horiz-adv-x="1482" d="M14 0l555 1454h344l555 -1454h-350l-82 231h-590l-81 -231h-351zM330 1569v311h293v-311h-293zM555 530h373l-187 525zM860 1569v311h293v-311h-293z" />
<glyph unicode="&#xc5;" horiz-adv-x="1482" d="M14 0l555 1454h344l555 -1454h-350l-82 231h-590l-81 -231h-351zM496 1815q0 102 70.5 172.5t176.5 70.5q98 0 168 -71t70 -172q0 -100 -70 -171t-168 -71q-106 0 -176.5 70.5t-70.5 171.5zM555 530h373l-187 525zM692 1815q0 -22 12.5 -36t32.5 -14q21 0 35 14.5 t14 35.5t-14 35t-35 14q-20 0 -32.5 -13.5t-12.5 -35.5z" />
<glyph unicode="&#xc6;" horiz-adv-x="1914" d="M14 0l975 1446v8h842v-297h-518v-278h434v-293h-434v-289h536v-297h-860v301h-414l-202 -301h-359zM762 578h227v337z" />
<glyph unicode="&#xc7;" horiz-adv-x="1482" d="M76 727q0 166 60.5 308t163.5 237.5t240.5 149t290.5 53.5q83 0 160.5 -16t157.5 -52t152 -102t126 -158l-233 -162q-62 90 -154 136t-200 46q-184 0 -307 -120.5t-123 -319.5q0 -201 124.5 -320.5t307.5 -119.5q228 0 352 182l233 -162q-49 -84 -113.5 -146t-136 -99 t-143 -56t-147.5 -24l-37 -56q86 -4 138 -56.5t52 -127.5q0 -60 -37 -108t-96.5 -73t-133.5 -32.5t-148 12.5v90q97 -2 147.5 17.5t50.5 66.5q0 45 -45.5 73t-146.5 17l-25 64l70 125q-127 24 -236.5 86t-190.5 154.5t-127 219.5t-46 273z" />
<glyph unicode="&#xc8;" horiz-adv-x="1021" d="M96 0v1454h842v-297h-518v-278h434v-293h-434v-289h536v-297h-860zM215 1905h250l201 -324h-244z" />
<glyph unicode="&#xc9;" horiz-adv-x="1021" d="M96 0v1454h842v-297h-518v-278h434v-293h-434v-289h536v-297h-860zM432 1581l211 324h250l-217 -324h-244z" />
<glyph unicode="&#xca;" horiz-adv-x="1021" d="M96 0v1454h842v-297h-518v-278h434v-293h-434v-289h536v-297h-860zM225 1647l209 258h217l209 -258l-149 -136l-168 207l-168 -207z" />
<glyph unicode="&#xcb;" horiz-adv-x="1021" d="M96 0v1454h842v-297h-518v-278h434v-293h-434v-289h536v-297h-860zM131 1569v311h293v-311h-293zM662 1569v311h292v-311h-292z" />
<glyph unicode="&#xcc;" horiz-adv-x="516" d="M-68 1905h250l201 -324h-244zM96 0v1454h324v-1454h-324z" />
<glyph unicode="&#xcd;" horiz-adv-x="516" d="M96 0v1454h324v-1454h-324zM147 1581l211 324h250l-217 -324h-244z" />
<glyph unicode="&#xce;" horiz-adv-x="516" d="M-59 1647l209 258h217l208 -258l-149 -136l-168 207l-168 -207zM96 0v1454h324v-1454h-324z" />
<glyph unicode="&#xcf;" horiz-adv-x="516" d="M-154 1569v311h293v-311h-293zM96 0v1454h324v-1454h-324zM377 1569v311h293v-311h-293z" />
<glyph unicode="&#xd0;" horiz-adv-x="1595" d="M186 565v266h93v623h565q144 0 272.5 -54t221.5 -149t147.5 -231t54.5 -293t-54.5 -293t-147.5 -231t-221.5 -149t-272.5 -54h-565v565h-93zM602 305h229q180 0 276.5 115t96.5 307t-96.5 307t-276.5 115h-229v-318h219v-266h-219v-260z" />
<glyph unicode="&#xd1;" horiz-adv-x="1458" d="M96 0v1454h324l608 -924h10v924h324v-1454h-324l-608 924h-10v-924h-324zM360 1616q0 125 65.5 194.5t160.5 69.5q42 0 80 -15.5t60 -33.5t48 -33.5t47 -15.5q25 0 44.5 14t19.5 43h213q0 -123 -66.5 -192.5t-161.5 -69.5q-42 0 -79 15t-59 33t-48 33t-47 15 q-25 0 -44.5 -14t-19.5 -43h-213z" />
<glyph unicode="&#xd2;" horiz-adv-x="1658" d="M76 727q0 163 60 303.5t162 237.5t240 152t291 55t291 -55t240 -152t162.5 -237.5t60.5 -303.5t-60.5 -303.5t-162.5 -237t-240 -151.5t-291 -55q-206 0 -377 93t-273.5 265t-102.5 389zM410 727q0 -196 121.5 -318t297.5 -122q177 0 298.5 122t121.5 318t-121.5 318 t-298.5 122q-176 0 -297.5 -122t-121.5 -318zM500 1905h250l200 -324h-243z" />
<glyph unicode="&#xd3;" horiz-adv-x="1658" d="M76 727q0 163 60 303.5t162 237.5t240 152t291 55t291 -55t240 -152t162.5 -237.5t60.5 -303.5t-60.5 -303.5t-162.5 -237t-240 -151.5t-291 -55q-206 0 -377 93t-273.5 265t-102.5 389zM410 727q0 -196 121.5 -318t297.5 -122q177 0 298.5 122t121.5 318t-121.5 318 t-298.5 122q-176 0 -297.5 -122t-121.5 -318zM715 1581l211 324h250l-218 -324h-243z" />
<glyph unicode="&#xd4;" horiz-adv-x="1658" d="M76 727q0 163 60 303.5t162 237.5t240 152t291 55t291 -55t240 -152t162.5 -237.5t60.5 -303.5t-60.5 -303.5t-162.5 -237t-240 -151.5t-291 -55q-206 0 -377 93t-273.5 265t-102.5 389zM410 727q0 -196 121.5 -318t297.5 -122q177 0 298.5 122t121.5 318t-121.5 318 t-298.5 122q-176 0 -297.5 -122t-121.5 -318zM508 1647l209 258h217l209 -258l-150 -136l-168 207l-168 -207z" />
<glyph unicode="&#xd5;" horiz-adv-x="1658" d="M76 727q0 163 60 303.5t162 237.5t240 152t291 55t291 -55t240 -152t162.5 -237.5t60.5 -303.5t-60.5 -303.5t-162.5 -237t-240 -151.5t-291 -55q-206 0 -377 93t-273.5 265t-102.5 389zM410 727q0 -196 121.5 -318t297.5 -122q177 0 298.5 122t121.5 318t-121.5 318 t-298.5 122q-176 0 -297.5 -122t-121.5 -318zM457 1616q0 125 65 194.5t160 69.5q42 0 80 -15.5t60.5 -33.5t48.5 -33.5t47 -15.5q24 0 43.5 14t19.5 43h213q0 -123 -66 -192.5t-161 -69.5q-42 0 -79 15t-59.5 33t-48.5 33t-47 15q-24 0 -43.5 -14t-19.5 -43h-213z" />
<glyph unicode="&#xd6;" horiz-adv-x="1658" d="M76 727q0 163 60 303.5t162 237.5t240 152t291 55t291 -55t240 -152t162.5 -237.5t60.5 -303.5t-60.5 -303.5t-162.5 -237t-240 -151.5t-291 -55q-206 0 -377 93t-273.5 265t-102.5 389zM410 727q0 -196 121.5 -318t297.5 -122q177 0 298.5 122t121.5 318t-121.5 318 t-298.5 122q-176 0 -297.5 -122t-121.5 -318zM414 1569v311h293v-311h-293zM944 1569v311h293v-311h-293z" />
<glyph unicode="&#xd7;" horiz-adv-x="935" d="M92 727l189 188l186 -186l186 186l189 -188l-187 -186l189 -191l-189 -186l-188 188l-186 -186l-187 188l185 187z" />
<glyph unicode="&#xd8;" horiz-adv-x="1658" d="M76 727q0 163 60 303.5t162 237.5t240 152t291 55q95 0 177 -21l34 72h359l-99 -207q132 -101 207.5 -254t75.5 -338q0 -163 -60.5 -303.5t-162.5 -237t-240 -151.5t-291 -55q-80 0 -165 16l-48 -98h-356l111 229q-137 101 -216 256t-79 344zM410 727q0 -182 104 -299 l354 737q-12 2 -39 2q-176 0 -297.5 -122t-121.5 -318zM803 287h26q177 0 298.5 122t121.5 318q0 169 -96 289z" />
<glyph unicode="&#xd9;" horiz-adv-x="1314" d="M96 551v903h324v-905q0 -62 15 -110.5t38.5 -77t55.5 -47t63 -25t65 -6.5q43 0 81.5 11.5t75.5 39t59 83t22 132.5v905h324v-903q0 -136 -44 -246t-121 -180t-178.5 -107.5t-218.5 -37.5q-118 0 -219 37.5t-177.5 107.5t-120.5 180t-44 246zM330 1905h250l200 -324h-243z " />
<glyph unicode="&#xda;" horiz-adv-x="1314" d="M96 551v903h324v-905q0 -62 15 -110.5t38.5 -77t55.5 -47t63 -25t65 -6.5q43 0 81.5 11.5t75.5 39t59 83t22 132.5v905h324v-903q0 -136 -44 -246t-121 -180t-178.5 -107.5t-218.5 -37.5q-118 0 -219 37.5t-177.5 107.5t-120.5 180t-44 246zM547 1581l211 324h250 l-217 -324h-244z" />
<glyph unicode="&#xdb;" horiz-adv-x="1314" d="M96 551v903h324v-905q0 -62 15 -110.5t38.5 -77t55.5 -47t63 -25t65 -6.5q43 0 81.5 11.5t75.5 39t59 83t22 132.5v905h324v-903q0 -136 -44 -246t-121 -180t-178.5 -107.5t-218.5 -37.5q-118 0 -219 37.5t-177.5 107.5t-120.5 180t-44 246zM340 1647l209 258h217 l209 -258l-150 -136l-168 207l-168 -207z" />
<glyph unicode="&#xdc;" horiz-adv-x="1314" d="M96 551v903h324v-905q0 -62 15 -110.5t38.5 -77t55.5 -47t63 -25t65 -6.5q43 0 81.5 11.5t75.5 39t59 83t22 132.5v905h324v-903q0 -136 -44 -246t-121 -180t-178.5 -107.5t-218.5 -37.5q-118 0 -219 37.5t-177.5 107.5t-120.5 180t-44 246zM246 1569v311h293v-311h-293z M776 1569v311h293v-311h-293z" />
<glyph unicode="&#xdd;" horiz-adv-x="1454" d="M35 1454h366l326 -588l326 588h366l-530 -891v-563h-324v563zM616 1581l211 324h250l-217 -324h-244z" />
<glyph unicode="&#xde;" horiz-adv-x="1300" d="M96 0v1454h324v-278h299q247 0 386.5 -117t139.5 -328t-139.5 -327.5t-386.5 -116.5h-299v-287h-324zM420 563h278q50 0 85 5.5t69.5 22t52 51.5t17.5 89t-17.5 89t-52 51.5t-69.5 22t-85 5.5h-278v-336z" />
<glyph unicode="&#xdf;" horiz-adv-x="1308" d="M96 0v940q0 109 27.5 194t75.5 140.5t117 92t147.5 52t171.5 15.5q147 0 262.5 -39t186.5 -123t71 -203q0 -69 -21 -124t-54 -87.5t-69 -50.5t-71 -21q144 -18 228.5 -113t84.5 -251q0 -422 -522 -422h-170v276h139q41 0 70 2.5t61 12t51.5 27t32.5 49t13 75.5 q0 49 -16.5 85.5t-41 56t-61 31.5t-67.5 15t-70 3h-111v258h84q107 0 146.5 33.5t39.5 99.5q0 77 -49 105t-139 28q-53 0 -92.5 -9.5t-71.5 -33t-48.5 -67.5t-16.5 -109v-938h-318z" />
<glyph unicode="&#xe0;" d="M45 532q0 134 45 242t118.5 174.5t162.5 101.5t182 35q124 0 211 -49.5t104 -91.5h6v121h318v-1065h-318v121h-6q-17 -42 -104 -91.5t-211 -49.5q-93 0 -182 35t-162.5 101t-118.5 174t-45 242zM301 1516h250l201 -324h-244zM358 532q0 -124 76.5 -197t183.5 -73 q110 0 187.5 72.5t77.5 197.5t-77.5 198t-187.5 73q-107 0 -183.5 -73.5t-76.5 -197.5z" />
<glyph unicode="&#xe1;" d="M45 532q0 134 45 242t118.5 174.5t162.5 101.5t182 35q124 0 211 -49.5t104 -91.5h6v121h318v-1065h-318v121h-6q-17 -42 -104 -91.5t-211 -49.5q-93 0 -182 35t-162.5 101t-118.5 174t-45 242zM358 532q0 -124 76.5 -197t183.5 -73q110 0 187.5 72.5t77.5 197.5 t-77.5 198t-187.5 73q-107 0 -183.5 -73.5t-76.5 -197.5zM516 1192l211 324h250l-217 -324h-244z" />
<glyph unicode="&#xe2;" d="M45 532q0 134 45 242t118.5 174.5t162.5 101.5t182 35q124 0 211 -49.5t104 -91.5h6v121h318v-1065h-318v121h-6q-17 -42 -104 -91.5t-211 -49.5q-93 0 -182 35t-162.5 101t-118.5 174t-45 242zM309 1257l209 259h217l209 -259l-149 -135l-168 207l-168 -207zM358 532 q0 -124 76.5 -197t183.5 -73q110 0 187.5 72.5t77.5 197.5t-77.5 198t-187.5 73q-107 0 -183.5 -73.5t-76.5 -197.5z" />
<glyph unicode="&#xe3;" d="M45 532q0 134 45 242t118.5 174.5t162.5 101.5t182 35q124 0 211 -49.5t104 -91.5h6v121h318v-1065h-318v121h-6q-17 -42 -104 -91.5t-211 -49.5q-93 0 -182 35t-162.5 101t-118.5 174t-45 242zM258 1227q0 125 65 194.5t160 69.5q42 0 80 -15.5t60.5 -33.5t48.5 -33.5 t47 -15.5q24 0 43.5 14t19.5 43h213q0 -123 -66 -192.5t-161 -69.5q-42 0 -79 15t-59 33t-48 33t-47 15q-25 0 -44.5 -14t-19.5 -43h-213zM358 532q0 -124 76.5 -197t183.5 -73q110 0 187.5 72.5t77.5 197.5t-77.5 198t-187.5 73q-107 0 -183.5 -73.5t-76.5 -197.5z" />
<glyph unicode="&#xe4;" d="M45 532q0 134 45 242t118.5 174.5t162.5 101.5t182 35q124 0 211 -49.5t104 -91.5h6v121h318v-1065h-318v121h-6q-17 -42 -104 -91.5t-211 -49.5q-93 0 -182 35t-162.5 101t-118.5 174t-45 242zM215 1180v311h293v-311h-293zM358 532q0 -124 76.5 -197t183.5 -73 q110 0 187.5 72.5t77.5 197.5t-77.5 198t-187.5 73q-107 0 -183.5 -73.5t-76.5 -197.5zM745 1180v311h293v-311h-293z" />
<glyph unicode="&#xe5;" d="M45 532q0 134 45 242t118.5 174.5t162.5 101.5t182 35q124 0 211 -49.5t104 -91.5h6v121h318v-1065h-318v121h-6q-17 -42 -104 -91.5t-211 -49.5q-93 0 -182 35t-162.5 101t-118.5 174t-45 242zM358 532q0 -124 76.5 -197t183.5 -73q110 0 187.5 72.5t77.5 197.5 t-77.5 198t-187.5 73q-107 0 -183.5 -73.5t-76.5 -197.5zM381 1425q0 102 71 173t177 71q98 0 167.5 -71.5t69.5 -172.5q0 -100 -69.5 -170.5t-167.5 -70.5q-106 0 -177 70t-71 171zM578 1425q0 -22 12.5 -35.5t32.5 -13.5q21 0 35 14t14 35t-14 35.5t-35 14.5 q-20 0 -32.5 -14t-12.5 -36z" />
<glyph unicode="&#xe6;" horiz-adv-x="2029" d="M45 532q0 134 45 242t118.5 174.5t162.5 101.5t182 35q124 0 211 -49.5t104 -91.5h6v121h318v-43q123 63 262 63q84 0 164.5 -23t154.5 -75t125.5 -128t73.5 -192t2 -257h-757q32 -85 107 -128.5t183 -43.5q149 0 256 81l144 -149q-69 -87 -181 -138.5t-253 -51.5 q-156 0 -281 67v-47h-318v121h-6q-17 -42 -104 -91.5t-211 -49.5q-93 0 -182 35t-162.5 101t-118.5 174t-45 242zM358 532q0 -124 76.5 -197t183.5 -73q110 0 187.5 72.5t77.5 197.5t-77.5 198t-187.5 73q-107 0 -183.5 -73.5t-76.5 -197.5zM1210 637h486q-16 87 -84 134.5 t-154 47.5t-154.5 -46t-93.5 -136z" />
<glyph unicode="&#xe7;" horiz-adv-x="1116" d="M45 535q0 105 31.5 195t86 154.5t127 110.5t154.5 68t168 22q144 0 263.5 -66.5t195.5 -195.5l-229 -149q-91 125 -230 125q-106 0 -180 -73t-74 -191q0 -121 74 -195t180 -74q139 0 230 125l229 -149q-129 -211 -358 -254l-39 -58q86 -4 138 -56.5t52 -127.5 q0 -60 -37 -108t-96.5 -73t-133.5 -32.5t-148 12.5v90q97 -2 147.5 17.5t50.5 66.5q0 45 -45.5 73.5t-146.5 17.5l-25 63l66 117q-92 17 -172 60.5t-143 110t-99.5 163.5t-36.5 211z" />
<glyph unicode="&#xe8;" horiz-adv-x="1163" d="M45 530q0 130 46 237.5t123 175.5t173.5 105t200.5 37q84 0 164.5 -23t154.5 -75t125.5 -128t73.5 -192t2 -257h-758q32 -85 107.5 -128.5t183.5 -43.5q149 0 256 81l143 -149q-69 -87 -181 -138.5t-253 -51.5q-111 0 -212 37.5t-179 105.5t-124 174t-46 233zM266 1516 h250l201 -324h-244zM344 637h485q-16 88 -84 135t-153 47q-86 0 -154.5 -46t-93.5 -136z" />
<glyph unicode="&#xe9;" horiz-adv-x="1163" d="M45 530q0 130 46 237.5t123 175.5t173.5 105t200.5 37q84 0 164.5 -23t154.5 -75t125.5 -128t73.5 -192t2 -257h-758q32 -85 107.5 -128.5t183.5 -43.5q149 0 256 81l143 -149q-69 -87 -181 -138.5t-253 -51.5q-111 0 -212 37.5t-179 105.5t-124 174t-46 233zM344 637 h485q-16 88 -84 135t-153 47q-86 0 -154.5 -46t-93.5 -136zM481 1192l211 324h250l-217 -324h-244z" />
<glyph unicode="&#xea;" horiz-adv-x="1163" d="M45 530q0 130 46 237.5t123 175.5t173.5 105t200.5 37q84 0 164.5 -23t154.5 -75t125.5 -128t73.5 -192t2 -257h-758q32 -85 107.5 -128.5t183.5 -43.5q149 0 256 81l143 -149q-69 -87 -181 -138.5t-253 -51.5q-111 0 -212 37.5t-179 105.5t-124 174t-46 233zM274 1257 l209 259h217l209 -259l-149 -135l-168 207l-168 -207zM344 637h485q-16 88 -84 135t-153 47q-86 0 -154.5 -46t-93.5 -136z" />
<glyph unicode="&#xeb;" horiz-adv-x="1163" d="M45 530q0 130 46 237.5t123 175.5t173.5 105t200.5 37q84 0 164.5 -23t154.5 -75t125.5 -128t73.5 -192t2 -257h-758q32 -85 107.5 -128.5t183.5 -43.5q149 0 256 81l143 -149q-69 -87 -181 -138.5t-253 -51.5q-111 0 -212 37.5t-179 105.5t-124 174t-46 233zM180 1180 v311h293v-311h-293zM344 637h485q-16 88 -84 135t-153 47q-86 0 -154.5 -46t-93.5 -136zM711 1180v311h293v-311h-293z" />
<glyph unicode="&#xec;" horiz-adv-x="509" d="M-70 1516h250l201 -324h-244zM96 0v1065h318v-1065h-318z" />
<glyph unicode="&#xed;" horiz-adv-x="509" d="M96 0v1065h318v-1065h-318zM145 1192l211 324h250l-217 -324h-244z" />
<glyph unicode="&#xee;" horiz-adv-x="509" d="M-61 1257l208 259h218l208 -259l-149 -135l-168 207l-168 -207zM96 0v1065h318v-1065h-318z" />
<glyph unicode="&#xef;" horiz-adv-x="509" d="M-156 1180v311h293v-311h-293zM96 0v1065h318v-1065h-318zM375 1180v311h293v-311h-293z" />
<glyph unicode="&#xf0;" horiz-adv-x="1253" d="M45 516q0 135 43 241.5t118 172.5t172.5 100.5t211.5 34.5q23 0 45.5 -1t29 -1.5t15.5 0.5l-47 65l-176 -28v149l78 13l-123 172h358l86 -117l201 33v-150l-107 -18q117 -171 162 -322t45 -344q0 -107 -32 -197t-86.5 -151.5t-127.5 -104.5t-154 -63t-167 -20 q-79 0 -155.5 20t-147.5 63t-124.5 104.5t-85.5 151.5t-32 197zM369 516q0 -69 20.5 -121.5t54.5 -81.5t71 -43t75 -14q109 0 176.5 62t67.5 198q0 74 -21 129t-57 84.5t-77 43t-89 13.5q-41 0 -78 -13.5t-70.5 -43t-53 -84.5t-19.5 -129z" />
<glyph unicode="&#xf1;" horiz-adv-x="1222" d="M96 0v1065h318v-135q102 155 315 155q83 0 153 -26.5t125.5 -80t87 -143.5t31.5 -208v-627h-317v571q0 103 -52 167.5t-147 64.5q-94 0 -145 -64.5t-51 -167.5v-571h-318zM270 1227q0 125 65.5 194.5t160.5 69.5q42 0 80 -15.5t60 -33.5t48 -33.5t47 -15.5q25 0 44.5 14 t19.5 43h213q0 -123 -66.5 -192.5t-161.5 -69.5q-42 0 -79 15t-59 33t-48 33t-47 15q-25 0 -44.5 -14t-19.5 -43h-213z" />
<glyph unicode="&#xf2;" horiz-adv-x="1220" d="M45 532q0 105 32 196t86.5 155.5t127 110.5t153.5 68.5t166 22.5q106 0 206 -36.5t181 -103.5t130 -174.5t49 -238.5t-49 -238t-130 -174.5t-180.5 -103.5t-206.5 -36t-206.5 36t-180.5 103.5t-129.5 174.5t-48.5 238zM285 1516h250l200 -324h-243zM358 532 q0 -120 73 -193t179 -73t179 73t73 193t-73 193.5t-179 73.5t-179 -73.5t-73 -193.5z" />
<glyph unicode="&#xf3;" horiz-adv-x="1220" d="M45 532q0 105 32 196t86.5 155.5t127 110.5t153.5 68.5t166 22.5q106 0 206 -36.5t181 -103.5t130 -174.5t49 -238.5t-49 -238t-130 -174.5t-180.5 -103.5t-206.5 -36t-206.5 36t-180.5 103.5t-129.5 174.5t-48.5 238zM358 532q0 -120 73 -193t179 -73t179 73t73 193 t-73 193.5t-179 73.5t-179 -73.5t-73 -193.5zM500 1192l211 324h250l-218 -324h-243z" />
<glyph unicode="&#xf4;" horiz-adv-x="1220" d="M45 532q0 105 32 196t86.5 155.5t127 110.5t153.5 68.5t166 22.5q106 0 206 -36.5t181 -103.5t130 -174.5t49 -238.5t-49 -238t-130 -174.5t-180.5 -103.5t-206.5 -36t-206.5 36t-180.5 103.5t-129.5 174.5t-48.5 238zM293 1257l209 259h217l209 -259l-150 -135l-168 207 l-168 -207zM358 532q0 -120 73 -193t179 -73t179 73t73 193t-73 193.5t-179 73.5t-179 -73.5t-73 -193.5z" />
<glyph unicode="&#xf5;" horiz-adv-x="1220" d="M45 532q0 105 32 196t86.5 155.5t127 110.5t153.5 68.5t166 22.5q106 0 206 -36.5t181 -103.5t130 -174.5t49 -238.5t-49 -238t-130 -174.5t-180.5 -103.5t-206.5 -36t-206.5 36t-180.5 103.5t-129.5 174.5t-48.5 238zM242 1227q0 125 65 194.5t160 69.5q42 0 80 -15.5 t60 -33.5t48 -33.5t47 -15.5q25 0 44.5 14t19.5 43h213q0 -123 -66 -192.5t-161 -69.5q-42 0 -79 15t-59.5 33t-48.5 33t-47 15q-24 0 -43.5 -14t-19.5 -43h-213zM358 532q0 -120 73 -193t179 -73t179 73t73 193t-73 193.5t-179 73.5t-179 -73.5t-73 -193.5z" />
<glyph unicode="&#xf6;" horiz-adv-x="1220" d="M45 532q0 105 32 196t86.5 155.5t127 110.5t153.5 68.5t166 22.5q106 0 206 -36.5t181 -103.5t130 -174.5t49 -238.5t-49 -238t-130 -174.5t-180.5 -103.5t-206.5 -36t-206.5 36t-180.5 103.5t-129.5 174.5t-48.5 238zM199 1180v311h293v-311h-293zM358 532 q0 -120 73 -193t179 -73t179 73t73 193t-73 193.5t-179 73.5t-179 -73.5t-73 -193.5zM729 1180v311h293v-311h-293z" />
<glyph unicode="&#xf7;" horiz-adv-x="1132" d="M92 426v266h946v-266h-946zM383 176q0 80 53 130t127 50t127 -50t53 -130t-53 -130t-127 -50t-127 50t-53 130zM383 946q0 80 53 130t127 50t127 -50t53 -130t-53 -130t-127 -50t-127 50t-53 130z" />
<glyph unicode="&#xf8;" horiz-adv-x="1220" d="M45 532q0 105 32 196t86.5 155.5t127 110.5t153.5 68.5t166 22.5q47 0 109 -10l51 109h299l-102 -213q209 -160 209 -439q0 -131 -49 -238t-130 -174.5t-180.5 -103.5t-206.5 -36q-50 0 -112 10l-45 -92h-299l96 200q-95 73 -150 182.5t-55 251.5zM358 532q0 -75 33 -139 l195 404q-98 -8 -163 -80t-65 -185zM629 266q100 8 166.5 80t66.5 186q0 86 -37 144z" />
<glyph unicode="&#xf9;" horiz-adv-x="1222" d="M96 438v627h318v-571q0 -104 51.5 -168t146.5 -64q94 0 145.5 64.5t51.5 167.5v571h317v-1065h-317v135q-102 -155 -315 -155q-83 0 -153 26.5t-126 80t-87.5 143.5t-31.5 208zM287 1516h250l200 -324h-243z" />
<glyph unicode="&#xfa;" horiz-adv-x="1222" d="M96 438v627h318v-571q0 -104 51.5 -168t146.5 -64q94 0 145.5 64.5t51.5 167.5v571h317v-1065h-317v135q-102 -155 -315 -155q-83 0 -153 26.5t-126 80t-87.5 143.5t-31.5 208zM504 1192l211 324h250l-217 -324h-244z" />
<glyph unicode="&#xfb;" horiz-adv-x="1222" d="M96 438v627h318v-571q0 -104 51.5 -168t146.5 -64q94 0 145.5 64.5t51.5 167.5v571h317v-1065h-317v135q-102 -155 -315 -155q-83 0 -153 26.5t-126 80t-87.5 143.5t-31.5 208zM295 1257l209 259h217l209 -259l-150 -135l-168 207l-168 -207z" />
<glyph unicode="&#xfc;" horiz-adv-x="1222" d="M96 438v627h318v-571q0 -104 51.5 -168t146.5 -64q94 0 145.5 64.5t51.5 167.5v571h317v-1065h-317v135q-102 -155 -315 -155q-83 0 -153 26.5t-126 80t-87.5 143.5t-31.5 208zM201 1180v311h293v-311h-293zM731 1180v311h293v-311h-293z" />
<glyph unicode="&#xfd;" horiz-adv-x="1236" d="M25 1065h323l270 -692l271 692h323l-446 -1065l-164 -389h-311l176 401zM559 1192l211 324h250l-217 -324h-244z" />
<glyph unicode="&#xfe;" horiz-adv-x="1290" d="M96 -389v1843h318v-510h8q17 42 104 91.5t211 49.5q93 0 182 -35t162.5 -101.5t118.5 -174.5t45 -242t-45 -242t-118.5 -174t-162.5 -101t-182 -35q-124 0 -211 49.5t-104 91.5h-8v-510h-318zM408 532q0 -125 77 -197.5t187 -72.5q107 0 183.5 73t76.5 197t-76.5 197.5 t-183.5 73.5q-110 0 -187 -73t-77 -198z" />
<glyph unicode="&#xff;" horiz-adv-x="1236" d="M25 1065h323l270 -692l271 692h323l-446 -1065l-164 -389h-311l176 401zM256 1180v311h293v-311h-293zM786 1180v311h293v-311h-293z" />
<glyph unicode="&#x152;" horiz-adv-x="2187" d="M76 727q0 163 60 303.5t162 237.5t240 152t291 55q244 0 433 -129v108h841v-297h-518v-278h434v-293h-434v-289h537v-297h-860v109q-189 -129 -433 -129q-206 0 -377 93t-273.5 265t-102.5 389zM410 727q0 -196 121.5 -318t297.5 -122q177 0 298.5 122t121.5 318 t-121.5 318t-298.5 122q-176 0 -297.5 -122t-121.5 -318z" />
<glyph unicode="&#x153;" horiz-adv-x="2002" d="M45 532q0 105 32 196t86.5 155.5t127 110.5t153.5 68.5t166 22.5q118 0 227 -42.5t189 -124.5q77 82 181.5 124.5t219.5 42.5q70 0 137.5 -16t133 -50.5t117 -88.5t89 -129t48.5 -172t-4 -219h-758q32 -85 107.5 -128.5t183.5 -43.5q149 0 256 81l143 -149 q-69 -87 -181 -138.5t-253 -51.5q-122 0 -231.5 44t-186.5 126q-80 -83 -190 -126.5t-228 -43.5q-107 0 -206.5 36t-180.5 103.5t-129.5 174.5t-48.5 238zM358 532q0 -120 73 -193t179 -73t179 73t73 193t-73 193.5t-179 73.5t-179 -73.5t-73 -193.5zM1184 637h485 q-16 88 -84 135t-153 47q-86 0 -154.5 -46t-93.5 -136z" />
<glyph unicode="&#x178;" horiz-adv-x="1454" d="M35 1454h366l326 -588l326 588h366l-530 -891v-563h-324v563zM315 1569v311h293v-311h-293zM846 1569v311h293v-311h-293z" />
<glyph unicode="&#x2c6;" horiz-adv-x="716" d="M41 1257l209 259h217l209 -259l-150 -135l-168 207l-168 -207z" />
<glyph unicode="&#x2dc;" horiz-adv-x="819" d="M41 1227q0 125 65 194.5t160 69.5q42 0 80 -15.5t60.5 -33.5t48.5 -33.5t47 -15.5q24 0 43.5 14t19.5 43h213q0 -123 -66 -192.5t-161 -69.5q-42 0 -79 15t-59.5 33t-48.5 33t-47 15q-24 0 -43.5 -14t-19.5 -43h-213z" />
<glyph unicode="&#x2000;" horiz-adv-x="1029" />
<glyph unicode="&#x2001;" horiz-adv-x="2058" />
<glyph unicode="&#x2002;" horiz-adv-x="1029" />
<glyph unicode="&#x2003;" horiz-adv-x="2058" />
<glyph unicode="&#x2004;" horiz-adv-x="686" />
<glyph unicode="&#x2005;" horiz-adv-x="514" />
<glyph unicode="&#x2006;" horiz-adv-x="343" />
<glyph unicode="&#x2007;" horiz-adv-x="343" />
<glyph unicode="&#x2008;" horiz-adv-x="257" />
<glyph unicode="&#x2009;" horiz-adv-x="411" />
<glyph unicode="&#x200a;" horiz-adv-x="114" />
<glyph unicode="&#x2010;" horiz-adv-x="819" d="M92 426v266h635v-266h-635z" />
<glyph unicode="&#x2011;" horiz-adv-x="819" d="M92 426v266h635v-266h-635z" />
<glyph unicode="&#x2012;" horiz-adv-x="819" d="M92 426v266h635v-266h-635z" />
<glyph unicode="&#x2013;" horiz-adv-x="1228" d="M92 426v266h1045v-266h-1045z" />
<glyph unicode="&#x2014;" horiz-adv-x="1351" d="M92 426v266h1168v-266h-1168z" />
<glyph unicode="&#x2018;" horiz-adv-x="557" d="M43 889l201 565h270l-199 -565h-272z" />
<glyph unicode="&#x2019;" horiz-adv-x="557" d="M43 889l199 565h272l-201 -565h-270z" />
<glyph unicode="&#x201a;" horiz-adv-x="567" d="M43 -270l199 565h272l-201 -565h-270z" />
<glyph unicode="&#x201c;" horiz-adv-x="933" d="M43 889l201 565h270l-199 -565h-272zM420 889l201 565h270l-199 -565h-272z" />
<glyph unicode="&#x201d;" horiz-adv-x="933" d="M43 889l199 565h272l-201 -565h-270zM420 889l198 565h273l-201 -565h-270z" />
<glyph unicode="&#x201e;" horiz-adv-x="944" d="M43 -270l199 565h272l-201 -565h-270zM420 -270l198 565h273l-201 -565h-270z" />
<glyph unicode="&#x2022;" horiz-adv-x="565" d="M94 623q0 80 53 130t127 50t127.5 -50.5t53.5 -129.5q0 -80 -53.5 -130.5t-127.5 -50.5t-127 50.5t-53 130.5z" />
<glyph unicode="&#x2026;" horiz-adv-x="1499" d="M63 160q0 79 53.5 129.5t127.5 50.5t127 -50t53 -130t-53 -130t-127 -50t-127.5 50.5t-53.5 129.5zM569 160q0 79 53.5 129.5t127.5 50.5t127 -50t53 -130t-53 -130t-127 -50t-127.5 50.5t-53.5 129.5zM1075 160q0 80 53 130t127 50t127.5 -50.5t53.5 -129.5 t-53.5 -129.5t-127.5 -50.5t-127 50t-53 130z" />
<glyph unicode="&#x202f;" horiz-adv-x="411" />
<glyph unicode="&#x2039;" horiz-adv-x="536" d="M82 522v117l307 309l96 -102l-190 -266l190 -267l-96 -102z" />
<glyph unicode="&#x203a;" horiz-adv-x="536" d="M51 313l193 267l-193 266l96 102l308 -309v-117l-308 -311z" />
<glyph unicode="&#x205f;" horiz-adv-x="514" />
<glyph unicode="&#x20ac;" horiz-adv-x="1546" d="M31 512v158h110q-2 18 -2 57v10h-108v158h125q55 264 261 422t478 158q83 0 160.5 -16t157.5 -52t152 -102t126 -158l-234 -162q-62 90 -154 136t-200 46q-140 0 -248 -72t-153 -200h413v-158h-442v-10q0 -39 2 -57h440v-158h-395q55 -107 157.5 -166t227.5 -59 q228 0 352 182l234 -162q-54 -92 -126.5 -158t-152.5 -101.5t-158 -51.5t-161 -16q-259 0 -459.5 144t-265.5 388h-137z" />
<glyph unicode="&#x2122;" horiz-adv-x="1189" d="M133 1356v98h350v-98h-118v-271h-113v271h-119zM559 1085v369h111l137 -252l137 252h113v-369h-113v185l-94 -185h-84l-96 185v-185h-111z" />
<glyph unicode="&#x25fc;" horiz-adv-x="1064" d="M0 0v1065h1065v-1065h-1065z" />
</font>
</defs>
</svg>
