<?xml version="1.0" standalone="no"?>
<!DOCTYPE svg PUBLIC "-//W3C//DTD SVG 1.1//EN" "http://www.w3.org/Graphics/SVG/1.1/DTD/svg11.dtd" >
<svg xmlns="http://www.w3.org/2000/svg" xmlns:xlink="http://www.w3.org/1999/xlink" version="1.1">
<metadata>
Created by FontForge 20201107 at Tue Sep 12 01:00:17 2017
 By 
(C)2009 Commercial Type.
</metadata>
<defs>
<font id="GraphikApp-Medium" horiz-adv-x="600" >
  <font-face 
    font-family="Graphik App Medium"
    font-weight="500"
    font-stretch="normal"
    units-per-em="1000"
    panose-1="2 11 6 3 3 2 2 6 2 3"
    ascent="809"
    descent="-191"
    x-height="523"
    cap-height="715"
    bbox="-235 -225 1134 1123"
    underline-thickness="66"
    underline-position="-92"
    unicode-range="U+000D-FB02"
  />
<missing-glyph horiz-adv-x="512" 
 />
    <glyph glyph-name="f_f" unicode="ff" horiz-adv-x="667" 
d="M93 432h-71v91h71v63q0 88 45 132.5t130 44.5q22 0 37 -2.5t32 -7.5v-94q-11 4 -24 7t-30 3q-37 0 -53 -21.5t-16 -55.5v-69h184v70q0 87 45.5 132t129.5 45q23 0 38 -2.5t32 -7.5v-94q-11 4 -24.5 6.5t-30.5 2.5q-37 0 -53 -21.5t-16 -55.5v-75h119v-91h-119v-432h-121
v432h-184v-432h-121v432z" />
    <glyph glyph-name=".notdef" horiz-adv-x="512" 
 />
    <glyph glyph-name=".null" horiz-adv-x="0" 
 />
    <glyph glyph-name="nonmarkingreturn" unicode="&#xd;" horiz-adv-x="242" 
 />
    <glyph glyph-name="NULL" horiz-adv-x="0" 
 />
    <glyph glyph-name="NULL" horiz-adv-x="0" 
 />
    <glyph glyph-name="space" unicode=" " horiz-adv-x="242" 
 />
    <glyph glyph-name="exclam" unicode="!" horiz-adv-x="305" 
d="M152 -7q-33 0 -56.5 22.5t-23.5 54.5q0 33 23.5 55.5t56.5 22.5q34 0 57.5 -22.5t23.5 -55.5q0 -32 -23.5 -54.5t-57.5 -22.5zM86 715h135l-19 -500h-98z" />
    <glyph glyph-name="quotedbl" unicode="&#x22;" horiz-adv-x="409" 
d="M53 715h121l-17 -257h-87zM235 715h121l-17 -257h-86z" />
    <glyph glyph-name="numbersign" unicode="#" horiz-adv-x="532" 
d="M283 266h-83l-24 -167h-89l24 167h-77v98h92l16 110h-82v95h96l22 146h88l-21 -146h83l22 146h89l-22 -146h81v-95h-95l-16 -110h85v-98h-100l-24 -167h-89zM215 364h83l16 110h-83z" />
    <glyph glyph-name="dollar" unicode="$" horiz-adv-x="635" 
d="M286 -9q-64 4 -109.5 23.5t-75.5 50.5t-45 71t-19 85h124q3 -24 9.5 -46t20.5 -39.5t36.5 -30t58.5 -16.5v225q-56 9 -98 24.5t-70 40t-42.5 59t-14.5 82.5q0 42 16 77.5t45.5 62.5t71 43.5t92.5 19.5v90h67v-91q97 -9 154.5 -59t66.5 -144h-118q-8 46 -32.5 72t-70.5 34
v-205q55 -9 98.5 -24t73.5 -39t46 -59.5t16 -86.5q0 -44 -16 -82.5t-46 -67.5t-73.5 -47.5t-98.5 -22.5v-126h-67v126zM464 199q0 21 -5 37.5t-18 29t-34 21.5t-54 16v-214q51 7 81 36t30 74zM179 531q0 -20 4.5 -35.5t16 -27.5t32.5 -21t54 -16v197q-52 -6 -79.5 -32.5
t-27.5 -64.5z" />
    <glyph glyph-name="percent" unicode="%" horiz-adv-x="801" 
d="M205 456q35 0 55.5 24t20.5 69q0 44 -20.5 68.5t-55.5 24.5t-56 -24t-21 -69q0 -46 21 -69.5t56 -23.5zM204 375q-37 0 -68.5 13t-55 36.5t-37 55t-13.5 68.5t14 69t37.5 55.5t55.5 36.5t68 13t67.5 -13t55 -35.5t37 -54.5t13.5 -69q0 -38 -13.5 -70t-37 -55.5t-55 -36.5
t-68.5 -13zM589 715h84l-460 -715h-85zM597 71q35 0 55.5 24t20.5 69q0 44 -20.5 68.5t-55.5 24.5t-56 -24t-21 -69q0 -46 21 -69.5t56 -23.5zM596 -10q-37 0 -68.5 13t-55 36.5t-36.5 55t-13 68.5t13.5 69t37.5 55.5t55.5 36.5t67.5 13t67.5 -13t55.5 -35.5t37.5 -54.5
t13.5 -69q0 -38 -13.5 -70t-37 -55.5t-55.5 -36.5t-69 -13z" />
    <glyph glyph-name="ampersand" unicode="&#x26;" horiz-adv-x="716" 
d="M568 146l120 -146h-153l-60 73q-34 -35 -80.5 -58.5t-115.5 -23.5q-52 0 -95.5 14.5t-74.5 41t-48 64t-17 84.5q0 39 11.5 71t33 57.5t51 46t65.5 37.5q-56 74 -56 141q0 42 16 74.5t43.5 54.5t63 33t74.5 11q37 0 69.5 -10.5t57 -31t39 -49t14.5 -64.5
q0 -63 -39.5 -107.5t-109.5 -74.5l126 -154l73 140h109zM293 91q70 0 120 59l-152 185q-40 -20 -65.5 -48.5t-25.5 -78.5q0 -54 32 -85.5t91 -31.5zM267 547q0 -25 14 -49.5t40 -55.5q51 23 73 50t22 69q0 31 -19 51t-51 20q-33 0 -56 -21t-23 -64z" />
    <glyph glyph-name="quotesingle" unicode="'" horiz-adv-x="229" 
d="M53 715h123l-17 -257h-89z" />
    <glyph glyph-name="parenleft" unicode="(" horiz-adv-x="335" 
d="M213 -148q-32 38 -62 85.5t-53 105t-37 125t-14 145.5t14 145.5t37 125t53 105t62 85.5h106q-30 -41 -57.5 -88.5t-48.5 -104.5t-33.5 -123.5t-12.5 -144.5t12.5 -144.5t33.5 -123.5t48.5 -105t57.5 -88h-106v0z" />
    <glyph glyph-name="parenright" unicode=")" horiz-adv-x="335" 
d="M17 -146q30 40 57.5 88t48 105t33 123.5t12.5 144.5t-12.5 144.5t-33 123.5t-48 104.5t-57.5 88.5h105q32 -38 62 -85.5t53 -105t37 -125t14 -145.5t-14 -145.5t-37 -125t-53 -105t-62 -85.5h-105v0z" />
    <glyph glyph-name="asterisk" unicode="*" horiz-adv-x="429" 
d="M72 449l85 102l-120 23l27 89l114 -50l-13 130h100l-13 -130l114 50l26 -89l-121 -23l85 -102l-76 -55l-67 118l-64 -118z" />
    <glyph glyph-name="plus" unicode="+" horiz-adv-x="539" 
d="M219 294h-182v94h182v198h101v-198h183v-94h-183v-198h-101v198z" />
    <glyph glyph-name="comma" unicode="," horiz-adv-x="292" 
d="M28 -90l91 237l115 -46l-131 -224z" />
    <glyph glyph-name="hyphen" unicode="-" horiz-adv-x="353" 
d="M56 329h240v-100h-240v100z" />
    <glyph glyph-name="period" unicode="." horiz-adv-x="289" 
d="M144 -7q-33 0 -56 22.5t-23 55.5t23 56t56 23q34 0 57 -23t23 -56t-23 -55.5t-57 -22.5z" />
    <glyph glyph-name="slash" unicode="/" horiz-adv-x="415" 
d="M295 776h103l-302 -924h-102z" />
    <glyph glyph-name="zero" unicode="0" horiz-adv-x="701" 
d="M354 96q83 0 123 62t40 184v35q0 115 -42 179.5t-123 64.5t-124 -62.5t-43 -182.5v-36q0 -122 44 -183t125 -61zM351 -10q-68 0 -123.5 24.5t-94.5 69.5t-60.5 109.5t-21.5 145.5v36q0 81 21.5 146t61 110.5t94.5 69.5t123 24t123 -24t94 -69t60.5 -109t21.5 -145v-36
q0 -81 -20.5 -146t-59 -110.5t-94 -70.5t-125.5 -25z" />
    <glyph glyph-name="one" unicode="1" horiz-adv-x="419" 
d="M183 583l-151 -103v117l166 118h119v-715h-134v583z" />
    <glyph glyph-name="two" unicode="2" horiz-adv-x="578" 
d="M15 24l270 285q51 54 80 103t29 100t-27.5 80t-79.5 29q-54 0 -86.5 -33t-41.5 -109h-122q7 118 73.5 182t180.5 64q55 0 99 -15.5t74.5 -43t46.5 -66.5t16 -86q0 -70 -38 -132t-102 -124l-159 -155h304v-103h-517v24z" />
    <glyph glyph-name="three" unicode="3" horiz-adv-x="623" 
d="M304 -10q-64 0 -113 17t-83 47.5t-52.5 73t-20.5 93.5h121q5 -56 39 -93.5t106 -37.5q70 0 103 31t33 85q0 117 -129 117h-55v95h51q62 0 90.5 27t28.5 78q0 44 -27.5 72.5t-83.5 28.5q-57 0 -92 -32t-41 -86h-118q3 46 21 86.5t50.5 69.5t78.5 46t103 17q56 0 100 -15
t74 -41t46 -61t16 -75q0 -61 -32 -98.5t-84 -57.5q63 -14 100.5 -57.5t37.5 -115.5q0 -50 -19 -89.5t-53.5 -67t-84.5 -42.5t-111 -15z" />
    <glyph glyph-name="four" unicode="4" horiz-adv-x="641" 
d="M385 145h-354v47l316 523h167v-471h96v-99h-96v-145h-129v145zM387 244v370l-214 -370h214z" />
    <glyph glyph-name="five" unicode="5" horiz-adv-x="604" 
d="M291 -10q-63 0 -109.5 16.5t-78 45t-48 68t-19.5 85.5h124q4 -25 12 -45.5t22.5 -35.5t37.5 -23t58 -8q62 0 95.5 39.5t33.5 105.5q0 65 -34.5 103t-94.5 38q-55 0 -90 -17t-59 -45h-68l6 398h434v-105h-332l-1 -194q21 24 59 42t95 18q48 0 88.5 -16.5t70 -47.5
t45.5 -75.5t16 -100.5q0 -57 -19.5 -102.5t-54.5 -77.5t-83 -49t-106 -17z" />
    <glyph glyph-name="six" unicode="6" horiz-adv-x="641" 
d="M331 -10q-78 0 -131.5 26t-86.5 71t-47.5 106t-14.5 132v17q0 93 22 164.5t61.5 120t94 73.5t118.5 25q98 0 159 -47.5t74 -141.5h-124q-10 41 -34 63.5t-76 22.5q-72 0 -116 -62.5t-47 -185.5q25 42 69 67t108 25q51 0 94.5 -17t74.5 -47.5t48.5 -73.5t17.5 -95
q0 -54 -18.5 -99t-53 -77t-83 -49.5t-109.5 -17.5zM329 88q60 0 97 39t37 103q0 65 -36 104.5t-98 39.5q-30 0 -55.5 -10t-44 -28t-28.5 -43t-10 -55q0 -72 38.5 -111t99.5 -39z" />
    <glyph glyph-name="seven" unicode="7" horiz-adv-x="545" 
d="M362 607h-333v108h500v-16l-260 -699h-137z" />
    <glyph glyph-name="eight" unicode="8" horiz-adv-x="627" 
d="M314 -10q-53 0 -101.5 13.5t-85.5 40t-59 66t-22 92.5q0 69 37 115t97 67q-50 20 -78 57.5t-28 91.5q0 45 20 81t53.5 60.5t76.5 37.5t90 13q48 0 91.5 -13t76 -37.5t52 -60t19.5 -79.5q0 -55 -29 -92t-77 -58q63 -23 98 -68t35 -111q0 -53 -21.5 -93.5t-57.5 -67.5
t-84.5 -41t-102.5 -14zM314 90q57 0 95 32t38 92q0 30 -10 52.5t-28 38t-42 23.5t-52 8q-27 0 -51.5 -8t-43 -23.5t-29.5 -38.5t-11 -53t11 -53t29 -38.5t42.5 -23.5t51.5 -8zM316 423q49 0 80 27.5t31 76.5q0 46 -32.5 74t-80.5 28t-80.5 -27.5t-32.5 -75.5q0 -24 9 -43.5
t25 -32.5t37 -20t44 -7z" />
    <glyph glyph-name="nine" unicode="9" horiz-adv-x="642" 
d="M302 -9q-110 0 -173.5 51t-76.5 144h125q10 -42 37.5 -67t85.5 -25q77 0 117 61t42 184q-25 -41 -68.5 -65.5t-107.5 -24.5q-52 0 -95.5 16.5t-75 46.5t-49 73t-17.5 96q0 55 18.5 100t53 77t83.5 50t110 18q70 0 122.5 -23t87 -66t52 -104.5t17.5 -138.5v-37
q0 -177 -74.5 -271.5t-213.5 -94.5zM311 342q61 0 99.5 36.5t38.5 96.5q0 72 -38.5 112t-100.5 40q-60 0 -96.5 -39t-36.5 -103q0 -65 36 -104t98 -39z" />
    <glyph glyph-name="colon" unicode=":" horiz-adv-x="297" 
d="M148 -7q-33 0 -56 22.5t-23 55.5t23 56t56 23q34 0 57 -23t23 -56t-23 -55.5t-57 -22.5zM148 285q-33 0 -56 23t-23 56t23 55.5t56 22.5q34 0 57 -22.5t23 -55.5t-23 -56t-57 -23z" />
    <glyph glyph-name="semicolon" unicode=";" horiz-adv-x="303" 
d="M17 -90l91 237l114 -46l-131 -224zM163 285q-34 0 -57 23t-23 56t23 55.5t57 22.5q33 0 56.5 -22.5t23.5 -55.5t-23.5 -56t-56.5 -23z" />
    <glyph glyph-name="less" unicode="&#x3c;" horiz-adv-x="507" 
d="M49 309v26l398 228v-112l-234 -128l234 -131v-111z" />
    <glyph glyph-name="equal" unicode="=" horiz-adv-x="513" 
d="M39 276h434v-91h-434v91zM39 463h434v-92h-434v92z" />
    <glyph glyph-name="greater" unicode="&#x3e;" horiz-adv-x="507" 
d="M60 194l234 128l-234 131v111l399 -229v-25l-399 -229v113z" />
    <glyph glyph-name="question" unicode="?" horiz-adv-x="516" 
d="M175 253q0 30 9 54t23.5 45t32.5 39.5t36 36.5q28 28 49 54.5t21 58.5q0 38 -21.5 61t-67.5 23q-47 0 -77 -30.5t-35 -82.5h-116q3 49 21 88.5t48.5 67t72.5 42.5t92 15q54 0 93.5 -13.5t65.5 -37.5t38.5 -56t12.5 -68q0 -27 -7.5 -49t-19.5 -41.5t-28 -37t-33 -33.5
q-18 -17 -35 -33.5t-30.5 -33.5t-22.5 -35.5t-10 -39.5v-32h-112v38zM230 -7q-34 0 -58 22.5t-24 54.5q0 33 24 55.5t58 22.5q33 0 56.5 -22.5t23.5 -55.5q0 -32 -23.5 -54.5t-56.5 -22.5z" />
    <glyph glyph-name="at" unicode="@" horiz-adv-x="917" 
d="M460 -151q-101 0 -179.5 33t-132 89t-81.5 130t-28 156q0 94 35.5 173.5t95.5 137t139 89.5t166 32q89 0 163.5 -27.5t128 -76t83 -115.5t29.5 -146q0 -72 -18.5 -122t-47.5 -81.5t-64 -45.5t-69 -14q-63 0 -91.5 22.5t-36.5 61.5q-21 -39 -58 -64t-85 -25
q-74 0 -118 47.5t-44 131.5q0 51 15.5 94t42 74t62.5 48t77 17q51 0 78.5 -19.5t38.5 -45.5l7 57h108l-31 -260q-11 -74 46 -74q21 0 41 11t36 35t25.5 61t9.5 90q0 67 -22.5 122t-64.5 94.5t-103 61t-138 21.5q-76 0 -141 -26.5t-113 -74.5t-75 -115t-27 -149
q0 -69 21.5 -131t64.5 -108.5t107 -74t149 -27.5t143 23t101 61h83q-21 -34 -54.5 -61.5t-76 -47.5t-92.5 -31t-105 -11zM439 141q21 0 40.5 9.5t34.5 28.5t24.5 45.5t9.5 61.5q0 48 -23 72t-66 24q-42 0 -71.5 -38t-29.5 -106q0 -45 22 -71t59 -26z" />
    <glyph glyph-name="A" unicode="A" horiz-adv-x="703" 
d="M266 715h174l236 -715h-138l-57 177h-273l-56 -177h-125zM239 274h211l-105 332z" />
    <glyph glyph-name="B" unicode="B" horiz-adv-x="645" 
d="M82 715h256q111 0 172.5 -44t61.5 -142v-4q0 -54 -26 -93.5t-87 -58.5q73 -16 108 -56.5t35 -112.5v-4q0 -100 -63.5 -150t-181.5 -50h-275v715zM341 95q67 0 98.5 29t31.5 85v4q0 56 -32.5 83.5t-106.5 27.5h-120v-229h129zM322 414q66 0 94 25t28 80v4q0 51 -30 74
t-94 23h-108v-206h110z" />
    <glyph glyph-name="C" unicode="C" horiz-adv-x="741" 
d="M395 -10q-84 0 -149 26t-109.5 73t-67.5 114t-23 150v8q0 81 26 148t72.5 115t110 75t138.5 27q61 0 114.5 -15.5t94.5 -46.5t66.5 -78t31.5 -110h-135q-11 72 -52 108t-119 36q-47 0 -85.5 -18t-65.5 -51t-42 -81t-15 -108v-8q0 -121 54.5 -188.5t154.5 -67.5
q75 0 123.5 37.5t59.5 113.5h130q-8 -65 -34 -113.5t-66.5 -80.5t-94.5 -48.5t-118 -16.5z" />
    <glyph glyph-name="D" unicode="D" horiz-adv-x="714" 
d="M293 105q121 0 179 65.5t58 184.5v8q0 58 -13.5 103.5t-42.5 77.5t-74 49t-108 17h-77v-505h78zM82 715h217q93 0 162.5 -25.5t115.5 -71.5t69 -110.5t23 -142.5v-9q0 -78 -23 -143.5t-69 -112.5t-116 -73.5t-164 -26.5h-215v715z" />
    <glyph glyph-name="E" unicode="E" horiz-adv-x="584" 
d="M82 715h447v-105h-314v-196h252v-100h-252v-209h331v-105h-464v715z" />
    <glyph glyph-name="F" unicode="F" horiz-adv-x="559" 
d="M82 715h443v-106h-310v-213h244v-103h-244v-293h-133v715z" />
    <glyph glyph-name="G" unicode="G" horiz-adv-x="775" 
d="M403 -10q-86 0 -152.5 27t-112 75.5t-69 115t-23.5 145.5v8q0 80 26.5 147t73.5 115.5t113 75.5t144 27q57 0 110 -13.5t94.5 -43t69 -75t34.5 -109.5h-133q-12 72 -57.5 104t-115.5 32q-53 0 -94 -18.5t-69 -53t-43 -82.5t-15 -107v-8q0 -57 13.5 -104.5t41 -81.5
t69 -53t97.5 -19q50 0 86 14t59 38.5t34.5 57.5t13.5 70h-180v100h311v-66q0 -74 -22.5 -133t-64.5 -100t-102.5 -63t-136.5 -22z" />
    <glyph glyph-name="H" unicode="H" horiz-adv-x="751" 
d="M82 715h133v-304h321v304h134v-715h-134v304h-321v-304h-133v715z" />
    <glyph glyph-name="I" unicode="I" horiz-adv-x="307" 
d="M86 715h134v-715h-134v715z" />
    <glyph glyph-name="J" unicode="J" horiz-adv-x="443" 
d="M148 -9q-45 0 -70 6t-42 15v104q19 -8 39.5 -13t52.5 -5q49 0 78 28t29 94v495h134v-498q0 -58 -16 -100.5t-45 -70.5t-70 -41.5t-90 -13.5z" />
    <glyph glyph-name="K" unicode="K" horiz-adv-x="659" 
d="M82 715h133v-324l274 324h143l-296 -341l311 -374h-157l-275 334v-334h-133v715z" />
    <glyph glyph-name="L" unicode="L" horiz-adv-x="551" 
d="M82 715h133v-609h305v-106h-438v715z" />
    <glyph glyph-name="M" unicode="M" horiz-adv-x="890" 
d="M82 715h178l188 -488l184 488h176v-715h-133v540l-213 -540h-43l-217 540v-540h-120v715z" />
    <glyph glyph-name="N" unicode="N" horiz-adv-x="745" 
d="M82 715h159l301 -517v517h121v-715h-138l-322 548v-548h-121v715z" />
    <glyph glyph-name="O" unicode="O" horiz-adv-x="814" 
d="M410 97q51 0 91.5 18.5t69 52.5t44 81.5t15.5 105.5v8q0 55 -15 102t-43.5 81t-70 53.5t-93.5 19.5q-53 0 -94 -18.5t-70 -52.5t-44 -81t-15 -105v-8q0 -59 17 -106t47 -81t71 -52t90 -18zM408 -10q-82 0 -149 27.5t-114 76.5t-73 115.5t-26 143.5v8q0 78 26.5 145
t74.5 115.5t114.5 76t146.5 27.5t146 -27t113.5 -75t74 -114t26.5 -145v-8q0 -78 -25.5 -145t-73 -116t-114 -77t-147.5 -28z" />
    <glyph glyph-name="P" unicode="P" horiz-adv-x="609" 
d="M82 715h230q60 0 109 -13.5t83.5 -41t53.5 -69t19 -97.5v-4q0 -57 -19.5 -98t-54 -67.5t-83 -39.5t-105.5 -13h-100v-272h-133v715zM312 368q66 0 100.5 31t34.5 91v4q0 64 -35.5 91t-99.5 27h-97v-244h97z" />
    <glyph glyph-name="Q" unicode="Q" horiz-adv-x="814" 
d="M546 14q-31 -11 -65.5 -17.5t-72.5 -6.5q-82 0 -149 27.5t-114 76.5t-73 115.5t-26 143.5v8q0 78 26.5 144.5t74.5 115t114.5 76t146.5 27.5t146.5 -27t114 -75t74 -114t26.5 -144v-8q0 -89 -32.5 -161.5t-91.5 -122.5l79 -85l-80 -78zM409 95q30 0 56 6l-70 76l81 76
l88 -95q32 35 49 85t17 113v8q0 55 -15 102t-43.5 81t-70 53t-93.5 19q-53 0 -94.5 -18.5t-70.5 -52.5t-44 -81t-15 -105v-8q0 -60 17 -108t47 -81.5t71.5 -51.5t89.5 -18z" />
    <glyph glyph-name="R" unicode="R" horiz-adv-x="655" 
d="M82 715h240q59 0 108 -12.5t84.5 -38t55 -65t19.5 -94.5v-4q0 -42 -12.5 -74t-34 -55.5t-50.5 -38.5t-62 -24l201 -309h-144l-187 289h-85v-289h-133v715zM322 384q136 0 136 114v4q0 62 -36 86t-100 24h-107v-228h107z" />
    <glyph glyph-name="S" unicode="S" horiz-adv-x="635" 
d="M325 -10q-73 0 -125.5 17.5t-87 48t-52.5 73t-22 93.5h128q3 -27 11.5 -51t26 -42t47 -28.5t74.5 -10.5q60 0 97.5 30t37.5 80q0 25 -7 42.5t-24 30t-46 21.5t-72 16q-64 9 -111.5 23.5t-78.5 39t-46.5 60.5t-15.5 86q0 44 18 81.5t50.5 65t78.5 43t102 15.5
q116 0 182.5 -52t77.5 -155h-122q-10 57 -43 82t-95 25q-61 0 -92 -26t-31 -68q0 -22 5.5 -38.5t22 -29t45 -21.5t75.5 -16q63 -9 110.5 -23t80 -39t48.5 -61.5t16 -90.5q0 -47 -19 -87t-53.5 -70t-83 -47t-107.5 -17z" />
    <glyph glyph-name="T" unicode="T" horiz-adv-x="583" 
d="M225 610h-199v105h532v-105h-199v-610h-134v610z" />
    <glyph glyph-name="U" unicode="U" horiz-adv-x="723" 
d="M357 -10q-135 0 -208 71.5t-73 210.5v443h134v-433q0 -99 34 -142t114 -43q39 0 68 9.5t48.5 32t29 59.5t9.5 93v424h134v-435q0 -141 -73.5 -215.5t-216.5 -74.5z" />
    <glyph glyph-name="V" unicode="V" horiz-adv-x="683" 
d="M23 715h139l186 -580l187 580h125l-242 -715h-154z" />
    <glyph glyph-name="W" unicode="W" horiz-adv-x="955" 
d="M26 715h136l124 -525l139 525h110l142 -528l128 528h124l-179 -715h-133l-141 521l-145 -521h-127z" />
    <glyph glyph-name="X" unicode="X" horiz-adv-x="695" 
d="M266 367l-214 348h150l152 -254l151 254h137l-211 -345l229 -370h-152l-168 279l-168 -279h-136z" />
    <glyph glyph-name="Y" unicode="Y" horiz-adv-x="629" 
d="M254 310l-237 405h147l161 -296l157 296h130l-224 -406v-309h-134v310z" />
    <glyph glyph-name="Z" unicode="Z" horiz-adv-x="608" 
d="M22 18l365 592h-328v105h516v-17l-357 -591h347v-107h-543v18z" />
    <glyph glyph-name="bracketleft" unicode="[" horiz-adv-x="377" 
d="M79 776h256v-91h-134v-742h134v-91h-256v924z" />
    <glyph glyph-name="backslash" unicode="\" horiz-adv-x="415" 
d="M18 776h102l301 -924h-102z" />
    <glyph glyph-name="bracketright" unicode="]" horiz-adv-x="377" 
d="M42 -57h134v742h-134v91h256v-924h-256v91z" />
    <glyph glyph-name="asciicircum" unicode="^" horiz-adv-x="516" 
d="M202 715h113l166 -313h-112l-112 213l-113 -213h-108z" />
    <glyph glyph-name="underscore" unicode="_" horiz-adv-x="410" 
d="M-1 -85h412v-74h-412v74z" />
    <glyph glyph-name="grave" unicode="`" horiz-adv-x="400" 
d="M59 756h134l59 -155h-89z" />
    <glyph glyph-name="a" unicode="a" horiz-adv-x="555" 
d="M209 -10q-36 0 -68 9t-55.5 27.5t-37.5 48t-14 70.5q0 46 21 77.5t57 51t85 28.5t105 9h65v27q0 53 -20.5 79t-74.5 26q-48 0 -71.5 -21.5t-28.5 -60.5h-117q4 46 23 78.5t49 53.5t69 31t83 10t82 -9.5t66.5 -32t44.5 -59t16 -90.5v-343h-119v64q-26 -34 -63 -54t-97 -20
zM238 77q56 0 92.5 27.5t36.5 78.5v52h-62q-69 0 -110 -18.5t-41 -66.5q0 -33 19.5 -53t64.5 -20z" />
    <glyph glyph-name="b" unicode="b" horiz-adv-x="633" 
d="M364 -10q-63 0 -106.5 27t-64.5 67v-84h-121v765h121v-326q11 19 28 36t39.5 30t48.5 21t55 8q49 0 91.5 -18t73.5 -52t49 -83.5t18 -112.5v-8q0 -63 -17.5 -113t-48 -85t-73 -53.5t-93.5 -18.5zM334 86q67 0 102.5 43.5t35.5 128.5v8q0 43 -10.5 75.5t-29.5 54.5
t-44 32.5t-55 10.5q-63 0 -103.5 -42.5t-40.5 -130.5v-8q0 -88 39.5 -130t105.5 -42z" />
    <glyph glyph-name="c" unicode="c" horiz-adv-x="575" 
d="M301 -10q-56 0 -104.5 18t-84 52t-55.5 83t-20 112v8q0 62 20.5 112t56.5 85.5t84 54.5t103 19q43 0 84 -10.5t73.5 -33.5t54.5 -60.5t27 -91.5h-117q-8 53 -40 76t-80 23q-31 0 -57 -11.5t-45 -34t-29.5 -54.5t-10.5 -72v-8q0 -86 39 -130t106 -44q24 0 45.5 7t38.5 21
t28 35t14 49h111q-3 -45 -21.5 -82.5t-49.5 -65t-74.5 -42.5t-96.5 -15z" />
    <glyph glyph-name="d" unicode="d" horiz-adv-x="633" 
d="M268 -10q-49 0 -91 17t-73 50.5t-48.5 82.5t-17.5 113v8q0 63 17.5 113.5t49 86t74.5 54.5t94 19q64 0 104.5 -26t62.5 -65v322h121v-765h-121v88q-11 -20 -28 -37.5t-39.5 -31t-49 -21.5t-55.5 -8zM298 86q63 0 104.5 42.5t41.5 130.5v8q0 87 -37.5 129.5t-103.5 42.5
q-67 0 -104 -45t-37 -130v-8q0 -86 38.5 -128t97.5 -42z" />
    <glyph glyph-name="e" unicode="e" horiz-adv-x="580" 
d="M302 -10q-58 0 -106.5 18.5t-84 53t-55 83.5t-19.5 111v8q0 61 19.5 110.5t54.5 85t82.5 55t103.5 19.5q49 0 93.5 -15t78.5 -47t54.5 -82t20.5 -120v-35h-383q3 -75 39.5 -115t104.5 -40q55 0 84 21t36 59h117q-13 -83 -76 -126.5t-164 -43.5zM424 316q-5 68 -37.5 99
t-89.5 31q-55 0 -90 -34.5t-44 -95.5h261z" />
    <glyph glyph-name="f" unicode="f" horiz-adv-x="362" 
d="M93 432h-71v91h71v70q0 87 45.5 132t130.5 45q22 0 37 -2.5t32 -7.5v-94q-11 4 -24.5 6.5t-30.5 2.5q-37 0 -53 -21.5t-16 -55.5v-75h119v-91h-119v-432h-121v432z" />
    <glyph glyph-name="g" unicode="g" horiz-adv-x="633" 
d="M295 -192q-62 0 -107 13t-75.5 36.5t-47.5 55t-22 69.5h122q8 -39 38.5 -60.5t90.5 -21.5q71 0 108.5 35t37.5 106v77q-11 -19 -28 -36.5t-39.5 -31t-48.5 -21.5t-55 -8q-49 0 -91.5 17.5t-73.5 50t-49 78.5t-18 103v7q0 55 17.5 102t49 81.5t74.5 54t94 19.5
q65 0 105 -26t63 -65v80h121v-484q-1 -116 -72.5 -173.5t-193.5 -57.5zM299 114q63 0 104 42.5t41 117.5v7q0 75 -37.5 116.5t-103.5 41.5q-68 0 -105 -44t-37 -116v-8q0 -36 10.5 -65.5t29 -49.5t44 -31t54.5 -11z" />
    <glyph glyph-name="h" unicode="h" horiz-adv-x="608" 
d="M72 765h121v-325q19 38 61.5 66t107.5 28q39 0 72 -12t57 -36.5t37 -63.5t13 -93v-329h-121v318q0 60 -25 87.5t-79 27.5q-51 0 -87 -31.5t-36 -93.5v-308h-121v765z" />
    <glyph glyph-name="i" unicode="i" horiz-adv-x="271" 
d="M75 523h121v-523h-121v523zM134 609q-30 0 -51 20t-21 49q0 30 21 50t51 20t51 -20t21 -50q0 -29 -21 -49t-51 -20z" />
    <glyph glyph-name="j" unicode="j" horiz-adv-x="271" 
d="M3 -95q40 3 56 22t16 52v544h121v-541q0 -40 -10 -71t-32.5 -53t-59.5 -33.5t-91 -12.5v93zM134 609q-30 0 -51 20t-21 49q0 30 21 50t51 20t51 -20t21 -50q0 -29 -21 -49t-51 -20z" />
    <glyph glyph-name="k" unicode="k" horiz-adv-x="540" 
d="M72 765h121v-472l187 230h132l-203 -240l220 -283h-140l-196 257v-257h-121v765z" />
    <glyph glyph-name="l" unicode="l" horiz-adv-x="271" 
d="M75 765h121v-765h-121v765z" />
    <glyph glyph-name="m" unicode="m" horiz-adv-x="918" 
d="M72 523h121v-80q19 37 60 64t99 27q51 0 89.5 -22.5t58.5 -71.5q30 49 79 71.5t98 22.5q36 0 67.5 -11.5t55.5 -36t37.5 -63t13.5 -92.5v-331h-121v323q0 58 -24 84t-69 26q-23 0 -43.5 -7.5t-36.5 -22.5t-25.5 -37.5t-9.5 -52.5v-313h-121v323q0 58 -24 84t-69 26
q-23 0 -43.5 -7.5t-36.5 -22.5t-25.5 -37.5t-9.5 -52.5v-313h-121v523z" />
    <glyph glyph-name="n" unicode="n" horiz-adv-x="608" 
d="M72 523h121v-83q19 38 61.5 66t107.5 28q39 0 72 -12t57 -36.5t37 -63.5t13 -93v-329h-121v318q0 60 -25 87.5t-79 27.5q-51 0 -87 -31.5t-36 -93.5v-308h-121v523z" />
    <glyph glyph-name="o" unicode="o" horiz-adv-x="611" 
d="M306 84q68 0 106 46.5t38 127.5v7q0 81 -38 127.5t-106 46.5t-106.5 -46t-38.5 -127v-8q0 -81 38 -127.5t107 -46.5zM305 -10q-58 0 -107 19t-85 54t-56 84t-20 109v8q0 61 20.5 110.5t56.5 85t85 55t107 19.5q57 0 106 -19t85 -54.5t56.5 -84.5t20.5 -109v-8
q0 -61 -20.5 -110.5t-56.5 -85t-85 -54.5t-107 -19z" />
    <glyph glyph-name="p" unicode="p" horiz-adv-x="633" 
d="M72 523h121v-84q11 19 28 36t39.5 30t48.5 21t55 8q49 0 91.5 -18t73.5 -52t49 -83.5t18 -112.5v-8q0 -63 -17.5 -113t-48 -85t-73 -53.5t-93.5 -18.5q-63 0 -106.5 27t-64.5 65v-261h-121v702zM334 86q67 0 102.5 43.5t35.5 128.5v8q0 43 -10.5 75.5t-29.5 54.5
t-44 32.5t-55 10.5q-63 0 -103.5 -42.5t-40.5 -130.5v-8q0 -88 39.5 -130t105.5 -42z" />
    <glyph glyph-name="q" unicode="q" horiz-adv-x="633" 
d="M440 86q-11 -19 -28 -36t-39.5 -30.5t-49 -21.5t-55.5 -8q-49 0 -91 17t-73 50.5t-48.5 82.5t-17.5 113v8q0 63 17.5 113.5t49 86t74.5 54.5t94 19q64 0 104.5 -26t62.5 -65v80h121v-702h-121v265zM298 86q63 0 104.5 42.5t41.5 130.5v8q0 87 -37.5 129.5t-103.5 42.5
q-67 0 -104 -45t-37 -130v-8q0 -86 38.5 -128t97.5 -42z" />
    <glyph glyph-name="r" unicode="r" horiz-adv-x="397" 
d="M72 523h121v-98q25 50 64.5 77.5t105.5 28.5v-113q-40 0 -71.5 -7.5t-53.5 -24.5t-33.5 -44.5t-11.5 -69.5v-272h-121v523z" />
    <glyph glyph-name="s" unicode="s" horiz-adv-x="494" 
d="M251 -10q-102 0 -158.5 44.5t-60.5 128.5h114q5 -40 27.5 -62t76.5 -22q49 0 71.5 17t22.5 50q0 32 -27 47t-85 25q-52 8 -88 20t-58.5 31t-32.5 45t-10 63q0 39 17 68.5t44.5 49t62.5 29.5t72 10q40 0 75.5 -8t62.5 -26.5t44.5 -49t22.5 -74.5h-112q-8 36 -29.5 53
t-63.5 17q-39 0 -61 -17t-22 -45q0 -14 5 -24.5t17.5 -18t33.5 -13.5t52 -11q46 -7 82.5 -17.5t61.5 -28t38.5 -45t13.5 -69.5q0 -80 -54 -123.5t-155 -43.5z" />
    <glyph glyph-name="t" unicode="t" horiz-adv-x="369" 
d="M250 -9q-78 0 -118 40t-40 115v286h-70v91h70v115h121v-115h115v-91h-115v-275q0 -35 15.5 -51t44.5 -16q35 0 59 10v-96q-14 -5 -34 -9t-48 -4z" />
    <glyph glyph-name="u" unicode="u" horiz-adv-x="605" 
d="M247 -10q-39 0 -72 11.5t-57 35.5t-37.5 61.5t-13.5 89.5v335h121v-321q0 -60 25 -87.5t78 -27.5q24 0 46.5 8t39 23.5t26.5 39t10 54.5v311h121v-523h-121v82q-20 -38 -61 -65t-105 -27z" />
    <glyph glyph-name="v" unicode="v" horiz-adv-x="557" 
d="M18 523h130l137 -399l135 399h119l-189 -523h-141z" />
    <glyph glyph-name="w" unicode="w" horiz-adv-x="814" 
d="M20 523h129l104 -378l111 378h101l102 -378l109 378h118l-164 -523h-123l-97 352l-106 -352h-124z" />
    <glyph glyph-name="x" unicode="x" horiz-adv-x="556" 
d="M203 268l-170 255h140l109 -169l108 169h127l-169 -246l187 -277h-141l-122 189l-125 -189h-126z" />
    <glyph glyph-name="y" unicode="y" horiz-adv-x="553" 
d="M225 53l-207 470h131l139 -337l128 337h118l-285 -702h-119z" />
    <glyph glyph-name="z" unicode="z" horiz-adv-x="493" 
d="M17 14l277 413h-250v96h429v-17l-276 -409h268v-97h-448v14z" />
    <glyph glyph-name="braceleft" unicode="{" horiz-adv-x="396" 
d="M354 -147q-127 0 -186 50.5t-39 166.5l17 96q4 21 0 40t-16.5 33.5t-35.5 23.5t-58 9v87q35 0 58 9t35.5 24t16.5 34t0 39l-17 96q-10 59 0 100t39 67t76 38t110 12v-89q-34 -1 -57 -7t-36 -20.5t-16.5 -39t1.5 -60.5l17 -110q8 -54 -20 -88.5t-80 -47.5q53 -12 80.5 -47
t19.5 -89l-17 -109q-5 -37 -1.5 -61.5t16.5 -39t36 -21t57 -7.5v-89v0z" />
    <glyph glyph-name="bar" unicode="|" horiz-adv-x="259" 
d="M84 776h90v-924h-90v924z" />
    <glyph glyph-name="braceright" unicode="}" horiz-adv-x="396" 
d="M42 -58q33 1 56 7.5t36.5 21t17 39t-2.5 61.5l-16 109q-8 54 19.5 89t80.5 47q-53 13 -80.5 47.5t-19.5 88.5l16 110q6 36 2.5 60.5t-17 39t-36.5 20.5t-56 7v89q63 0 110 -12t76 -38t39 -67t0 -100l-17 -96q-4 -20 -0.5 -39t16.5 -34t35.5 -24t57.5 -9v-87
q-35 0 -57.5 -9t-35.5 -23.5t-16.5 -33.5t0.5 -40l17 -96q20 -116 -39 -166.5t-186 -50.5v89z" />
    <glyph glyph-name="asciitilde" unicode="~" horiz-adv-x="474" 
d="M38 220q3 40 14 69.5t27.5 48.5t37.5 28t43 9q25 0 46.5 -7.5t39 -16.5t32.5 -16.5t27 -7.5q17 0 30 12.5t15 37.5h86q-2 -40 -13 -69t-27.5 -48.5t-37.5 -29t-42 -9.5q-27 0 -48.5 7.5t-39 17t-32 17t-27.5 7.5q-18 0 -30 -13t-15 -37h-86v0z" />
    <glyph glyph-name="uni00A0" unicode="&#xa0;" horiz-adv-x="275" 
 />
    <glyph glyph-name="exclamdown" unicode="&#xa1;" horiz-adv-x="305" 
d="M153.01 605q32.9971 0 56.4961 -22.499q23.498 -22.499 23.498 -54.4971q0 -32.998 -23.498 -55.4961q-23.499 -22.499 -56.4961 -22.499q-33.998 0 -57.4971 22.499q-23.498 22.498 -23.498 55.4961q0 31.998 23.498 54.4971q23.499 22.499 57.4971 22.499z
M219.005 -116.956h-134.991l18.999 499.969h97.9932z" />
    <glyph glyph-name="cent" unicode="&#xa2;" horiz-adv-x="577" 
d="M270 -8q-51 5 -94 25t-73.5 53.5t-48 80.5t-17.5 105v8q0 57 18 104t49 81.5t73.5 55.5t92.5 27v97h67v-97q39 -3 75 -16t63.5 -36.5t46 -58.5t23.5 -83h-114q-7 45 -32.5 68.5t-61.5 31.5v-356q40 8 68.5 36t33.5 77h109q-3 -42 -19.5 -77t-43.5 -62t-64.5 -43.5
t-83.5 -20.5v-127h-67v127zM159 256q0 -74 30 -117.5t81 -54.5v353q-50 -12 -80.5 -56.5t-30.5 -116.5v-8z" />
    <glyph glyph-name="sterling" unicode="&#xa3;" horiz-adv-x="620" 
d="M42 389h60q-7 27 -11.5 56.5t-4.5 63.5q0 49 18.5 89t51.5 68t77 43t95 15q56 0 99 -15t73 -42.5t46.5 -66t19.5 -85.5h-125q-9 53 -33.5 79.5t-76.5 26.5q-50 0 -80.5 -31.5t-30.5 -85.5q0 -32 4 -60t9 -55h199v-85h-182q5 -24 7.5 -49t2.5 -53q0 -18 -3.5 -33.5
t-8.5 -29.5q42 -11 77.5 -26t62.5 -15q35 0 56 16.5t24 58.5h117q-2 -39 -14.5 -72.5t-34.5 -58t-54 -38t-72 -13.5q-35 0 -66 9t-58 20.5t-50 20.5t-43 9q-29 0 -43 -15.5t-16 -34.5h-104q2 22 9 44.5t19.5 42.5t31.5 35t45 22q5 13 7.5 27t2.5 32q0 26 -5 50.5t-13 50.5
h-85v85z" />
    <glyph glyph-name="yen" unicode="&#xa5;" horiz-adv-x="604" 
d="M76 350h149l-204 365h145l147 -288l141 288h128l-192 -365h150v-64h-166v-67h166v-64h-166v-155h-132v155h-166v64h166v67h-166v64z" />
    <glyph glyph-name="brokenbar" unicode="&#xa6;" horiz-adv-x="264" 
d="M84 299h90v-447h-90v447zM84 776h90v-407h-90v407z" />
    <glyph glyph-name="section" unicode="&#xa7;" horiz-adv-x="565" 
d="M276 -137q-92 0 -145.5 45t-55.5 126h116q3 -38 22 -59.5t64 -21.5q43 0 63.5 20.5t20.5 52.5q0 16 -5.5 28.5t-20 23t-39 19.5t-62.5 18q-45 11 -82 25.5t-63.5 35.5t-40.5 50t-14 69q0 50 30 84.5t81 50.5q-27 22 -41 51.5t-14 71.5q0 39 16 70.5t43 54t63 34.5t77 12
q91 0 142.5 -43.5t54.5 -123.5h-115q-3 35 -20.5 56t-62.5 21q-44 0 -63.5 -21.5t-19.5 -52.5q0 -17 5 -29t18.5 -22t37 -19t61.5 -18q45 -11 82.5 -25t65 -34t42.5 -49.5t15 -72.5q0 -46 -29.5 -82t-80.5 -54q26 -21 40 -50.5t14 -71.5q0 -37 -15 -68t-42 -53.5
t-63.5 -35.5t-79.5 -13zM343 200q37 9 54 28.5t17 47.5q0 18 -7.5 30.5t-21.5 22.5t-36 18t-50 16l-77 22q-32 -7 -51 -27t-19 -49q0 -34 29 -51.5t87 -34.5z" />
    <glyph glyph-name="dieresis" unicode="&#xa8;" horiz-adv-x="400" 
d="M101 613q-27 0 -46.5 19t-19.5 46q0 26 19.5 45.5t46.5 19.5t46.5 -19.5t19.5 -45.5q0 -27 -19.5 -46t-46.5 -19zM299 613q-28 0 -47 19t-19 46q0 26 19 45.5t47 19.5q27 0 46.5 -19.5t19.5 -45.5q0 -27 -19.5 -46t-46.5 -19z" />
    <glyph glyph-name="copyright" unicode="&#xa9;" horiz-adv-x="843" 
d="M425 153q-97 0 -148.5 54.5t-51.5 145.5v8q0 45 15 82.5t41.5 63.5t62.5 40.5t79 14.5q73 0 122 -36t55 -110h-96q-11 70 -81 70q-45 0 -71.5 -32t-26.5 -93v-7q0 -60 25.5 -92t73.5 -32q35 0 59 18t29 56h92q-6 -75 -55 -113t-124 -38zM421 32q64 0 122.5 24t102.5 67
t70 103t26 133q0 72 -25 131.5t-68.5 102t-101.5 66.5t-124 24q-67 0 -125.5 -24t-102 -67t-68.5 -103t-25 -132q0 -73 26 -133t70 -102.5t101.5 -66t121.5 -23.5zM421 -13q-78 0 -146 28.5t-118.5 78t-79.5 117t-29 146.5q0 78 29 145.5t79.5 117.5t119 79t147.5 29
t147.5 -28.5t118.5 -78.5t78.5 -117.5t28.5 -144.5q0 -79 -29 -147t-80 -118t-119.5 -78.5t-146.5 -28.5z" />
    <glyph glyph-name="ordfeminine" unicode="&#xaa;" horiz-adv-x="444" 
d="M169 289q-29 0 -54 7t-44.5 22t-30.5 38.5t-11 56.5q0 37 16 62t44.5 40.5t68 22.5t86.5 7h51v22q0 38 -16 57t-54 19q-35 0 -52.5 -16.5t-22.5 -42.5h-104q3 36 18 62.5t39.5 43.5t56.5 25.5t70 8.5t69.5 -8t54.5 -26.5t36 -48t13 -72.5v-271h-107v50q-18 -26 -48 -42.5
t-79 -16.5zM200 368q41 0 68 19.5t27 56.5v37h-48q-51 0 -80 -13.5t-29 -47.5q0 -25 14.5 -38.5t47.5 -13.5z" />
    <glyph glyph-name="guillemotleft" unicode="&#xab;" horiz-adv-x="492" 
d="M48 261l128 183h95l-123 -183l123 -183h-95zM227 261l128 183h95l-123 -183l123 -183h-95z" />
    <glyph glyph-name="registered" unicode="&#xae;" horiz-adv-x="515" 
d="M178 615h82q41 0 64 -16.5t23 -51.5v-1q0 -24 -12 -38t-30 -21l55 -91h-59l-48 81h-19v-81h-56v219zM258 515q34 0 34 28v1q0 16 -9 22t-25 6h-24v-57h24zM258 319q39 0 72 13.5t58 37.5t39 58t14 75t-13.5 75t-38 58t-58 37.5t-73.5 13.5t-74 -13.5t-58.5 -38t-38 -58.5
t-13.5 -75t14.5 -75t39 -58t58 -37t72.5 -13zM258 281q-47 0 -88 17t-71.5 46.5t-48 70t-17.5 87.5q0 46 17.5 86.5t48 71t71.5 48t88 17.5q48 0 89 -17.5t71 -47.5t47 -70.5t17 -86.5q0 -47 -17.5 -87.5t-47.5 -70.5t-71 -47t-88 -17z" />
    <glyph glyph-name="macron" unicode="&#xaf;" horiz-adv-x="400" 
d="M60 712h280v-78h-280v78z" />
    <glyph glyph-name="degree" unicode="&#xb0;" horiz-adv-x="437" 
d="M219 459q40 0 65 29t25 71q0 44 -25 73t-65 29q-41 0 -67 -29t-26 -73q0 -42 26 -71t67 -29zM219 396q-35 0 -66 13t-54 35t-36 52t-13 63q0 34 13 64t36 52.5t54 35.5t66 13t65.5 -13t53.5 -35.5t36 -52.5t13 -64q0 -33 -13 -63t-36 -52t-53.5 -35t-65.5 -13z" />
    <glyph glyph-name="plusminus" unicode="&#xb1;" horiz-adv-x="539" 
d="M219 332h-182v94h182v176h101v-176h183v-94h-183v-175h-101v175zM37 89h467v-89h-467v89z" />
    <glyph glyph-name="twosuperior" unicode="&#xb2;" horiz-adv-x="313" 
d="M7 373l128 135q27 28 43 52t16 47q0 20 -10.5 31.5t-31.5 11.5q-22 0 -35 -14.5t-17 -46.5h-85q3 63 40.5 97t100.5 34q64 0 96.5 -30.5t32.5 -78.5q0 -36 -19 -66t-51 -60l-58 -57h131v-68h-281v13z" />
    <glyph glyph-name="threesuperior" unicode="&#xb3;" horiz-adv-x="336" 
d="M166 354q-74 0 -109 33t-37 87h83q2 -23 15.5 -38.5t42.5 -15.5q27 0 40.5 12.5t13.5 34.5q0 45 -54 45h-28v58h27q52 0 52 43q0 18 -11 29t-34 11t-37 -12.5t-17 -35.5h-83q4 50 39.5 82.5t99.5 32.5q63 0 97 -27t34 -70q0 -30 -16.5 -49t-44.5 -28q31 -6 50.5 -27
t19.5 -55q0 -51 -37 -80.5t-106 -29.5z" />
    <glyph glyph-name="acute" unicode="&#xb4;" horiz-adv-x="400" 
d="M207 756h134l-104 -155h-89z" />
    <glyph glyph-name="paragraph" unicode="&#xb6;" horiz-adv-x="573" 
d="M268 339h-11q-49 0 -89 11.5t-69 34.5t-45 57.5t-16 81.5q0 48 16.5 84t45.5 60t69.5 35.5t87.5 11.5h232v-815h-72v755h-78v-755h-71v439z" />
    <glyph glyph-name="periodcentered" unicode="&#xb7;" horiz-adv-x="289" 
d="M144 248q-33 0 -56 23t-23 56t23 55.5t56 22.5q34 0 57 -22.5t23 -55.5t-23 -56t-57 -23z" />
    <glyph glyph-name="cedilla" unicode="&#xb8;" horiz-adv-x="400" 
d="M206 -219q-48 0 -76.5 23.5t-33.5 64.5h66q2 -13 12 -23t28 -10q17 0 27 9.5t10 24.5q0 14 -9.5 23t-25.5 9q-11 0 -18 -3t-12 -6l-34 32l44 75h60l-29 -50q19 2 37 -1.5t32 -14t22.5 -27t8.5 -40.5q0 -42 -31 -64t-78 -22z" />
    <glyph glyph-name="onesuperior" unicode="&#xb9;" horiz-adv-x="253" 
d="M104 625l-82 -51v78l94 63h82v-355h-94v265z" />
    <glyph glyph-name="ordmasculine" unicode="&#xba;" horiz-adv-x="504" 
d="M253 374q51 0 77.5 35t26.5 95v6q0 60 -27 94.5t-77 34.5t-78 -34t-28 -95v-6q0 -61 27.5 -95.5t78.5 -34.5zM252 289q-47 0 -87 15t-69 43t-45.5 67t-16.5 87v6q0 49 16.5 89.5t46 68.5t69.5 43.5t87 15.5q46 0 86 -15t69 -43t45.5 -67.5t16.5 -87.5v-6
q0 -50 -16.5 -89.5t-46 -68t-69.5 -43.5t-86 -15z" />
    <glyph glyph-name="guillemotright" unicode="&#xbb;" horiz-adv-x="492" 
d="M166 261l-123 183h95l128 -183l-128 -183h-95zM344 261l-123 183h95l128 -183l-128 -183h-95z" />
    <glyph glyph-name="onequarter" unicode="&#xbc;" horiz-adv-x="725" 
d="M107 625l-82 -51v78l94 63h82v-355h-94v265zM584 715h77l-528 -715h-77zM567 69h-178v34l154 252h113v-222h46v-64h-46v-69h-89v69zM569 133v157l-91 -157h91z" />
    <glyph glyph-name="onehalf" unicode="&#xbd;" horiz-adv-x="729" 
d="M107 625l-82 -51v78l94 63h82v-355h-94v265zM571 715h77l-528 -715h-77zM419 13l128 135q27 28 43 52t16 47q0 20 -10.5 31.5t-31.5 11.5q-22 0 -35 -14.5t-17 -46.5h-85q3 63 40.5 97t100.5 34q64 0 96.5 -30.5t32.5 -78.5q0 -36 -19 -66t-51 -60l-58 -57h131v-68h-281
v13z" />
    <glyph glyph-name="threequarters" unicode="&#xbe;" horiz-adv-x="738" 
d="M169 354q-74 0 -109 33t-37 87h83q2 -23 15.5 -38.5t42.5 -15.5q27 0 40.5 12.5t13.5 34.5q0 45 -54 45h-28v58h27q52 0 52 43q0 18 -11 29t-34 11t-37 -12.5t-17 -35.5h-83q4 50 39.5 82.5t99.5 32.5q63 0 97 -27t34 -70q0 -30 -16.5 -49t-44.5 -28q31 -6 50.5 -27
t19.5 -55q0 -51 -37 -80.5t-106 -29.5zM624 715h77l-528 -715h-77zM577 69h-178v34l154 252h113v-222h46v-64h-46v-69h-89v69zM579 133v157l-91 -157h91z" />
    <glyph glyph-name="questiondown" unicode="&#xbf;" horiz-adv-x="516" 
d="M340.011 346.016q0 -29.998 -8.99902 -53.9971q-9 -23.998 -23.499 -44.9971t-32.498 -39.498q-17.999 -18.498 -35.998 -36.4971q-27.998 -27.999 -48.9971 -54.4971q-20.998 -26.498 -20.998 -58.4961q0 -37.998 21.498 -60.9961q21.499 -22.999 67.4961 -22.999
q46.9971 0 76.9951 30.498t34.998 82.4951h115.993q-3 -48.9971 -20.999 -88.4941q-17.999 -39.498 -48.4971 -66.9961q-30.498 -27.499 -72.4951 -42.498q-41.998 -14.999 -91.9951 -14.999q-53.9961 0 -93.4941 13.499q-39.4971 13.5 -65.4961 37.498
q-25.998 23.999 -38.4971 55.9971t-12.499 67.9951q0 26.999 7.49902 48.9971q7.5 21.999 19.499 41.498t27.998 36.9971q15.999 17.499 32.998 33.498q17.999 16.999 34.998 33.498t30.498 33.498t22.499 35.498q8.99902 18.499 9.99902 39.4971v31.998h111.993v-37.9971z
M285.014 606q33.998 0 57.9971 -22.499q23.998 -22.499 23.998 -54.4971q0 -32.998 -23.998 -55.4961q-23.999 -22.499 -57.9971 -22.499q-32.998 0 -56.4961 22.499q-23.499 22.498 -23.499 55.4961q0 31.998 23.499 54.4971q23.498 22.499 56.4961 22.499z" />
    <glyph glyph-name="Agrave" unicode="&#xc0;" horiz-adv-x="703" 
d="M266 715h174l236 -715h-138l-57 177h-273l-56 -177h-125zM239 274h211l-105 332zM213 901h136l53 -135h-91z" />
    <glyph glyph-name="Aacute" unicode="&#xc1;" horiz-adv-x="703" 
d="M266 715h174l236 -715h-138l-57 177h-273l-56 -177h-125zM239 274h211l-105 332zM352 901h136l-99 -135h-91z" />
    <glyph glyph-name="Acircumflex" unicode="&#xc2;" horiz-adv-x="703" 
d="M266 715h174l236 -715h-138l-57 177h-273l-56 -177h-125zM239 274h211l-105 332zM299 901h104l108 -135h-88l-74 55l-75 -55h-86z" />
    <glyph glyph-name="Atilde" unicode="&#xc3;" horiz-adv-x="703" 
d="M266 715h174l236 -715h-138l-57 177h-273l-56 -177h-125zM239 274h211l-105 332zM408 768q-18 0 -33.5 6t-29.5 13.5t-26 13.5t-23 6q-14 0 -24 -11.5t-13 -28.5h-76q5 63 36 97t73 34q17 0 32.5 -6.5t29.5 -14t26.5 -13.5t24.5 -6q14 0 23.5 11.5t12.5 28.5h77
q-6 -63 -37 -96.5t-73 -33.5z" />
    <glyph glyph-name="Adieresis" unicode="&#xc4;" horiz-adv-x="703" 
d="M266 715h174l236 -715h-138l-57 177h-273l-56 -177h-125zM239 274h211l-105 332zM244 777q-27 0 -46.5 19t-19.5 46t19.5 46t46.5 19t46.5 -19t19.5 -46t-19.5 -46t-46.5 -19zM455 777q-27 0 -46.5 19t-19.5 46t19.5 46t46.5 19t46.5 -19t19.5 -46t-19.5 -46t-46.5 -19z
" />
    <glyph glyph-name="Aring" unicode="&#xc5;" horiz-adv-x="703" 
d="M266 715h174l236 -715h-138l-57 177h-273l-56 -177h-125zM239 274h211l-105 332zM350 807q22 0 36 15.5t14 39.5t-14 39.5t-36 15.5q-23 0 -36.5 -15.5t-13.5 -39.5t13.5 -39.5t36.5 -15.5zM350 753q-23 0 -43.5 8.5t-35.5 23.5t-24 34.5t-9 42.5q0 22 9 42t24 35
t35.5 23.5t43.5 8.5t43.5 -8.5t35.5 -23.5t24 -35t9 -42q0 -23 -9 -42.5t-24 -34.5t-35.5 -23.5t-43.5 -8.5z" />
    <glyph glyph-name="AE" unicode="&#xc6;" horiz-adv-x="971" 
d="M373 715h543v-105h-312v-196h250v-100h-250v-209h329v-105h-462v183h-232l-87 -183h-130zM285 278h186v332h-27z" />
    <glyph glyph-name="Ccedilla" unicode="&#xc7;" horiz-adv-x="741" 
d="M380 -219q-48 0 -76.5 23.5t-33.5 64.5h66q2 -13 12 -23t28 -10q17 0 27 9.5t10 24.5q0 14 -9.5 23t-25.5 9q-11 0 -18 -3t-12 -6l-34 32l39 67q-74 6 -131.5 34.5t-96.5 75t-59 110.5t-20 141v8q0 81 26 148t72.5 115t110 75t138.5 27q61 0 114.5 -15.5t94.5 -46.5
t66.5 -78t31.5 -110h-135q-11 72 -52 108t-119 36q-47 0 -85.5 -18t-65.5 -51t-42 -81t-15 -108v-8q0 -121 54.5 -188.5t154.5 -67.5q75 0 123.5 37.5t59.5 113.5h130q-16 -125 -95.5 -189.5t-200.5 -69.5l-23 -40q19 2 37 -1.5t32 -14t22.5 -27t8.5 -40.5q0 -42 -31 -64
t-78 -22z" />
    <glyph glyph-name="Egrave" unicode="&#xc8;" horiz-adv-x="584" 
d="M82 715h447v-105h-314v-196h252v-100h-252v-209h331v-105h-464v715zM176 901h136l53 -135h-91z" />
    <glyph glyph-name="Eacute" unicode="&#xc9;" horiz-adv-x="584" 
d="M82 715h447v-105h-314v-196h252v-100h-252v-209h331v-105h-464v715zM315 901h136l-99 -135h-91z" />
    <glyph glyph-name="Ecircumflex" unicode="&#xca;" horiz-adv-x="584" 
d="M82 715h447v-105h-314v-196h252v-100h-252v-209h331v-105h-464v715zM262 901h104l108 -135h-88l-74 55l-75 -55h-86z" />
    <glyph glyph-name="Edieresis" unicode="&#xcb;" horiz-adv-x="584" 
d="M82 715h447v-105h-314v-196h252v-100h-252v-209h331v-105h-464v715zM207 777q-27 0 -46.5 19t-19.5 46t19.5 46t46.5 19t46.5 -19t19.5 -46t-19.5 -46t-46.5 -19zM418 777q-27 0 -46.5 19t-19.5 46t19.5 46t46.5 19t46.5 -19t19.5 -46t-19.5 -46t-46.5 -19z" />
    <glyph glyph-name="Igrave" unicode="&#xcc;" horiz-adv-x="307" 
d="M86 715h134v-715h-134v715zM16 901h136l53 -135h-91z" />
    <glyph glyph-name="Iacute" unicode="&#xcd;" horiz-adv-x="307" 
d="M86 715h134v-715h-134v715zM155 901h136l-99 -135h-91z" />
    <glyph glyph-name="Icircumflex" unicode="&#xce;" horiz-adv-x="307" 
d="M86 715h134v-715h-134v715zM102 901h104l108 -135h-88l-74 55l-75 -55h-86z" />
    <glyph glyph-name="Idieresis" unicode="&#xcf;" horiz-adv-x="307" 
d="M86 715h134v-715h-134v715zM47 777q-27 0 -46.5 19t-19.5 46t19.5 46t46.5 19t46.5 -19t19.5 -46t-19.5 -46t-46.5 -19zM258 777q-27 0 -46.5 19t-19.5 46t19.5 46t46.5 19t46.5 -19t19.5 -46t-19.5 -46t-46.5 -19z" />
    <glyph glyph-name="Eth" unicode="&#xd0;" horiz-adv-x="739" 
d="M32 406h69v309h217q93 0 162.5 -25.5t115.5 -71.5t69 -110.5t23 -142.5v-9q0 -78 -22.5 -143.5t-68.5 -112.5t-116 -73.5t-164 -26.5h-216v311h-69v95zM313 105q121 0 178.5 65.5t57.5 184.5v8q0 58 -13.5 103.5t-42 77.5t-73.5 49t-108 17h-79v-204h173v-95h-173v-206
h80z" />
    <glyph glyph-name="Ntilde" unicode="&#xd1;" horiz-adv-x="745" 
d="M82 715h159l301 -517v517h121v-715h-138l-322 548v-548h-121v715zM443 768q-18 0 -33.5 6t-29.5 13.5t-26 13.5t-23 6q-14 0 -24 -11.5t-13 -28.5h-76q5 63 36 97t73 34q17 0 32.5 -6.5t29.5 -14t26.5 -13.5t24.5 -6q14 0 23.5 11.5t12.5 28.5h77q-6 -63 -37 -96.5
t-73 -33.5z" />
    <glyph glyph-name="Ograve" unicode="&#xd2;" horiz-adv-x="814" 
d="M410 97q51 0 91.5 18.5t69 52.5t44 81.5t15.5 105.5v8q0 55 -15 102t-43.5 81t-70 53.5t-93.5 19.5q-53 0 -94 -18.5t-70 -52.5t-44 -81t-15 -105v-8q0 -59 17 -106t47 -81t71 -52t90 -18zM408 -10q-82 0 -149 27.5t-114 76.5t-73 115.5t-26 143.5v8q0 78 26.5 145
t74.5 115.5t114.5 76t146.5 27.5t146 -27t113.5 -75t74 -114t26.5 -145v-8q0 -78 -25.5 -145t-73 -116t-114 -77t-147.5 -28zM269 901h136l53 -135h-91z" />
    <glyph glyph-name="Oacute" unicode="&#xd3;" horiz-adv-x="814" 
d="M410 97q51 0 91.5 18.5t69 52.5t44 81.5t15.5 105.5v8q0 55 -15 102t-43.5 81t-70 53.5t-93.5 19.5q-53 0 -94 -18.5t-70 -52.5t-44 -81t-15 -105v-8q0 -59 17 -106t47 -81t71 -52t90 -18zM408 -10q-82 0 -149 27.5t-114 76.5t-73 115.5t-26 143.5v8q0 78 26.5 145
t74.5 115.5t114.5 76t146.5 27.5t146 -27t113.5 -75t74 -114t26.5 -145v-8q0 -78 -25.5 -145t-73 -116t-114 -77t-147.5 -28zM408 901h136l-99 -135h-91z" />
    <glyph glyph-name="Ocircumflex" unicode="&#xd4;" horiz-adv-x="814" 
d="M410 97q51 0 91.5 18.5t69 52.5t44 81.5t15.5 105.5v8q0 55 -15 102t-43.5 81t-70 53.5t-93.5 19.5q-53 0 -94 -18.5t-70 -52.5t-44 -81t-15 -105v-8q0 -59 17 -106t47 -81t71 -52t90 -18zM408 -10q-82 0 -149 27.5t-114 76.5t-73 115.5t-26 143.5v8q0 78 26.5 145
t74.5 115.5t114.5 76t146.5 27.5t146 -27t113.5 -75t74 -114t26.5 -145v-8q0 -78 -25.5 -145t-73 -116t-114 -77t-147.5 -28zM355 901h104l108 -135h-88l-74 55l-75 -55h-86z" />
    <glyph glyph-name="Otilde" unicode="&#xd5;" horiz-adv-x="814" 
d="M410 97q51 0 91.5 18.5t69 52.5t44 81.5t15.5 105.5v8q0 55 -15 102t-43.5 81t-70 53.5t-93.5 19.5q-53 0 -94 -18.5t-70 -52.5t-44 -81t-15 -105v-8q0 -59 17 -106t47 -81t71 -52t90 -18zM408 -10q-82 0 -149 27.5t-114 76.5t-73 115.5t-26 143.5v8q0 78 26.5 145
t74.5 115.5t114.5 76t146.5 27.5t146 -27t113.5 -75t74 -114t26.5 -145v-8q0 -78 -25.5 -145t-73 -116t-114 -77t-147.5 -28zM464 768q-18 0 -33.5 6t-29.5 13.5t-26 13.5t-23 6q-14 0 -24 -11.5t-13 -28.5h-76q5 63 36 97t73 34q17 0 32.5 -6.5t29.5 -14t26.5 -13.5
t24.5 -6q14 0 23.5 11.5t12.5 28.5h77q-6 -63 -37 -96.5t-73 -33.5z" />
    <glyph glyph-name="Odieresis" unicode="&#xd6;" horiz-adv-x="814" 
d="M410 97q51 0 91.5 18.5t69 52.5t44 81.5t15.5 105.5v8q0 55 -15 102t-43.5 81t-70 53.5t-93.5 19.5q-53 0 -94 -18.5t-70 -52.5t-44 -81t-15 -105v-8q0 -59 17 -106t47 -81t71 -52t90 -18zM408 -10q-82 0 -149 27.5t-114 76.5t-73 115.5t-26 143.5v8q0 78 26.5 145
t74.5 115.5t114.5 76t146.5 27.5t146 -27t113.5 -75t74 -114t26.5 -145v-8q0 -78 -25.5 -145t-73 -116t-114 -77t-147.5 -28zM300 777q-27 0 -46.5 19t-19.5 46t19.5 46t46.5 19t46.5 -19t19.5 -46t-19.5 -46t-46.5 -19zM511 777q-27 0 -46.5 19t-19.5 46t19.5 46t46.5 19
t46.5 -19t19.5 -46t-19.5 -46t-46.5 -19z" />
    <glyph glyph-name="multiply" unicode="&#xd7;" horiz-adv-x="509" 
d="M35 181l154 153l-155 154l66 67l154 -155l154 154l66 -66l-154 -154l155 -154l-67 -66l-154 155l-153 -154z" />
    <glyph glyph-name="Oslash" unicode="&#xd8;" horiz-adv-x="814" 
d="M34 18l91 98q-38 48 -58.5 108t-20.5 129v8q0 78 26.5 144.5t74.5 115t114.5 76t146.5 27.5q64 0 119 -17.5t100 -49.5l78 84l50 -50l-75 -81q42 -48 65.5 -110t23.5 -136v-8q0 -78 -26 -145t-73 -116t-114 -77t-148 -28q-70 0 -128.5 20t-103.5 56l-92 -99zM409 97
q51 0 92.5 18.5t70 52.5t44 81.5t15.5 106.5v8q0 91 -37 154l-336 -364q60 -57 151 -57zM184 354q0 -82 31 -141l333 359q-56 47 -140 47q-53 0 -94.5 -18.5t-70.5 -52.5t-44 -81t-15 -105v-8z" />
    <glyph glyph-name="Ugrave" unicode="&#xd9;" horiz-adv-x="723" 
d="M357 -10q-135 0 -208 71.5t-73 210.5v443h134v-433q0 -99 34 -142t114 -43q39 0 68 9.5t48.5 32t29 59.5t9.5 93v424h134v-435q0 -141 -73.5 -215.5t-216.5 -74.5zM223 901h136l53 -135h-91z" />
    <glyph glyph-name="Uacute" unicode="&#xda;" horiz-adv-x="723" 
d="M357 -10q-135 0 -208 71.5t-73 210.5v443h134v-433q0 -99 34 -142t114 -43q39 0 68 9.5t48.5 32t29 59.5t9.5 93v424h134v-435q0 -141 -73.5 -215.5t-216.5 -74.5zM362 901h136l-99 -135h-91z" />
    <glyph glyph-name="Ucircumflex" unicode="&#xdb;" horiz-adv-x="723" 
d="M357 -10q-135 0 -208 71.5t-73 210.5v443h134v-433q0 -99 34 -142t114 -43q39 0 68 9.5t48.5 32t29 59.5t9.5 93v424h134v-435q0 -141 -73.5 -215.5t-216.5 -74.5zM309 901h104l108 -135h-88l-74 55l-75 -55h-86z" />
    <glyph glyph-name="Udieresis" unicode="&#xdc;" horiz-adv-x="723" 
d="M357 -10q-135 0 -208 71.5t-73 210.5v443h134v-433q0 -99 34 -142t114 -43q39 0 68 9.5t48.5 32t29 59.5t9.5 93v424h134v-435q0 -141 -73.5 -215.5t-216.5 -74.5zM254 777q-27 0 -46.5 19t-19.5 46t19.5 46t46.5 19t46.5 -19t19.5 -46t-19.5 -46t-46.5 -19zM465 777
q-27 0 -46.5 19t-19.5 46t19.5 46t46.5 19t46.5 -19t19.5 -46t-19.5 -46t-46.5 -19z" />
    <glyph glyph-name="Yacute" unicode="&#xdd;" horiz-adv-x="629" 
d="M254 310l-237 405h147l161 -296l157 296h130l-224 -406v-309h-134v310zM319 901h136l-99 -135h-91z" />
    <glyph glyph-name="Thorn" unicode="&#xde;" horiz-adv-x="609" 
d="M82 715h133v-127h97q60 0 109 -12.5t83.5 -38.5t53.5 -66.5t19 -97.5v-4q0 -57 -19.5 -97.5t-54 -67t-83 -39t-105.5 -12.5h-100v-153h-133v715zM312 250q66 0 100.5 29.5t34.5 89.5v4q0 64 -35.5 89.5t-99.5 25.5h-97v-238h97z" />
    <glyph glyph-name="germandbls" unicode="&#xdf;" horiz-adv-x="608" 
d="M353 -9q-32 0 -56.5 4.5t-36.5 9.5v96q12 -5 30.5 -10t41.5 -5q21 0 42 5.5t37.5 21t27 42t10.5 68.5v7q0 76 -47.5 115t-126.5 37v95q36 -1 60.5 9t39.5 26t21.5 35.5t6.5 39.5v4q0 45 -26.5 70t-77.5 25q-48 0 -77 -32t-29 -88v-566h-121v557q0 53 18.5 93.5t50.5 68
t74 41.5t89 14q48 0 87.5 -12.5t67.5 -35.5t43.5 -57t15.5 -76v-3q0 -49 -31.5 -92t-87.5 -61q37 -9 69 -28t55 -46t36.5 -62t13.5 -76v-6q0 -62 -18 -105.5t-48 -70.5t-70 -39.5t-84 -12.5z" />
    <glyph glyph-name="agrave" unicode="&#xe0;" horiz-adv-x="555" 
d="M209 -10q-36 0 -68 9t-55.5 27.5t-37.5 48t-14 70.5q0 46 21 77.5t57 51t85 28.5t105 9h65v27q0 53 -20.5 79t-74.5 26q-48 0 -71.5 -21.5t-28.5 -60.5h-117q4 46 23 78.5t49 53.5t69 31t83 10t82 -9.5t66.5 -32t44.5 -59t16 -90.5v-343h-119v64q-26 -34 -63 -54t-97 -20
zM238 77q56 0 92.5 27.5t36.5 78.5v52h-62q-69 0 -110 -18.5t-41 -66.5q0 -33 19.5 -53t64.5 -20zM136 756h134l59 -155h-89z" />
    <glyph glyph-name="aacute" unicode="&#xe1;" horiz-adv-x="555" 
d="M209 -10q-36 0 -68 9t-55.5 27.5t-37.5 48t-14 70.5q0 46 21 77.5t57 51t85 28.5t105 9h65v27q0 53 -20.5 79t-74.5 26q-48 0 -71.5 -21.5t-28.5 -60.5h-117q4 46 23 78.5t49 53.5t69 31t83 10t82 -9.5t66.5 -32t44.5 -59t16 -90.5v-343h-119v64q-26 -34 -63 -54t-97 -20
zM238 77q56 0 92.5 27.5t36.5 78.5v52h-62q-69 0 -110 -18.5t-41 -66.5q0 -33 19.5 -53t64.5 -20zM288 756h134l-104 -155h-89z" />
    <glyph glyph-name="acircumflex" unicode="&#xe2;" horiz-adv-x="555" 
d="M209 -10q-36 0 -68 9t-55.5 27.5t-37.5 48t-14 70.5q0 46 21 77.5t57 51t85 28.5t105 9h65v27q0 53 -20.5 79t-74.5 26q-48 0 -71.5 -21.5t-28.5 -60.5h-117q4 46 23 78.5t49 53.5t69 31t83 10t82 -9.5t66.5 -32t44.5 -59t16 -90.5v-343h-119v64q-26 -34 -63 -54t-97 -20
zM238 77q56 0 92.5 27.5t36.5 78.5v52h-62q-69 0 -110 -18.5t-41 -66.5q0 -33 19.5 -53t64.5 -20zM223 753h96l111 -151h-86l-75 68l-76 -68h-84z" />
    <glyph glyph-name="atilde" unicode="&#xe3;" horiz-adv-x="555" 
d="M209 -10q-36 0 -68 9t-55.5 27.5t-37.5 48t-14 70.5q0 46 21 77.5t57 51t85 28.5t105 9h65v27q0 53 -20.5 79t-74.5 26q-48 0 -71.5 -21.5t-28.5 -60.5h-117q4 46 23 78.5t49 53.5t69 31t83 10t82 -9.5t66.5 -32t44.5 -59t16 -90.5v-343h-119v64q-26 -34 -63 -54t-97 -20
zM238 77q56 0 92.5 27.5t36.5 78.5v52h-62q-69 0 -110 -18.5t-41 -66.5q0 -33 19.5 -53t64.5 -20zM337 606q-18 0 -33.5 6t-29 13.5t-25.5 14t-23 6.5q-14 0 -24 -11.5t-13 -28.5h-75q6 63 35.5 97t71.5 34q17 0 32.5 -6t29 -13.5t26 -13.5t24.5 -6q14 0 23.5 11t12.5 29h75
q-6 -63 -35.5 -97.5t-71.5 -34.5z" />
    <glyph glyph-name="adieresis" unicode="&#xe4;" horiz-adv-x="555" 
d="M209 -10q-36 0 -68 9t-55.5 27.5t-37.5 48t-14 70.5q0 46 21 77.5t57 51t85 28.5t105 9h65v27q0 53 -20.5 79t-74.5 26q-48 0 -71.5 -21.5t-28.5 -60.5h-117q4 46 23 78.5t49 53.5t69 31t83 10t82 -9.5t66.5 -32t44.5 -59t16 -90.5v-343h-119v64q-26 -34 -63 -54t-97 -20
zM238 77q56 0 92.5 27.5t36.5 78.5v52h-62q-69 0 -110 -18.5t-41 -66.5q0 -33 19.5 -53t64.5 -20zM180 613q-27 0 -46.5 19t-19.5 46q0 26 19.5 45.5t46.5 19.5t46.5 -19.5t19.5 -45.5q0 -27 -19.5 -46t-46.5 -19zM378 613q-28 0 -47 19t-19 46q0 26 19 45.5t47 19.5
q27 0 46.5 -19.5t19.5 -45.5q0 -27 -19.5 -46t-46.5 -19z" />
    <glyph glyph-name="aring" unicode="&#xe5;" horiz-adv-x="555" 
d="M209 -10q-36 0 -68 9t-55.5 27.5t-37.5 48t-14 70.5q0 46 21 77.5t57 51t85 28.5t105 9h65v27q0 53 -20.5 79t-74.5 26q-48 0 -71.5 -21.5t-28.5 -60.5h-117q4 46 23 78.5t49 53.5t69 31t83 10t82 -9.5t66.5 -32t44.5 -59t16 -90.5v-343h-119v64q-26 -34 -63 -54t-97 -20
zM238 77q56 0 92.5 27.5t36.5 78.5v52h-62q-69 0 -110 -18.5t-41 -66.5q0 -33 19.5 -53t64.5 -20zM279 643q22 0 36 16t14 39q0 24 -14 39.5t-36 15.5t-36 -15.5t-14 -39.5q0 -23 14 -39t36 -16zM279 590q-23 0 -43 8.5t-35 23.5t-24 34.5t-9 41.5t9 41.5t24 34.5t35 23.5
t43 8.5t43 -8.5t35 -23.5t24 -34.5t9 -41.5t-9 -41.5t-24 -34.5t-35 -23.5t-43 -8.5z" />
    <glyph glyph-name="ae" unicode="&#xe6;" horiz-adv-x="891" 
d="M620 -10q-68 0 -118 26t-81 74q-35 -51 -82.5 -75.5t-122.5 -24.5q-38 0 -71 9t-58 27.5t-39 48t-14 70.5q0 46 20.5 78t56.5 52t84.5 29.5t104.5 9.5h68v24q0 53 -22 79t-73 26q-92 0 -101 -82h-117q4 46 23 78.5t48.5 53.5t68 31t81.5 10q57 0 99.5 -17t66.5 -59
q31 36 74.5 56t98.5 20q47 0 90.5 -14.5t77 -46.5t53.5 -82t20 -121v-33h-372q3 -75 37 -116t100 -41q53 0 81 21t35 59h116q-13 -83 -74.5 -126.5t-158.5 -43.5zM239 77q57 0 93 27.5t36 78.5v53h-65q-68 0 -108.5 -18t-40.5 -66q0 -35 19.5 -55t65.5 -20zM736 314
q-5 69 -36 100.5t-85 31.5q-53 0 -87 -35t-42 -97h250z" />
    <glyph glyph-name="ccedilla" unicode="&#xe7;" horiz-adv-x="575" 
d="M283 -219q-48 0 -76.5 23.5t-33.5 64.5h66q2 -13 12 -23t28 -10q17 0 27 9.5t10 24.5q0 14 -9.5 23t-25.5 9q-11 0 -18 -3t-12 -6l-34 32l40 68q-48 6 -88.5 26.5t-69.5 54t-45.5 79t-16.5 102.5v8q0 62 20.5 112t56.5 85.5t84 54.5t103 19q43 0 84 -10.5t73.5 -33.5
t54.5 -60.5t27 -91.5h-117q-8 53 -40 76t-80 23q-31 0 -57 -11.5t-45 -34t-29.5 -54.5t-10.5 -72v-8q0 -86 39 -130t106 -44q24 0 45.5 7t38.5 21t28 35t14 49h111q-7 -88 -67 -144t-161 -61l-23 -40q19 2 37 -1.5t32 -14t22.5 -27t8.5 -40.5q0 -42 -31 -64t-78 -22z" />
    <glyph glyph-name="egrave" unicode="&#xe8;" horiz-adv-x="580" 
d="M302 -10q-58 0 -106.5 18.5t-84 53t-55 83.5t-19.5 111v8q0 61 19.5 110.5t54.5 85t82.5 55t103.5 19.5q49 0 93.5 -15t78.5 -47t54.5 -82t20.5 -120v-35h-383q3 -75 39.5 -115t104.5 -40q55 0 84 21t36 59h117q-13 -83 -76 -126.5t-164 -43.5zM424 316q-5 68 -37.5 99
t-89.5 31q-55 0 -90 -34.5t-44 -95.5h261zM152 756h134l59 -155h-89z" />
    <glyph glyph-name="eacute" unicode="&#xe9;" horiz-adv-x="580" 
d="M302 -10q-58 0 -106.5 18.5t-84 53t-55 83.5t-19.5 111v8q0 61 19.5 110.5t54.5 85t82.5 55t103.5 19.5q49 0 93.5 -15t78.5 -47t54.5 -82t20.5 -120v-35h-383q3 -75 39.5 -115t104.5 -40q55 0 84 21t36 59h117q-13 -83 -76 -126.5t-164 -43.5zM424 316q-5 68 -37.5 99
t-89.5 31q-55 0 -90 -34.5t-44 -95.5h261zM304 756h134l-104 -155h-89z" />
    <glyph glyph-name="ecircumflex" unicode="&#xea;" horiz-adv-x="580" 
d="M302 -10q-58 0 -106.5 18.5t-84 53t-55 83.5t-19.5 111v8q0 61 19.5 110.5t54.5 85t82.5 55t103.5 19.5q49 0 93.5 -15t78.5 -47t54.5 -82t20.5 -120v-35h-383q3 -75 39.5 -115t104.5 -40q55 0 84 21t36 59h117q-13 -83 -76 -126.5t-164 -43.5zM424 316q-5 68 -37.5 99
t-89.5 31q-55 0 -90 -34.5t-44 -95.5h261zM248 753h96l111 -151h-86l-75 68l-76 -68h-84z" />
    <glyph glyph-name="edieresis" unicode="&#xeb;" horiz-adv-x="580" 
d="M302 -10q-58 0 -106.5 18.5t-84 53t-55 83.5t-19.5 111v8q0 61 19.5 110.5t54.5 85t82.5 55t103.5 19.5q49 0 93.5 -15t78.5 -47t54.5 -82t20.5 -120v-35h-383q3 -75 39.5 -115t104.5 -40q55 0 84 21t36 59h117q-13 -83 -76 -126.5t-164 -43.5zM424 316q-5 68 -37.5 99
t-89.5 31q-55 0 -90 -34.5t-44 -95.5h261zM196 613q-27 0 -46.5 19t-19.5 46q0 26 19.5 45.5t46.5 19.5t46.5 -19.5t19.5 -45.5q0 -27 -19.5 -46t-46.5 -19zM394 613q-28 0 -47 19t-19 46q0 26 19 45.5t47 19.5q27 0 46.5 -19.5t19.5 -45.5q0 -27 -19.5 -46t-46.5 -19z" />
    <glyph glyph-name="igrave" unicode="&#xec;" horiz-adv-x="271" 
d="M75 523h121v-523h-121v523zM-7 756h134l59 -155h-89z" />
    <glyph glyph-name="iacute" unicode="&#xed;" horiz-adv-x="271" 
d="M75 523h121v-523h-121v523zM145 756h134l-104 -155h-89z" />
    <glyph glyph-name="icircumflex" unicode="&#xee;" horiz-adv-x="271" 
d="M75 523h121v-523h-121v523zM89 753h96l111 -151h-86l-75 68l-76 -68h-84z" />
    <glyph glyph-name="idieresis" unicode="&#xef;" horiz-adv-x="271" 
d="M39 613q-27 0 -46.5 19t-19.5 46q0 26 19.5 45.5t46.5 19.5t46.5 -19.5t19.5 -45.5q0 -27 -19.5 -46t-46.5 -19zM231 613q-27 0 -46.5 19t-19.5 46q0 26 19.5 45.5t46.5 19.5t46.5 -19.5t19.5 -45.5q0 -27 -19.5 -46t-46.5 -19zM75 523h121v-523h-121v523z" />
    <glyph glyph-name="eth" unicode="&#xf0;" horiz-adv-x="611" 
d="M141 620l103 49q-31 27 -62.5 51t-61.5 45h143q17 -10 36 -22t39 -28l93 45l27 -54l-69 -34q36 -33 69 -74t59 -89t41.5 -102.5t15.5 -114.5v-22q0 -63 -20 -114.5t-56 -88.5t-85.5 -57t-108.5 -20q-58 0 -107 19.5t-84.5 54.5t-55.5 85t-20 110v10q0 59 19.5 107.5
t52.5 83t75.5 53t89.5 18.5q46 0 77.5 -16.5t56.5 -44.5q-21 42 -51 81t-66 74l-123 -59zM306 84q68 0 106 47t38 126v8q0 81 -38 127.5t-105 46.5q-68 0 -107 -46t-39 -127v-8q0 -81 38 -127.5t107 -46.5z" />
    <glyph glyph-name="ntilde" unicode="&#xf1;" horiz-adv-x="608" 
d="M72 523h121v-83q19 38 61.5 66t107.5 28q39 0 72 -12t57 -36.5t37 -63.5t13 -93v-329h-121v318q0 60 -25 87.5t-79 27.5q-51 0 -87 -31.5t-36 -93.5v-308h-121v523zM361 606q-18 0 -33.5 6t-29 13.5t-25.5 14t-23 6.5q-14 0 -24 -11.5t-13 -28.5h-75q6 63 35.5 97
t71.5 34q17 0 32.5 -6t29 -13.5t26 -13.5t24.5 -6q14 0 23.5 11t12.5 29h75q-6 -63 -35.5 -97.5t-71.5 -34.5z" />
    <glyph glyph-name="ograve" unicode="&#xf2;" horiz-adv-x="611" 
d="M306 84q68 0 106 46.5t38 127.5v7q0 81 -38 127.5t-106 46.5t-106.5 -46t-38.5 -127v-8q0 -81 38 -127.5t107 -46.5zM305 -10q-58 0 -107 19t-85 54t-56 84t-20 109v8q0 61 20.5 110.5t56.5 85t85 55t107 19.5q57 0 106 -19t85 -54.5t56.5 -84.5t20.5 -109v-8
q0 -61 -20.5 -110.5t-56.5 -85t-85 -54.5t-107 -19zM162 756h134l59 -155h-89z" />
    <glyph glyph-name="oacute" unicode="&#xf3;" horiz-adv-x="611" 
d="M306 84q68 0 106 46.5t38 127.5v7q0 81 -38 127.5t-106 46.5t-106.5 -46t-38.5 -127v-8q0 -81 38 -127.5t107 -46.5zM305 -10q-58 0 -107 19t-85 54t-56 84t-20 109v8q0 61 20.5 110.5t56.5 85t85 55t107 19.5q57 0 106 -19t85 -54.5t56.5 -84.5t20.5 -109v-8
q0 -61 -20.5 -110.5t-56.5 -85t-85 -54.5t-107 -19zM314 756h134l-104 -155h-89z" />
    <glyph glyph-name="ocircumflex" unicode="&#xf4;" horiz-adv-x="611" 
d="M306 84q68 0 106 46.5t38 127.5v7q0 81 -38 127.5t-106 46.5t-106.5 -46t-38.5 -127v-8q0 -81 38 -127.5t107 -46.5zM305 -10q-58 0 -107 19t-85 54t-56 84t-20 109v8q0 61 20.5 110.5t56.5 85t85 55t107 19.5q57 0 106 -19t85 -54.5t56.5 -84.5t20.5 -109v-8
q0 -61 -20.5 -110.5t-56.5 -85t-85 -54.5t-107 -19zM258 753h96l111 -151h-86l-75 68l-76 -68h-84z" />
    <glyph glyph-name="otilde" unicode="&#xf5;" horiz-adv-x="611" 
d="M306 84q68 0 106 46.5t38 127.5v7q0 81 -38 127.5t-106 46.5t-106.5 -46t-38.5 -127v-8q0 -81 38 -127.5t107 -46.5zM305 -10q-58 0 -107 19t-85 54t-56 84t-20 109v8q0 61 20.5 110.5t56.5 85t85 55t107 19.5q57 0 106 -19t85 -54.5t56.5 -84.5t20.5 -109v-8
q0 -61 -20.5 -110.5t-56.5 -85t-85 -54.5t-107 -19zM363 606q-18 0 -33.5 6t-29 13.5t-25.5 14t-23 6.5q-14 0 -24 -11.5t-13 -28.5h-75q6 63 35.5 97t71.5 34q17 0 32.5 -6t29 -13.5t26 -13.5t24.5 -6q14 0 23.5 11t12.5 29h75q-6 -63 -35.5 -97.5t-71.5 -34.5z" />
    <glyph glyph-name="odieresis" unicode="&#xf6;" horiz-adv-x="611" 
d="M306 84q68 0 106 46.5t38 127.5v7q0 81 -38 127.5t-106 46.5t-106.5 -46t-38.5 -127v-8q0 -81 38 -127.5t107 -46.5zM305 -10q-58 0 -107 19t-85 54t-56 84t-20 109v8q0 61 20.5 110.5t56.5 85t85 55t107 19.5q57 0 106 -19t85 -54.5t56.5 -84.5t20.5 -109v-8
q0 -61 -20.5 -110.5t-56.5 -85t-85 -54.5t-107 -19zM206 613q-27 0 -46.5 19t-19.5 46q0 26 19.5 45.5t46.5 19.5t46.5 -19.5t19.5 -45.5q0 -27 -19.5 -46t-46.5 -19zM404 613q-28 0 -47 19t-19 46q0 26 19 45.5t47 19.5q27 0 46.5 -19.5t19.5 -45.5q0 -27 -19.5 -46
t-46.5 -19z" />
    <glyph glyph-name="divide" unicode="&#xf7;" horiz-adv-x="540" 
d="M270 71q-32 0 -54 21.5t-22 53.5t22 53.5t54 21.5q31 0 53.5 -21.5t22.5 -53.5t-22.5 -53.5t-53.5 -21.5zM37 387h467v-91h-467v91zM270 461q-32 0 -54 21.5t-22 53.5t22 54t54 22q31 0 53.5 -22t22.5 -54t-22.5 -53.5t-53.5 -21.5z" />
    <glyph glyph-name="oslash" unicode="&#xf8;" horiz-adv-x="611" 
d="M22 4l73 79q-28 34 -43 77.5t-15 95.5v8q0 61 20.5 110.5t56.5 85t85 55t107 19.5q91 0 159 -48l67 73l47 -42l-67 -73q29 -34 45.5 -78.5t16.5 -98.5v-8q0 -61 -20.5 -110.5t-56.5 -85t-85 -54.5t-107 -19q-48 0 -89.5 13t-74.5 37l-72 -78zM306 84q69 0 107 46.5
t38 126.5v8q0 54 -18 93l-222 -241q36 -33 95 -33zM161 258q0 -48 14 -87l220 239q-38 30 -89 30q-68 0 -106.5 -46.5t-38.5 -127.5v-8z" />
    <glyph glyph-name="ugrave" unicode="&#xf9;" horiz-adv-x="605" 
d="M247 -10q-39 0 -72 11.5t-57 35.5t-37.5 61.5t-13.5 89.5v335h121v-321q0 -60 25 -87.5t78 -27.5q24 0 46.5 8t39 23.5t26.5 39t10 54.5v311h121v-523h-121v82q-20 -38 -61 -65t-105 -27zM159 756h134l59 -155h-89z" />
    <glyph glyph-name="uacute" unicode="&#xfa;" horiz-adv-x="605" 
d="M247 -10q-39 0 -72 11.5t-57 35.5t-37.5 61.5t-13.5 89.5v335h121v-321q0 -60 25 -87.5t78 -27.5q24 0 46.5 8t39 23.5t26.5 39t10 54.5v311h121v-523h-121v82q-20 -38 -61 -65t-105 -27zM311 756h134l-104 -155h-89z" />
    <glyph glyph-name="ucircumflex" unicode="&#xfb;" horiz-adv-x="605" 
d="M247 -10q-39 0 -72 11.5t-57 35.5t-37.5 61.5t-13.5 89.5v335h121v-321q0 -60 25 -87.5t78 -27.5q24 0 46.5 8t39 23.5t26.5 39t10 54.5v311h121v-523h-121v82q-20 -38 -61 -65t-105 -27zM255 753h96l111 -151h-86l-75 68l-76 -68h-84z" />
    <glyph glyph-name="udieresis" unicode="&#xfc;" horiz-adv-x="605" 
d="M247 -10q-39 0 -72 11.5t-57 35.5t-37.5 61.5t-13.5 89.5v335h121v-321q0 -60 25 -87.5t78 -27.5q24 0 46.5 8t39 23.5t26.5 39t10 54.5v311h121v-523h-121v82q-20 -38 -61 -65t-105 -27zM203 613q-27 0 -46.5 19t-19.5 46q0 26 19.5 45.5t46.5 19.5t46.5 -19.5
t19.5 -45.5q0 -27 -19.5 -46t-46.5 -19zM401 613q-28 0 -47 19t-19 46q0 26 19 45.5t47 19.5q27 0 46.5 -19.5t19.5 -45.5q0 -27 -19.5 -46t-46.5 -19z" />
    <glyph glyph-name="yacute" unicode="&#xfd;" horiz-adv-x="553" 
d="M225 53l-207 470h131l139 -337l128 337h118l-285 -702h-119zM294 756h134l-104 -155h-89z" />
    <glyph glyph-name="thorn" unicode="&#xfe;" horiz-adv-x="633" 
d="M72 765h121v-326q11 19 28 36t39.5 30t48.5 21t55 8q49 0 91.5 -18t73.5 -52t49 -83.5t18 -112.5v-8q0 -63 -17.5 -113t-48 -85t-73 -53.5t-93.5 -18.5q-63 0 -106.5 27t-64.5 65v-261h-121v944zM334 86q67 0 102.5 43.5t35.5 128.5v8q0 43 -10.5 75.5t-29.5 54.5
t-44 32.5t-55 10.5q-63 0 -103.5 -42.5t-40.5 -130.5v-8q0 -88 39.5 -130t105.5 -42z" />
    <glyph glyph-name="ydieresis" unicode="&#xff;" horiz-adv-x="553" 
d="M225 53l-207 470h131l139 -337l128 337h118l-285 -702h-119zM186 613q-27 0 -46.5 19t-19.5 46q0 26 19.5 45.5t46.5 19.5t46.5 -19.5t19.5 -45.5q0 -27 -19.5 -46t-46.5 -19zM384 613q-28 0 -47 19t-19 46q0 26 19 45.5t47 19.5q27 0 46.5 -19.5t19.5 -45.5
q0 -27 -19.5 -46t-46.5 -19z" />
    <glyph glyph-name="Amacron" unicode="&#x100;" horiz-adv-x="703" 
d="M266 715h174l236 -715h-138l-57 177h-273l-56 -177h-125zM239 274h211l-105 332zM206 861h288v-81h-288v81z" />
    <glyph glyph-name="amacron" unicode="&#x101;" horiz-adv-x="555" 
d="M209 -10q-36 0 -68 9t-55.5 27.5t-37.5 48t-14 70.5q0 46 21 77.5t57 51t85 28.5t105 9h65v27q0 53 -20.5 79t-74.5 26q-48 0 -71.5 -21.5t-28.5 -60.5h-117q4 46 23 78.5t49 53.5t69 31t83 10t82 -9.5t66.5 -32t44.5 -59t16 -90.5v-343h-119v64q-26 -34 -63 -54t-97 -20
zM238 77q56 0 92.5 27.5t36.5 78.5v52h-62q-69 0 -110 -18.5t-41 -66.5q0 -33 19.5 -53t64.5 -20zM139 712h280v-78h-280v78z" />
    <glyph glyph-name="Abreve" unicode="&#x102;" horiz-adv-x="703" 
d="M266 715h174l236 -715h-138l-57 177h-273l-56 -177h-125zM239 274h211l-105 332zM349 761q-63 0 -102.5 38.5t-42.5 101.5h85q4 -26 18.5 -41t41.5 -15t42.5 15t20.5 41h84q-2 -31 -14 -57t-31.5 -44.5t-45.5 -28.5t-56 -10z" />
    <glyph glyph-name="abreve" unicode="&#x103;" horiz-adv-x="555" 
d="M209 -10q-36 0 -68 9t-55.5 27.5t-37.5 48t-14 70.5q0 46 21 77.5t57 51t85 28.5t105 9h65v27q0 53 -20.5 79t-74.5 26q-48 0 -71.5 -21.5t-28.5 -60.5h-117q4 46 23 78.5t49 53.5t69 31t83 10t82 -9.5t66.5 -32t44.5 -59t16 -90.5v-343h-119v64q-26 -34 -63 -54t-97 -20
zM238 77q56 0 92.5 27.5t36.5 78.5v52h-62q-69 0 -110 -18.5t-41 -66.5q0 -33 19.5 -53t64.5 -20zM278 606q-62 0 -101.5 39t-43.5 104h84q4 -27 18.5 -42.5t42.5 -15.5t44 15.5t21 42.5h82q-2 -32 -14 -58.5t-31.5 -45.5t-45.5 -29t-56 -10z" />
    <glyph glyph-name="Aogonek" unicode="&#x104;" horiz-adv-x="703" 
d="M605 -182q-51 0 -81.5 21.5t-30.5 59.5q0 34 24.5 59.5t56.5 41.5h-36l-57 177h-273l-56 -177h-125l239 715h174l233 -708q-71 -41 -71 -83q0 -32 35 -32q25 0 43 9v-69q-13 -6 -31 -10t-44 -4zM239 274h211l-105 332z" />
    <glyph glyph-name="aogonek" unicode="&#x105;" horiz-adv-x="555" 
d="M421 -182q-49 0 -79 21t-30 59q0 35 25 60.5t57 41.5h-25v64q-26 -34 -63 -54t-97 -20q-36 0 -68 9t-55.5 27.5t-37.5 48t-14 70.5q0 46 21 77.5t57 51t85 28.5t105 9h65v27q0 53 -20.5 79t-74.5 26q-48 0 -71.5 -21.5t-28.5 -60.5h-117q4 46 23 78.5t49 53.5t69 31
t83 10t82 -9.5t66.5 -32t44.5 -59t16 -90.5v-336q-37 -23 -53.5 -43t-16.5 -41q0 -33 35 -33q23 0 43 9v-67q-13 -6 -31 -10t-44 -4zM238 77q56 0 92.5 27.5t36.5 78.5v52h-62q-69 0 -110 -18.5t-41 -66.5q0 -33 19.5 -53t64.5 -20z" />
    <glyph glyph-name="Cacute" unicode="&#x106;" horiz-adv-x="741" 
d="M395 -10q-84 0 -149 26t-109.5 73t-67.5 114t-23 150v8q0 81 26 148t72.5 115t110 75t138.5 27q61 0 114.5 -15.5t94.5 -46.5t66.5 -78t31.5 -110h-135q-11 72 -52 108t-119 36q-47 0 -85.5 -18t-65.5 -51t-42 -81t-15 -108v-8q0 -121 54.5 -188.5t154.5 -67.5
q75 0 123.5 37.5t59.5 113.5h130q-8 -65 -34 -113.5t-66.5 -80.5t-94.5 -48.5t-118 -16.5zM396 901h136l-99 -135h-91z" />
    <glyph glyph-name="cacute" unicode="&#x107;" horiz-adv-x="575" 
d="M301 -10q-56 0 -104.5 18t-84 52t-55.5 83t-20 112v8q0 62 20.5 112t56.5 85.5t84 54.5t103 19q43 0 84 -10.5t73.5 -33.5t54.5 -60.5t27 -91.5h-117q-8 53 -40 76t-80 23q-31 0 -57 -11.5t-45 -34t-29.5 -54.5t-10.5 -72v-8q0 -86 39 -130t106 -44q24 0 45.5 7t38.5 21
t28 35t14 49h111q-3 -45 -21.5 -82.5t-49.5 -65t-74.5 -42.5t-96.5 -15zM307 756h134l-104 -155h-89z" />
    <glyph glyph-name="Ccircumflex" unicode="&#x108;" horiz-adv-x="741" 
d="M395 -10q-84 0 -149 26t-109.5 73t-67.5 114t-23 150v8q0 81 26 148t72.5 115t110 75t138.5 27q61 0 114.5 -15.5t94.5 -46.5t66.5 -78t31.5 -110h-135q-11 72 -52 108t-119 36q-47 0 -85.5 -18t-65.5 -51t-42 -81t-15 -108v-8q0 -121 54.5 -188.5t154.5 -67.5
q75 0 123.5 37.5t59.5 113.5h130q-8 -65 -34 -113.5t-66.5 -80.5t-94.5 -48.5t-118 -16.5zM343 901h104l108 -135h-88l-74 55l-75 -55h-86z" />
    <glyph glyph-name="ccircumflex" unicode="&#x109;" horiz-adv-x="575" 
d="M301 -10q-56 0 -104.5 18t-84 52t-55.5 83t-20 112v8q0 62 20.5 112t56.5 85.5t84 54.5t103 19q43 0 84 -10.5t73.5 -33.5t54.5 -60.5t27 -91.5h-117q-8 53 -40 76t-80 23q-31 0 -57 -11.5t-45 -34t-29.5 -54.5t-10.5 -72v-8q0 -86 39 -130t106 -44q24 0 45.5 7t38.5 21
t28 35t14 49h111q-3 -45 -21.5 -82.5t-49.5 -65t-74.5 -42.5t-96.5 -15zM251 753h96l111 -151h-86l-75 68l-76 -68h-84z" />
    <glyph glyph-name="Cdotaccent" unicode="&#x10a;" horiz-adv-x="741" 
d="M395 -10q-84 0 -149 26t-109.5 73t-67.5 114t-23 150v8q0 81 26 148t72.5 115t110 75t138.5 27q61 0 114.5 -15.5t94.5 -46.5t66.5 -78t31.5 -110h-135q-11 72 -52 108t-119 36q-47 0 -85.5 -18t-65.5 -51t-42 -81t-15 -108v-8q0 -121 54.5 -188.5t154.5 -67.5
q75 0 123.5 37.5t59.5 113.5h130q-8 -65 -34 -113.5t-66.5 -80.5t-94.5 -48.5t-118 -16.5zM391 775q-30 0 -50.5 20t-20.5 49t20.5 48.5t50.5 19.5q29 0 50 -19.5t21 -48.5t-21 -49t-50 -20z" />
    <glyph glyph-name="cdotaccent" unicode="&#x10b;" horiz-adv-x="575" 
d="M301 -10q-56 0 -104.5 18t-84 52t-55.5 83t-20 112v8q0 62 20.5 112t56.5 85.5t84 54.5t103 19q43 0 84 -10.5t73.5 -33.5t54.5 -60.5t27 -91.5h-117q-8 53 -40 76t-80 23q-31 0 -57 -11.5t-45 -34t-29.5 -54.5t-10.5 -72v-8q0 -86 39 -130t106 -44q24 0 45.5 7t38.5 21
t28 35t14 49h111q-3 -45 -21.5 -82.5t-49.5 -65t-74.5 -42.5t-96.5 -15zM299 611q-30 0 -50.5 20t-20.5 49t20.5 48.5t50.5 19.5q29 0 50 -19.5t21 -48.5t-21 -49t-50 -20z" />
    <glyph glyph-name="Ccaron" unicode="&#x10c;" horiz-adv-x="741" 
d="M395 -10q-84 0 -149 26t-109.5 73t-67.5 114t-23 150v8q0 81 26 148t72.5 115t110 75t138.5 27q61 0 114.5 -15.5t94.5 -46.5t66.5 -78t31.5 -110h-135q-11 72 -52 108t-119 36q-47 0 -85.5 -18t-65.5 -51t-42 -81t-15 -108v-8q0 -121 54.5 -188.5t154.5 -67.5
q75 0 123.5 37.5t59.5 113.5h130q-8 -65 -34 -113.5t-66.5 -80.5t-94.5 -48.5t-118 -16.5zM232 901h88l75 -55l74 55h86l-110 -135h-105z" />
    <glyph glyph-name="ccaron" unicode="&#x10d;" horiz-adv-x="575" 
d="M301 -10q-56 0 -104.5 18t-84 52t-55.5 83t-20 112v8q0 62 20.5 112t56.5 85.5t84 54.5t103 19q43 0 84 -10.5t73.5 -33.5t54.5 -60.5t27 -91.5h-117q-8 53 -40 76t-80 23q-31 0 -57 -11.5t-45 -34t-29.5 -54.5t-10.5 -72v-8q0 -86 39 -130t106 -44q24 0 45.5 7t38.5 21
t28 35t14 49h111q-3 -45 -21.5 -82.5t-49.5 -65t-74.5 -42.5t-96.5 -15zM137 753h87l75 -67l75 67h84l-113 -151h-96z" />
    <glyph glyph-name="Dcaron" unicode="&#x10e;" horiz-adv-x="714" 
d="M293 105q121 0 179 65.5t58 184.5v8q0 58 -13.5 103.5t-42.5 77.5t-74 49t-108 17h-77v-505h78zM82 715h217q93 0 162.5 -25.5t115.5 -71.5t69 -110.5t23 -142.5v-9q0 -78 -23 -143.5t-69 -112.5t-116 -73.5t-164 -26.5h-215v715zM162 901h88l75 -55l74 55h86l-110 -135
h-105z" />
    <glyph glyph-name="dcaron" unicode="&#x10f;" horiz-adv-x="633" 
d="M268 -10q-49 0 -91 17t-73 50.5t-48.5 82.5t-17.5 113v8q0 63 17.5 113.5t49 86t74.5 54.5t94 19q64 0 104.5 -26t62.5 -65v322h121v-765h-121v88q-11 -20 -28 -37.5t-39.5 -31t-49 -21.5t-55.5 -8zM298 86q63 0 104.5 42.5t41.5 130.5v8q0 87 -37.5 129.5t-103.5 42.5
q-67 0 -104 -45t-37 -130v-8q0 -86 38.5 -128t97.5 -42zM615 765h110l-49 -175h-71z" />
    <glyph glyph-name="Dcroat" unicode="&#x110;" horiz-adv-x="739" 
d="M32 406h69v309h217q93 0 162.5 -25.5t115.5 -71.5t69 -110.5t23 -142.5v-9q0 -78 -22.5 -143.5t-68.5 -112.5t-116 -73.5t-164 -26.5h-216v311h-69v95zM313 105q121 0 178.5 65.5t57.5 184.5v8q0 58 -13.5 103.5t-42 77.5t-73.5 49t-108 17h-79v-204h173v-95h-173v-206
h80z" />
    <glyph glyph-name="dcroat" unicode="&#x111;" horiz-adv-x="633" 
d="M271 679h169v86h121v-86h68v-75h-68v-604h-121v88q-11 -20 -28 -37.5t-39.5 -31t-49 -21.5t-55.5 -8q-49 0 -91 17t-73 50.5t-48.5 82.5t-17.5 113v8q0 63 17.5 113.5t49 86t74.5 54.5t94 19q64 0 104.5 -26t62.5 -65v161h-169v75zM298 86q63 0 104.5 42.5t41.5 130.5v8
q0 87 -37.5 129.5t-103.5 42.5q-67 0 -104 -45t-37 -130v-8q0 -86 38.5 -128t97.5 -42z" />
    <glyph glyph-name="Emacron" unicode="&#x112;" horiz-adv-x="584" 
d="M82 715h447v-105h-314v-196h252v-100h-252v-209h331v-105h-464v715zM169 861h288v-81h-288v81z" />
    <glyph glyph-name="emacron" unicode="&#x113;" horiz-adv-x="580" 
d="M302 -10q-58 0 -106.5 18.5t-84 53t-55 83.5t-19.5 111v8q0 61 19.5 110.5t54.5 85t82.5 55t103.5 19.5q49 0 93.5 -15t78.5 -47t54.5 -82t20.5 -120v-35h-383q3 -75 39.5 -115t104.5 -40q55 0 84 21t36 59h117q-13 -83 -76 -126.5t-164 -43.5zM424 316q-5 68 -37.5 99
t-89.5 31q-55 0 -90 -34.5t-44 -95.5h261zM155 712h280v-78h-280v78z" />
    <glyph glyph-name="Ebreve" unicode="&#x114;" horiz-adv-x="584" 
d="M82 715h447v-105h-314v-196h252v-100h-252v-209h331v-105h-464v715zM316 761q-63 0 -102.5 38.5t-42.5 101.5h85q4 -26 18.5 -41t41.5 -15t42.5 15t20.5 41h84q-2 -31 -14 -57t-31.5 -44.5t-45.5 -28.5t-56 -10z" />
    <glyph glyph-name="ebreve" unicode="&#x115;" horiz-adv-x="580" 
d="M302 -10q-58 0 -106.5 18.5t-84 53t-55 83.5t-19.5 111v8q0 61 19.5 110.5t54.5 85t82.5 55t103.5 19.5q49 0 93.5 -15t78.5 -47t54.5 -82t20.5 -120v-35h-383q3 -75 39.5 -115t104.5 -40q55 0 84 21t36 59h117q-13 -83 -76 -126.5t-164 -43.5zM424 316q-5 68 -37.5 99
t-89.5 31q-55 0 -90 -34.5t-44 -95.5h261zM287 606q-62 0 -101.5 39t-43.5 104h84q4 -27 18.5 -42.5t42.5 -15.5t44 15.5t21 42.5h82q-2 -32 -14 -58.5t-31.5 -45.5t-45.5 -29t-56 -10z" />
    <glyph glyph-name="Edotaccent" unicode="&#x116;" horiz-adv-x="584" 
d="M82 715h447v-105h-314v-196h252v-100h-252v-209h331v-105h-464v715zM313 775q-30 0 -50.5 20t-20.5 49t20.5 48.5t50.5 19.5q29 0 50 -19.5t21 -48.5t-21 -49t-50 -20z" />
    <glyph glyph-name="edotaccent" unicode="&#x117;" horiz-adv-x="580" 
d="M302 -10q-58 0 -106.5 18.5t-84 53t-55 83.5t-19.5 111v8q0 61 19.5 110.5t54.5 85t82.5 55t103.5 19.5q49 0 93.5 -15t78.5 -47t54.5 -82t20.5 -120v-35h-383q3 -75 39.5 -115t104.5 -40q55 0 84 21t36 59h117q-13 -83 -76 -126.5t-164 -43.5zM424 316q-5 68 -37.5 99
t-89.5 31q-55 0 -90 -34.5t-44 -95.5h261zM295 611q-30 0 -50.5 20t-20.5 49t20.5 48.5t50.5 19.5q29 0 50 -19.5t21 -48.5t-21 -49t-50 -20z" />
    <glyph glyph-name="Eogonek" unicode="&#x118;" horiz-adv-x="584" 
d="M459 -182q-51 0 -81 21.5t-30 59.5q0 34 24.5 59.5t56.5 41.5h-347v715h447v-105h-314v-196h252v-100h-252v-209h331v-105h-32q-29 -20 -43 -38t-14 -38q0 -32 35 -32q23 0 43 9v-69q-13 -6 -31.5 -10t-44.5 -4z" />
    <glyph glyph-name="eogonek" unicode="&#x119;" horiz-adv-x="580" 
d="M395 -182q-50 0 -80 21t-30 59q0 30 22.5 54.5t51.5 41.5q-13 -2 -28 -3t-29 -1q-58 0 -106.5 18.5t-84 53t-55 83.5t-19.5 111v8q0 61 19.5 110.5t54.5 85t82.5 55t103.5 19.5q49 0 93.5 -15t78.5 -47t54.5 -82t20.5 -120v-35h-383q3 -75 39.5 -115t104.5 -40
q55 0 84 21t36 59h117q-5 -29 -14.5 -50.5t-21.5 -38t-24.5 -28.5t-22.5 -21q-31 -28 -50 -52t-19 -47q0 -33 35 -33q24 0 44 9v-67q-14 -6 -31 -10t-43 -4zM424 316q-5 68 -37.5 99t-89.5 31q-55 0 -90 -34.5t-44 -95.5h261z" />
    <glyph glyph-name="Ecaron" unicode="&#x11a;" horiz-adv-x="584" 
d="M82 715h447v-105h-314v-196h252v-100h-252v-209h331v-105h-464v715zM153 901h88l75 -55l74 55h86l-110 -135h-105z" />
    <glyph glyph-name="ecaron" unicode="&#x11b;" horiz-adv-x="580" 
d="M302 -10q-58 0 -106.5 18.5t-84 53t-55 83.5t-19.5 111v8q0 61 19.5 110.5t54.5 85t82.5 55t103.5 19.5q49 0 93.5 -15t78.5 -47t54.5 -82t20.5 -120v-35h-383q3 -75 39.5 -115t104.5 -40q55 0 84 21t36 59h117q-13 -83 -76 -126.5t-164 -43.5zM424 316q-5 68 -37.5 99
t-89.5 31q-55 0 -90 -34.5t-44 -95.5h261zM134 753h87l75 -67l75 67h84l-113 -151h-96z" />
    <glyph glyph-name="Gcircumflex" unicode="&#x11c;" horiz-adv-x="775" 
d="M403 -10q-86 0 -152.5 27t-112 75.5t-69 115t-23.5 145.5v8q0 80 26.5 147t73.5 115.5t113 75.5t144 27q57 0 110 -13.5t94.5 -43t69 -75t34.5 -109.5h-133q-12 72 -57.5 104t-115.5 32q-53 0 -94 -18.5t-69 -53t-43 -82.5t-15 -107v-8q0 -57 13.5 -104.5t41 -81.5
t69 -53t97.5 -19q50 0 86 14t59 38.5t34.5 57.5t13.5 70h-180v100h311v-66q0 -74 -22.5 -133t-64.5 -100t-102.5 -63t-136.5 -22zM347 901h104l108 -135h-88l-74 55l-75 -55h-86z" />
    <glyph glyph-name="gcircumflex" unicode="&#x11d;" horiz-adv-x="633" 
d="M295 -192q-62 0 -107 13t-75.5 36.5t-47.5 55t-22 69.5h122q8 -39 38.5 -60.5t90.5 -21.5q71 0 108.5 35t37.5 106v77q-11 -19 -28 -36.5t-39.5 -31t-48.5 -21.5t-55 -8q-49 0 -91.5 17.5t-73.5 50t-49 78.5t-18 103v7q0 55 17.5 102t49 81.5t74.5 54t94 19.5
q65 0 105 -26t63 -65v80h121v-484q-1 -116 -72.5 -173.5t-193.5 -57.5zM299 114q63 0 104 42.5t41 117.5v7q0 75 -37.5 116.5t-103.5 41.5q-68 0 -105 -44t-37 -116v-8q0 -36 10.5 -65.5t29 -49.5t44 -31t54.5 -11zM251 753h96l111 -151h-86l-75 68l-76 -68h-84z" />
    <glyph glyph-name="Gbreve" unicode="&#x11e;" horiz-adv-x="775" 
d="M403 -10q-86 0 -152.5 27t-112 75.5t-69 115t-23.5 145.5v8q0 80 26.5 147t73.5 115.5t113 75.5t144 27q57 0 110 -13.5t94.5 -43t69 -75t34.5 -109.5h-133q-12 72 -57.5 104t-115.5 32q-53 0 -94 -18.5t-69 -53t-43 -82.5t-15 -107v-8q0 -57 13.5 -104.5t41 -81.5
t69 -53t97.5 -19q50 0 86 14t59 38.5t34.5 57.5t13.5 70h-180v100h311v-66q0 -74 -22.5 -133t-64.5 -100t-102.5 -63t-136.5 -22zM397 761q-63 0 -102.5 38.5t-42.5 101.5h85q4 -26 18.5 -41t41.5 -15t42.5 15t20.5 41h84q-2 -31 -14 -57t-31.5 -44.5t-45.5 -28.5t-56 -10z
" />
    <glyph glyph-name="gbreve" unicode="&#x11f;" horiz-adv-x="633" 
d="M295 -192q-62 0 -107 13t-75.5 36.5t-47.5 55t-22 69.5h122q8 -39 38.5 -60.5t90.5 -21.5q71 0 108.5 35t37.5 106v77q-11 -19 -28 -36.5t-39.5 -31t-48.5 -21.5t-55 -8q-49 0 -91.5 17.5t-73.5 50t-49 78.5t-18 103v7q0 55 17.5 102t49 81.5t74.5 54t94 19.5
q65 0 105 -26t63 -65v80h121v-484q-1 -116 -72.5 -173.5t-193.5 -57.5zM299 114q63 0 104 42.5t41 117.5v7q0 75 -37.5 116.5t-103.5 41.5q-68 0 -105 -44t-37 -116v-8q0 -36 10.5 -65.5t29 -49.5t44 -31t54.5 -11zM297 606q-62 0 -101.5 39t-43.5 104h84q4 -27 18.5 -42.5
t42.5 -15.5t44 15.5t21 42.5h82q-2 -32 -14 -58.5t-31.5 -45.5t-45.5 -29t-56 -10z" />
    <glyph glyph-name="Gdotaccent" unicode="&#x120;" horiz-adv-x="775" 
d="M403 -10q-86 0 -152.5 27t-112 75.5t-69 115t-23.5 145.5v8q0 80 26.5 147t73.5 115.5t113 75.5t144 27q57 0 110 -13.5t94.5 -43t69 -75t34.5 -109.5h-133q-12 72 -57.5 104t-115.5 32q-53 0 -94 -18.5t-69 -53t-43 -82.5t-15 -107v-8q0 -57 13.5 -104.5t41 -81.5
t69 -53t97.5 -19q50 0 86 14t59 38.5t34.5 57.5t13.5 70h-180v100h311v-66q0 -74 -22.5 -133t-64.5 -100t-102.5 -63t-136.5 -22zM398 775q-30 0 -50.5 20t-20.5 49t20.5 48.5t50.5 19.5q29 0 50 -19.5t21 -48.5t-21 -49t-50 -20z" />
    <glyph glyph-name="gdotaccent" unicode="&#x121;" horiz-adv-x="633" 
d="M295 -192q-62 0 -107 13t-75.5 36.5t-47.5 55t-22 69.5h122q8 -39 38.5 -60.5t90.5 -21.5q71 0 108.5 35t37.5 106v77q-11 -19 -28 -36.5t-39.5 -31t-48.5 -21.5t-55 -8q-49 0 -91.5 17.5t-73.5 50t-49 78.5t-18 103v7q0 55 17.5 102t49 81.5t74.5 54t94 19.5
q65 0 105 -26t63 -65v80h121v-484q-1 -116 -72.5 -173.5t-193.5 -57.5zM299 114q63 0 104 42.5t41 117.5v7q0 75 -37.5 116.5t-103.5 41.5q-68 0 -105 -44t-37 -116v-8q0 -36 10.5 -65.5t29 -49.5t44 -31t54.5 -11zM298 611q-30 0 -50.5 20t-20.5 49t20.5 48.5t50.5 19.5
q29 0 50 -19.5t21 -48.5t-21 -49t-50 -20z" />
    <glyph glyph-name="uni0122" unicode="&#x122;" horiz-adv-x="779" 
d="M403 -10q-86 0 -152.5 27t-112 75.5t-69 115t-23.5 145.5v8q0 80 26.5 147t73.5 115.5t113 75.5t144 27q57 0 110 -13.5t94.5 -43t69 -75t34.5 -109.5h-133q-12 72 -57.5 104t-115.5 32q-53 0 -94 -18.5t-69 -53t-43 -82.5t-15 -107v-8q0 -57 13.5 -104.5t41 -81.5
t69 -53t97.5 -19q50 0 86 14t59 38.5t34.5 57.5t13.5 70h-180v100h311v-66q0 -74 -22.5 -133t-64.5 -100t-102.5 -63t-136.5 -22zM301 -198l52 165l111 -22l-92 -170z" />
    <glyph glyph-name="uni0123" unicode="&#x123;" horiz-adv-x="637" 
d="M295 -192q-62 0 -107 13t-75.5 36.5t-47.5 55t-22 69.5h122q8 -39 38.5 -60.5t90.5 -21.5q71 0 108.5 35t37.5 106v77q-11 -19 -28 -36.5t-39.5 -31t-48.5 -21.5t-55 -8q-49 0 -91.5 17.5t-73.5 50t-49 78.5t-18 103v7q0 55 17.5 102t49 81.5t74.5 54t94 19.5
q65 0 105 -26t63 -65v80h121v-484q-1 -116 -72.5 -173.5t-193.5 -57.5zM299 114q63 0 104 42.5t41 117.5v7q0 75 -37.5 116.5t-103.5 41.5q-68 0 -105 -44t-37 -116v-8q0 -36 10.5 -65.5t29 -49.5t44 -31t54.5 -11zM244 610l92 169l70 -26l-51 -165z" />
    <glyph glyph-name="Hcircumflex" unicode="&#x124;" horiz-adv-x="751" 
d="M82 715h133v-304h321v304h134v-715h-134v304h-321v-304h-133v715zM324 901h104l108 -135h-88l-74 55l-75 -55h-86z" />
    <glyph glyph-name="hcircumflex" unicode="&#x125;" horiz-adv-x="608" 
d="M72 765h121v-325q19 38 61.5 66t107.5 28q39 0 72 -12t57 -36.5t37 -63.5t13 -93v-329h-121v318q0 60 -25 87.5t-79 27.5q-51 0 -87 -31.5t-36 -93.5v-308h-121v765zM263 941h104l108 -135h-88l-74 55l-75 -55h-86z" />
    <glyph glyph-name="Hbar" unicode="&#x126;" horiz-adv-x="751" 
d="M16 582h66v133h133v-133h321v133h134v-133h66v-78h-66v-504h-134v304h-321v-304h-133v504h-66v78zM536 411v93h-321v-93h321z" />
    <glyph glyph-name="hbar" unicode="&#x127;" horiz-adv-x="608" 
d="M4 679h68v86h121v-86h169v-75h-169v-164q19 38 61.5 66t107.5 28q39 0 72 -12t57 -36.5t37 -63.5t13 -93v-329h-121v318q0 60 -25 87.5t-79 27.5q-51 0 -87 -31.5t-36 -93.5v-308h-121v604h-68v75z" />
    <glyph glyph-name="Itilde" unicode="&#x128;" horiz-adv-x="307" 
d="M86 715h134v-715h-134v715zM213 768q-18 0 -33.5 6t-29.5 13.5t-26 13.5t-23 6q-14 0 -24 -11.5t-13 -28.5h-76q5 63 36 97t73 34q17 0 32.5 -6.5t29.5 -14t26.5 -13.5t24.5 -6q14 0 23.5 11.5t12.5 28.5h77q-6 -63 -37 -96.5t-73 -33.5z" />
    <glyph glyph-name="itilde" unicode="&#x129;" horiz-adv-x="271" 
d="M75 523h121v-523h-121v523zM194 606q-18 0 -33.5 6t-29 13.5t-25.5 14t-23 6.5q-14 0 -24 -11.5t-13 -28.5h-75q6 63 35.5 97t71.5 34q17 0 32.5 -6t29 -13.5t26 -13.5t24.5 -6q14 0 23.5 11t12.5 29h75q-6 -63 -35.5 -97.5t-71.5 -34.5z" />
    <glyph glyph-name="Imacron" unicode="&#x12a;" horiz-adv-x="307" 
d="M86 715h134v-715h-134v715zM9 861h288v-81h-288v81z" />
    <glyph glyph-name="imacron" unicode="&#x12b;" horiz-adv-x="271" 
d="M28 712h214v-78h-214v78zM75 523h121v-523h-121v523z" />
    <glyph glyph-name="Ibreve" unicode="&#x12c;" horiz-adv-x="307" 
d="M86 715h134v-715h-134v715zM154 761q-63 0 -102.5 38.5t-42.5 101.5h85q4 -26 18.5 -41t41.5 -15t42.5 15t20.5 41h84q-2 -31 -14 -57t-31.5 -44.5t-45.5 -28.5t-56 -10z" />
    <glyph glyph-name="ibreve" unicode="&#x12d;" horiz-adv-x="271" 
d="M75 523h121v-523h-121v523zM135 606q-62 0 -101.5 39t-43.5 104h84q4 -27 18.5 -42.5t42.5 -15.5t44 15.5t21 42.5h82q-2 -32 -14 -58.5t-31.5 -45.5t-45.5 -29t-56 -10z" />
    <glyph glyph-name="Iogonek" unicode="&#x12e;" horiz-adv-x="307" 
d="M155 -182q-51 0 -81.5 21.5t-30.5 59.5q0 34 24.5 59.5t56.5 41.5h-38v715h134v-708q-68 -41 -68 -83q0 -32 35 -32q25 0 43 9v-69q-13 -6 -31 -10t-44 -4z" />
    <glyph glyph-name="iogonek" unicode="&#x12f;" horiz-adv-x="271" 
d="M134 -182q-50 0 -79.5 21.5t-29.5 59.5q0 34 24.5 59.5t56.5 41.5h-31v523h121v-518q-35 -23 -50.5 -42.5t-15.5 -39.5q0 -33 35 -33q25 0 43 9v-67q-13 -6 -30.5 -10t-43.5 -4zM134 609q-30 0 -51 20t-21 49q0 30 21 50t51 20t51 -20t21 -50q0 -29 -21 -49t-51 -20z" />
    <glyph glyph-name="Idotaccent" unicode="&#x130;" horiz-adv-x="307" 
d="M86 715h134v-715h-134v715zM154 775q-30 0 -50.5 20t-20.5 49t20.5 48.5t50.5 19.5q29 0 50 -19.5t21 -48.5t-21 -49t-50 -20z" />
    <glyph glyph-name="dotlessi" unicode="&#x131;" horiz-adv-x="271" 
d="M75 523h121v-523h-121v523z" />
    <glyph glyph-name="IJ" unicode="&#x132;" horiz-adv-x="715" 
d="M86 715h134v-715h-134v715zM419 -9q-45 0 -70 6t-42 15v104q19 -8 39.5 -13t52.5 -5q49 0 78 28t29 94v495h134v-498q0 -58 -16 -100.5t-45 -70.5t-70 -41.5t-90 -13.5z" />
    <glyph glyph-name="ij" unicode="&#x133;" horiz-adv-x="271" 
d="M75 523h121v-523h-121v523zM134 609q-30 0 -51 20t-21 49q0 30 21 50t51 20t51 -20t21 -50q0 -29 -21 -49t-51 -20zM274 -95q40 3 56 22t16 52v544h121v-541q0 -40 -10 -71t-32.5 -53t-59.5 -33.5t-91 -12.5v93zM405 609q-30 0 -51 20t-21 49q0 30 21 50t51 20t51 -20
t21 -50q0 -29 -21 -49t-51 -20z" />
    <glyph glyph-name="Jcircumflex" unicode="&#x134;" horiz-adv-x="443" 
d="M148 -9q-45 0 -70 6t-42 15v104q19 -8 39.5 -13t52.5 -5q49 0 78 28t29 94v495h134v-498q0 -58 -16 -100.5t-45 -70.5t-70 -41.5t-90 -13.5zM248 901h104l108 -135h-88l-74 55l-75 -55h-86z" />
    <glyph glyph-name="jcircumflex" unicode="&#x135;" horiz-adv-x="271" 
d="M3 -95q40 3 56 22t16 52v544h121v-541q0 -40 -10 -71t-32.5 -53t-59.5 -33.5t-91 -12.5v93zM88 753h96l111 -151h-86l-75 68l-76 -68h-84z" />
    <glyph glyph-name="uni0136" unicode="&#x136;" horiz-adv-x="663" 
d="M82 715h133v-324l274 324h143l-296 -341l311 -374h-157l-275 334v-334h-133v715zM245 -198l52 165l111 -22l-92 -170z" />
    <glyph glyph-name="uni0137" unicode="&#x137;" horiz-adv-x="544" 
d="M72 765h121v-472l187 230h132l-203 -240l220 -283h-140l-196 257v-257h-121v765zM185 -198l52 165l111 -22l-92 -170z" />
    <glyph glyph-name="Lacute" unicode="&#x139;" horiz-adv-x="551" 
d="M82 715h133v-609h305v-106h-438v715zM153 901h136l-99 -135h-91z" />
    <glyph glyph-name="lacute" unicode="&#x13a;" horiz-adv-x="271" 
d="M75 765h121v-765h-121v765zM140 941h136l-99 -135h-91z" />
    <glyph glyph-name="uni013B" unicode="&#x13b;" horiz-adv-x="555" 
d="M82 715h133v-609h305v-106h-438v715zM203 -198l52 165l111 -22l-92 -170z" />
    <glyph glyph-name="uni013C" unicode="&#x13c;" horiz-adv-x="275" 
d="M75 765h121v-765h-121v765zM39 -198l52 165l111 -22l-92 -170z" />
    <glyph glyph-name="Lcaron" unicode="&#x13d;" horiz-adv-x="551" 
d="M333 715h115l-59 -165h-76zM82 715h133v-609h305v-106h-438v715z" />
    <glyph glyph-name="lcaron" unicode="&#x13e;" horiz-adv-x="271" 
d="M75 765h121v-765h-121v765zM250 765h110l-49 -175h-71z" />
    <glyph glyph-name="Ldot" unicode="&#x13f;" horiz-adv-x="561" 
d="M82 715h133v-609h305v-106h-438v715zM429 312q-33 0 -56 23t-23 56t23 55.5t56 22.5q34 0 57 -22.5t23 -55.5t-23 -56t-57 -23z" />
    <glyph glyph-name="ldot" unicode="&#x140;" horiz-adv-x="378" 
d="M75 765h121v-765h-121v765zM322 285q-33 0 -56 23t-23 56t23 55.5t56 22.5q34 0 57 -22.5t23 -55.5t-23 -56t-57 -23z" />
    <glyph glyph-name="Lslash" unicode="&#x141;" horiz-adv-x="570" 
d="M35 326l66 23v366h134v-318l191 69v-84l-191 -69v-207h305v-106h-439v265l-66 -23v84z" />
    <glyph glyph-name="lslash" unicode="&#x142;" horiz-adv-x="299" 
d="M19 379l70 37v349h121v-285l74 40v-88l-74 -40v-392h-121v328l-70 -37v88z" />
    <glyph glyph-name="Nacute" unicode="&#x143;" horiz-adv-x="745" 
d="M82 715h159l301 -517v517h121v-715h-138l-322 548v-548h-121v715zM387 901h136l-99 -135h-91z" />
    <glyph glyph-name="nacute" unicode="&#x144;" horiz-adv-x="608" 
d="M72 523h121v-83q19 38 61.5 66t107.5 28q39 0 72 -12t57 -36.5t37 -63.5t13 -93v-329h-121v318q0 60 -25 87.5t-79 27.5q-51 0 -87 -31.5t-36 -93.5v-308h-121v523zM312 756h134l-104 -155h-89z" />
    <glyph glyph-name="uni0145" unicode="&#x145;" horiz-adv-x="749" 
d="M82 715h159l301 -517v517h121v-715h-138l-322 548v-548h-121v715zM266 -198l52 165l111 -22l-92 -170z" />
    <glyph glyph-name="uni0146" unicode="&#x146;" horiz-adv-x="612" 
d="M72 523h121v-83q19 38 61.5 66t107.5 28q39 0 72 -12t57 -36.5t37 -63.5t13 -93v-329h-121v318q0 60 -25 87.5t-79 27.5q-51 0 -87 -31.5t-36 -93.5v-308h-121v523zM206 -198l52 165l111 -22l-92 -170z" />
    <glyph glyph-name="Ncaron" unicode="&#x147;" horiz-adv-x="745" 
d="M82 715h159l301 -517v517h121v-715h-138l-322 548v-548h-121v715zM223 901h88l75 -55l74 55h86l-110 -135h-105z" />
    <glyph glyph-name="ncaron" unicode="&#x148;" horiz-adv-x="608" 
d="M72 523h121v-83q19 38 61.5 66t107.5 28q39 0 72 -12t57 -36.5t37 -63.5t13 -93v-329h-121v318q0 60 -25 87.5t-79 27.5q-51 0 -87 -31.5t-36 -93.5v-308h-121v523zM142 753h87l75 -67l75 67h84l-113 -151h-96z" />
    <glyph glyph-name="napostrophe" unicode="&#x149;" horiz-adv-x="655" 
d="M118 523h121v-83q19 38 61.5 66t107.5 28q39 0 72 -12t57 -36.5t37 -63.5t13 -93v-329h-121v318q0 60 -25 87.5t-79 27.5q-51 0 -87 -31.5t-36 -93.5v-308h-121v523zM-39 496l86 231l109 -43l-124 -220z" />
    <glyph glyph-name="Eng" unicode="&#x14a;" horiz-adv-x="745" 
d="M448 -193q-43 0 -67.5 6.5t-41.5 14.5v101q19 -8 38.5 -13t49.5 -5q45 0 73 23t31 72l-326 549v-555h-123v715h161l297 -507v507h123v-700q0 -52 -15.5 -91t-43.5 -65t-68 -39t-88 -13z" />
    <glyph glyph-name="eng" unicode="&#x14b;" horiz-adv-x="608" 
d="M349 -95q40 3 55.5 22t15.5 52v339q0 60 -25 87.5t-79 27.5q-51 0 -87 -31.5t-36 -93.5v-308h-121v523h121v-83q19 38 61.5 66t107.5 28q39 0 72 -12t57 -36.5t37 -63.5t13 -93v-347q0 -40 -10 -71t-32.5 -53t-59 -33.5t-90.5 -12.5v93z" />
    <glyph glyph-name="Omacron" unicode="&#x14c;" horiz-adv-x="814" 
d="M410 97q51 0 91.5 18.5t69 52.5t44 81.5t15.5 105.5v8q0 55 -15 102t-43.5 81t-70 53.5t-93.5 19.5q-53 0 -94 -18.5t-70 -52.5t-44 -81t-15 -105v-8q0 -59 17 -106t47 -81t71 -52t90 -18zM408 -10q-82 0 -149 27.5t-114 76.5t-73 115.5t-26 143.5v8q0 78 26.5 145
t74.5 115.5t114.5 76t146.5 27.5t146 -27t113.5 -75t74 -114t26.5 -145v-8q0 -78 -25.5 -145t-73 -116t-114 -77t-147.5 -28zM262 861h288v-81h-288v81z" />
    <glyph glyph-name="omacron" unicode="&#x14d;" horiz-adv-x="611" 
d="M306 84q68 0 106 46.5t38 127.5v7q0 81 -38 127.5t-106 46.5t-106.5 -46t-38.5 -127v-8q0 -81 38 -127.5t107 -46.5zM305 -10q-58 0 -107 19t-85 54t-56 84t-20 109v8q0 61 20.5 110.5t56.5 85t85 55t107 19.5q57 0 106 -19t85 -54.5t56.5 -84.5t20.5 -109v-8
q0 -61 -20.5 -110.5t-56.5 -85t-85 -54.5t-107 -19zM165 712h280v-78h-280v78z" />
    <glyph glyph-name="Obreve" unicode="&#x14e;" horiz-adv-x="814" 
d="M410 97q51 0 91.5 18.5t69 52.5t44 81.5t15.5 105.5v8q0 55 -15 102t-43.5 81t-70 53.5t-93.5 19.5q-53 0 -94 -18.5t-70 -52.5t-44 -81t-15 -105v-8q0 -59 17 -106t47 -81t71 -52t90 -18zM408 -10q-82 0 -149 27.5t-114 76.5t-73 115.5t-26 143.5v8q0 78 26.5 145
t74.5 115.5t114.5 76t146.5 27.5t146 -27t113.5 -75t74 -114t26.5 -145v-8q0 -78 -25.5 -145t-73 -116t-114 -77t-147.5 -28zM405 761q-63 0 -102.5 38.5t-42.5 101.5h85q4 -26 18.5 -41t41.5 -15t42.5 15t20.5 41h84q-2 -31 -14 -57t-31.5 -44.5t-45.5 -28.5t-56 -10z" />
    <glyph glyph-name="obreve" unicode="&#x14f;" horiz-adv-x="611" 
d="M306 84q68 0 106 46.5t38 127.5v7q0 81 -38 127.5t-106 46.5t-106.5 -46t-38.5 -127v-8q0 -81 38 -127.5t107 -46.5zM305 -10q-58 0 -107 19t-85 54t-56 84t-20 109v8q0 61 20.5 110.5t56.5 85t85 55t107 19.5q57 0 106 -19t85 -54.5t56.5 -84.5t20.5 -109v-8
q0 -61 -20.5 -110.5t-56.5 -85t-85 -54.5t-107 -19zM304 606q-62 0 -101.5 39t-43.5 104h84q4 -27 18.5 -42.5t42.5 -15.5t44 15.5t21 42.5h82q-2 -32 -14 -58.5t-31.5 -45.5t-45.5 -29t-56 -10z" />
    <glyph glyph-name="Ohungarumlaut" unicode="&#x150;" horiz-adv-x="814" 
d="M410 97q51 0 91.5 18.5t69 52.5t44 81.5t15.5 105.5v8q0 55 -15 102t-43.5 81t-70 53.5t-93.5 19.5q-53 0 -94 -18.5t-70 -52.5t-44 -81t-15 -105v-8q0 -59 17 -106t47 -81t71 -52t90 -18zM408 -10q-82 0 -149 27.5t-114 76.5t-73 115.5t-26 143.5v8q0 78 26.5 145
t74.5 115.5t114.5 76t146.5 27.5t146 -27t113.5 -75t74 -114t26.5 -145v-8q0 -78 -25.5 -145t-73 -116t-114 -77t-147.5 -28zM310 901h118l-73 -135h-83zM480 901h118l-73 -135h-83z" />
    <glyph glyph-name="ohungarumlaut" unicode="&#x151;" horiz-adv-x="611" 
d="M306 84q68 0 106 46.5t38 127.5v7q0 81 -38 127.5t-106 46.5t-106.5 -46t-38.5 -127v-8q0 -81 38 -127.5t107 -46.5zM305 -10q-58 0 -107 19t-85 54t-56 84t-20 109v8q0 61 20.5 110.5t56.5 85t85 55t107 19.5q57 0 106 -19t85 -54.5t56.5 -84.5t20.5 -109v-8
q0 -61 -20.5 -110.5t-56.5 -85t-85 -54.5t-107 -19zM218 756h113l-76 -155h-78zM381 756h113l-76 -155h-78z" />
    <glyph glyph-name="OE" unicode="&#x152;" horiz-adv-x="964" 
d="M46 359q0 78 23 143.5t69 112.5t115.5 73.5t163.5 26.5h493v-105h-299v-196h236v-100h-236v-209h316v-105h-512q-93 0 -162.5 25.5t-115 71.5t-68.5 110.5t-23 142.5v9zM420 610q-120 0 -177.5 -65.5t-57.5 -184.5v-8q0 -58 13.5 -103.5t42 -77.5t73.5 -49t108 -17h56
v505h-58z" />
    <glyph glyph-name="oe" unicode="&#x153;" horiz-adv-x="991" 
d="M305 -10q-58 0 -107 19t-85 54t-56 84t-20 109v8q0 61 20.5 110.5t56.5 85t85 55t107 19.5q68 0 120 -27t84 -76q32 49 82 76t116 27q49 0 93.5 -15t79 -47t55 -82t20.5 -120v-35h-384q3 -75 39.5 -115t105.5 -40q54 0 83 21t37 59h116q-13 -83 -76 -126.5t-163 -43.5
q-69 0 -121 26t-84 76q-32 -49 -84.5 -75.5t-119.5 -26.5zM306 84q68 0 106 47t38 126v8q0 81 -38 127.5t-106 46.5t-106.5 -46t-38.5 -127v-8q0 -81 38 -127.5t107 -46.5zM835 316q-5 68 -37.5 99t-89.5 31q-54 0 -89.5 -34.5t-44.5 -95.5h261z" />
    <glyph glyph-name="Racute" unicode="&#x154;" horiz-adv-x="655" 
d="M82 715h240q59 0 108 -12.5t84.5 -38t55 -65t19.5 -94.5v-4q0 -42 -12.5 -74t-34 -55.5t-50.5 -38.5t-62 -24l201 -309h-144l-187 289h-85v-289h-133v715zM322 384q136 0 136 114v4q0 62 -36 86t-100 24h-107v-228h107zM322 901h136l-99 -135h-91z" />
    <glyph glyph-name="racute" unicode="&#x155;" horiz-adv-x="397" 
d="M72 523h121v-98q25 50 64.5 77.5t105.5 28.5v-113q-40 0 -71.5 -7.5t-53.5 -24.5t-33.5 -44.5t-11.5 -69.5v-272h-121v523zM225 756h134l-104 -155h-89z" />
    <glyph glyph-name="uni0156" unicode="&#x156;" horiz-adv-x="659" 
d="M82 715h240q59 0 108 -12.5t84.5 -38t55 -65t19.5 -94.5v-4q0 -42 -12.5 -74t-34 -55.5t-50.5 -38.5t-62 -24l201 -309h-144l-187 289h-85v-289h-133v715zM322 384q136 0 136 114v4q0 62 -36 86t-100 24h-107v-228h107zM235 -198l52 165l111 -22l-92 -170z" />
    <glyph glyph-name="uni0157" unicode="&#x157;" horiz-adv-x="401" 
d="M72 523h121v-98q25 50 64.5 77.5t105.5 28.5v-113q-40 0 -71.5 -7.5t-53.5 -24.5t-33.5 -44.5t-11.5 -69.5v-272h-121v523zM35 -198l52 165l111 -22l-92 -170z" />
    <glyph glyph-name="Rcaron" unicode="&#x158;" horiz-adv-x="655" 
d="M82 715h240q59 0 108 -12.5t84.5 -38t55 -65t19.5 -94.5v-4q0 -42 -12.5 -74t-34 -55.5t-50.5 -38.5t-62 -24l201 -309h-144l-187 289h-85v-289h-133v715zM322 384q136 0 136 114v4q0 62 -36 86t-100 24h-107v-228h107zM158 901h88l75 -55l74 55h86l-110 -135h-105z" />
    <glyph glyph-name="rcaron" unicode="&#x159;" horiz-adv-x="397" 
d="M72 523h121v-98q25 50 64.5 77.5t105.5 28.5v-113q-40 0 -71.5 -7.5t-53.5 -24.5t-33.5 -44.5t-11.5 -69.5v-272h-121v523zM55 753h87l75 -67l75 67h84l-113 -151h-96z" />
    <glyph glyph-name="Sacute" unicode="&#x15a;" horiz-adv-x="635" 
d="M325 -10q-73 0 -125.5 17.5t-87 48t-52.5 73t-22 93.5h128q3 -27 11.5 -51t26 -42t47 -28.5t74.5 -10.5q60 0 97.5 30t37.5 80q0 25 -7 42.5t-24 30t-46 21.5t-72 16q-64 9 -111.5 23.5t-78.5 39t-46.5 60.5t-15.5 86q0 44 18 81.5t50.5 65t78.5 43t102 15.5
q116 0 182.5 -52t77.5 -155h-122q-10 57 -43 82t-95 25q-61 0 -92 -26t-31 -68q0 -22 5.5 -38.5t22 -29t45 -21.5t75.5 -16q63 -9 110.5 -23t80 -39t48.5 -61.5t16 -90.5q0 -47 -19 -87t-53.5 -70t-83 -47t-107.5 -17zM311 901h136l-99 -135h-91z" />
    <glyph glyph-name="sacute" unicode="&#x15b;" horiz-adv-x="494" 
d="M251 -10q-102 0 -158.5 44.5t-60.5 128.5h114q5 -40 27.5 -62t76.5 -22q49 0 71.5 17t22.5 50q0 32 -27 47t-85 25q-52 8 -88 20t-58.5 31t-32.5 45t-10 63q0 39 17 68.5t44.5 49t62.5 29.5t72 10q40 0 75.5 -8t62.5 -26.5t44.5 -49t22.5 -74.5h-112q-8 36 -29.5 53
t-63.5 17q-39 0 -61 -17t-22 -45q0 -14 5 -24.5t17.5 -18t33.5 -13.5t52 -11q46 -7 82.5 -17.5t61.5 -28t38.5 -45t13.5 -69.5q0 -80 -54 -123.5t-155 -43.5zM254 756h134l-104 -155h-89z" />
    <glyph glyph-name="Scircumflex" unicode="&#x15c;" horiz-adv-x="635" 
d="M325 -10q-73 0 -125.5 17.5t-87 48t-52.5 73t-22 93.5h128q3 -27 11.5 -51t26 -42t47 -28.5t74.5 -10.5q60 0 97.5 30t37.5 80q0 25 -7 42.5t-24 30t-46 21.5t-72 16q-64 9 -111.5 23.5t-78.5 39t-46.5 60.5t-15.5 86q0 44 18 81.5t50.5 65t78.5 43t102 15.5
q116 0 182.5 -52t77.5 -155h-122q-10 57 -43 82t-95 25q-61 0 -92 -26t-31 -68q0 -22 5.5 -38.5t22 -29t45 -21.5t75.5 -16q63 -9 110.5 -23t80 -39t48.5 -61.5t16 -90.5q0 -47 -19 -87t-53.5 -70t-83 -47t-107.5 -17zM258 901h104l108 -135h-88l-74 55l-75 -55h-86z" />
    <glyph glyph-name="scircumflex" unicode="&#x15d;" horiz-adv-x="494" 
d="M251 -10q-102 0 -158.5 44.5t-60.5 128.5h114q5 -40 27.5 -62t76.5 -22q49 0 71.5 17t22.5 50q0 32 -27 47t-85 25q-52 8 -88 20t-58.5 31t-32.5 45t-10 63q0 39 17 68.5t44.5 49t62.5 29.5t72 10q40 0 75.5 -8t62.5 -26.5t44.5 -49t22.5 -74.5h-112q-8 36 -29.5 53
t-63.5 17q-39 0 -61 -17t-22 -45q0 -14 5 -24.5t17.5 -18t33.5 -13.5t52 -11q46 -7 82.5 -17.5t61.5 -28t38.5 -45t13.5 -69.5q0 -80 -54 -123.5t-155 -43.5zM197 753h96l111 -151h-86l-75 68l-76 -68h-84z" />
    <glyph glyph-name="uni015E" unicode="&#x15e;" horiz-adv-x="639" 
d="M295 -219q-48 0 -76.5 23.5t-33.5 64.5h66q2 -13 12 -23t28 -10q17 0 27 9.5t10 24.5q0 14 -9.5 23t-25.5 9q-11 0 -18 -3t-12 -6l-34 32l40 68q-58 6 -100 25.5t-70 49.5t-43 69.5t-18 84.5h128q3 -27 11.5 -51t26 -42t47 -28.5t74.5 -10.5q60 0 97.5 30t37.5 80
q0 25 -7 42.5t-24 30t-46 21.5t-72 16q-64 9 -111.5 23.5t-78.5 39t-46.5 60.5t-15.5 86q0 44 18 81.5t50.5 65t78.5 43t102 15.5q116 0 182.5 -52t77.5 -155h-122q-10 57 -43 82t-95 25q-61 0 -92 -26t-31 -68q0 -22 5.5 -38.5t22 -29t45 -21.5t75.5 -16q63 -9 110.5 -23
t80 -39t48.5 -61.5t16 -90.5q0 -47 -18.5 -87t-53 -69.5t-82.5 -47t-107 -17.5l-23 -40q19 2 37 -1.5t32 -14t22.5 -27t8.5 -40.5q0 -42 -31 -64t-78 -22z" />
    <glyph glyph-name="uni015F" unicode="&#x15f;" horiz-adv-x="498" 
d="M232 -219q-48 0 -76.5 23.5t-33.5 64.5h66q2 -13 12 -23t28 -10q17 0 27 9.5t10 24.5q0 14 -9.5 23t-25.5 9q-11 0 -18 -3t-12 -6l-34 32l39 68q-81 9 -125.5 52.5t-47.5 117.5h114q5 -40 27.5 -62t76.5 -22q49 0 71.5 17t22.5 50q0 32 -27 47t-85 25q-52 8 -88 20
t-58.5 31t-32.5 45t-10 63q0 39 17 68.5t44.5 49t62.5 29.5t72 10q40 0 75.5 -8t62.5 -26.5t44.5 -49t22.5 -74.5h-112q-8 36 -29.5 53t-63.5 17q-39 0 -61 -17t-22 -45q0 -14 5 -24.5t17.5 -18t33.5 -13.5t52 -11q46 -7 82.5 -17.5t61.5 -28t38.5 -45t13.5 -69.5
q0 -78 -50.5 -121t-145.5 -46l-23 -40q19 2 37 -1.5t32 -14t22.5 -27t8.5 -40.5q0 -42 -31 -64t-78 -22z" />
    <glyph glyph-name="Scaron" unicode="&#x160;" horiz-adv-x="635" 
d="M325 -10q-73 0 -125.5 17.5t-87 48t-52.5 73t-22 93.5h128q3 -27 11.5 -51t26 -42t47 -28.5t74.5 -10.5q60 0 97.5 30t37.5 80q0 25 -7 42.5t-24 30t-46 21.5t-72 16q-64 9 -111.5 23.5t-78.5 39t-46.5 60.5t-15.5 86q0 44 18 81.5t50.5 65t78.5 43t102 15.5
q116 0 182.5 -52t77.5 -155h-122q-10 57 -43 82t-95 25q-61 0 -92 -26t-31 -68q0 -22 5.5 -38.5t22 -29t45 -21.5t75.5 -16q63 -9 110.5 -23t80 -39t48.5 -61.5t16 -90.5q0 -47 -19 -87t-53.5 -70t-83 -47t-107.5 -17zM147 901h88l75 -55l74 55h86l-110 -135h-105z" />
    <glyph glyph-name="scaron" unicode="&#x161;" horiz-adv-x="494" 
d="M251 -10q-102 0 -158.5 44.5t-60.5 128.5h114q5 -40 27.5 -62t76.5 -22q49 0 71.5 17t22.5 50q0 32 -27 47t-85 25q-52 8 -88 20t-58.5 31t-32.5 45t-10 63q0 39 17 68.5t44.5 49t62.5 29.5t72 10q40 0 75.5 -8t62.5 -26.5t44.5 -49t22.5 -74.5h-112q-8 36 -29.5 53
t-63.5 17q-39 0 -61 -17t-22 -45q0 -14 5 -24.5t17.5 -18t33.5 -13.5t52 -11q46 -7 82.5 -17.5t61.5 -28t38.5 -45t13.5 -69.5q0 -80 -54 -123.5t-155 -43.5zM82 753h87l75 -67l75 67h84l-113 -151h-96z" />
    <glyph glyph-name="Tcommaaccent" unicode="&#x162;" horiz-adv-x="584" 
d="M225 610h-199v105h532v-105h-199v-610h-134v610zM194 -198l52 165l111 -22l-92 -170z" />
    <glyph glyph-name="tcommaaccent" unicode="&#x163;" horiz-adv-x="369" 
d="M250 -9q-78 0 -118 40t-40 115v286h-70v91h70v115h121v-115h115v-91h-115v-275q0 -35 15.5 -51t44.5 -16q35 0 59 10v-96q-14 -5 -34 -9t-48 -4zM102 -198l52 165l111 -22l-92 -170z" />
    <glyph glyph-name="Tcaron" unicode="&#x164;" horiz-adv-x="583" 
d="M225 610h-199v105h532v-105h-199v-610h-134v610zM129 901h88l75 -55l74 55h86l-110 -135h-105z" />
    <glyph glyph-name="tcaron" unicode="&#x165;" horiz-adv-x="369" 
d="M250 -9q-78 0 -118 40t-40 115v286h-70v91h70v115h121v-115h115v-91h-115v-275q0 -35 15.5 -51t44.5 -16q35 0 59 10v-96q-14 -5 -34 -9t-48 -4zM285 765h110l-49 -175h-71z" />
    <glyph glyph-name="Tbar" unicode="&#x166;" horiz-adv-x="583" 
d="M87 405h138v205h-199v105h532v-105h-199v-205h137v-90h-137v-315h-134v315h-138v90z" />
    <glyph glyph-name="tbar" unicode="&#x167;" horiz-adv-x="369" 
d="M22 336h70v97h-70v90h70v115h121v-115h114v-90h-114v-97h114v-75h-114v-104q0 -68 60 -68q18 0 32 3t27 8v-96q-14 -5 -34 -9t-48 -4q-78 0 -118 40t-40 115v115h-70v75z" />
    <glyph glyph-name="Utilde" unicode="&#x168;" horiz-adv-x="723" 
d="M357 -10q-135 0 -208 71.5t-73 210.5v443h134v-433q0 -99 34 -142t114 -43q39 0 68 9.5t48.5 32t29 59.5t9.5 93v424h134v-435q0 -141 -73.5 -215.5t-216.5 -74.5zM418 768q-18 0 -33.5 6t-29.5 13.5t-26 13.5t-23 6q-14 0 -24 -11.5t-13 -28.5h-76q5 63 36 97t73 34
q17 0 32.5 -6.5t29.5 -14t26.5 -13.5t24.5 -6q14 0 23.5 11.5t12.5 28.5h77q-6 -63 -37 -96.5t-73 -33.5z" />
    <glyph glyph-name="utilde" unicode="&#x169;" horiz-adv-x="605" 
d="M247 -10q-39 0 -72 11.5t-57 35.5t-37.5 61.5t-13.5 89.5v335h121v-321q0 -60 25 -87.5t78 -27.5q24 0 46.5 8t39 23.5t26.5 39t10 54.5v311h121v-523h-121v82q-20 -38 -61 -65t-105 -27zM360 606q-18 0 -33.5 6t-29 13.5t-25.5 14t-23 6.5q-14 0 -24 -11.5t-13 -28.5
h-75q6 63 35.5 97t71.5 34q17 0 32.5 -6t29 -13.5t26 -13.5t24.5 -6q14 0 23.5 11t12.5 29h75q-6 -63 -35.5 -97.5t-71.5 -34.5z" />
    <glyph glyph-name="Umacron" unicode="&#x16a;" horiz-adv-x="723" 
d="M357 -10q-135 0 -208 71.5t-73 210.5v443h134v-433q0 -99 34 -142t114 -43q39 0 68 9.5t48.5 32t29 59.5t9.5 93v424h134v-435q0 -141 -73.5 -215.5t-216.5 -74.5zM216 861h288v-81h-288v81z" />
    <glyph glyph-name="umacron" unicode="&#x16b;" horiz-adv-x="605" 
d="M247 -10q-39 0 -72 11.5t-57 35.5t-37.5 61.5t-13.5 89.5v335h121v-321q0 -60 25 -87.5t78 -27.5q24 0 46.5 8t39 23.5t26.5 39t10 54.5v311h121v-523h-121v82q-20 -38 -61 -65t-105 -27zM162 712h280v-78h-280v78z" />
    <glyph glyph-name="Ubreve" unicode="&#x16c;" horiz-adv-x="723" 
d="M357 -10q-135 0 -208 71.5t-73 210.5v443h134v-433q0 -99 34 -142t114 -43q39 0 68 9.5t48.5 32t29 59.5t9.5 93v424h134v-435q0 -141 -73.5 -215.5t-216.5 -74.5zM359 761q-63 0 -102.5 38.5t-42.5 101.5h85q4 -26 18.5 -41t41.5 -15t42.5 15t20.5 41h84q-2 -31 -14 -57
t-31.5 -44.5t-45.5 -28.5t-56 -10z" />
    <glyph glyph-name="ubreve" unicode="&#x16d;" horiz-adv-x="605" 
d="M247 -10q-39 0 -72 11.5t-57 35.5t-37.5 61.5t-13.5 89.5v335h121v-321q0 -60 25 -87.5t78 -27.5q24 0 46.5 8t39 23.5t26.5 39t10 54.5v311h121v-523h-121v82q-20 -38 -61 -65t-105 -27zM301 606q-62 0 -101.5 39t-43.5 104h84q4 -27 18.5 -42.5t42.5 -15.5t44 15.5
t21 42.5h82q-2 -32 -14 -58.5t-31.5 -45.5t-45.5 -29t-56 -10z" />
    <glyph glyph-name="Uring" unicode="&#x16e;" horiz-adv-x="723" 
d="M357 -10q-135 0 -208 71.5t-73 210.5v443h134v-433q0 -99 34 -142t114 -43q39 0 68 9.5t48.5 32t29 59.5t9.5 93v424h134v-435q0 -141 -73.5 -215.5t-216.5 -74.5zM360 787q22 0 36 15.5t14 39.5t-14 39.5t-36 15.5q-23 0 -36.5 -15.5t-13.5 -39.5t13.5 -39.5t36.5 -15.5
zM360 733q-23 0 -43.5 8.5t-35.5 23.5t-24 34.5t-9 42.5q0 22 9 42t24 35t35.5 23.5t43.5 8.5t43.5 -8.5t35.5 -23.5t24 -35t9 -42q0 -23 -9 -42.5t-24 -34.5t-35.5 -23.5t-43.5 -8.5z" />
    <glyph glyph-name="uring" unicode="&#x16f;" horiz-adv-x="605" 
d="M247 -10q-39 0 -72 11.5t-57 35.5t-37.5 61.5t-13.5 89.5v335h121v-321q0 -60 25 -87.5t78 -27.5q24 0 46.5 8t39 23.5t26.5 39t10 54.5v311h121v-523h-121v82q-20 -38 -61 -65t-105 -27zM299 616q22 0 36 16t14 39q0 24 -14 39.5t-36 15.5t-36 -15.5t-14 -39.5
q0 -23 14 -39t36 -16zM299 563q-23 0 -43 8.5t-35 23.5t-24 34.5t-9 41.5t9 41.5t24 34.5t35 23.5t43 8.5t43 -8.5t35 -23.5t24 -34.5t9 -41.5t-9 -41.5t-24 -34.5t-35 -23.5t-43 -8.5z" />
    <glyph glyph-name="Uhungarumlaut" unicode="&#x170;" horiz-adv-x="723" 
d="M357 -10q-135 0 -208 71.5t-73 210.5v443h134v-433q0 -99 34 -142t114 -43q39 0 68 9.5t48.5 32t29 59.5t9.5 93v424h134v-435q0 -141 -73.5 -215.5t-216.5 -74.5zM264 901h118l-73 -135h-83zM434 901h118l-73 -135h-83z" />
    <glyph glyph-name="uhungarumlaut" unicode="&#x171;" horiz-adv-x="605" 
d="M247 -10q-39 0 -72 11.5t-57 35.5t-37.5 61.5t-13.5 89.5v335h121v-321q0 -60 25 -87.5t78 -27.5q24 0 46.5 8t39 23.5t26.5 39t10 54.5v311h121v-523h-121v82q-20 -38 -61 -65t-105 -27zM215 756h113l-76 -155h-78zM378 756h113l-76 -155h-78z" />
    <glyph glyph-name="Uogonek" unicode="&#x172;" horiz-adv-x="723" 
d="M398 -182q-50 0 -80 21t-30 59q0 29 18.5 52.5t44.5 39.5q-132 1 -203.5 73t-71.5 209v443h134v-433q0 -99 34 -142t114 -43q39 0 68 9.5t48.5 32t29 59.5t9.5 93v424h134v-435q0 -100 -37 -165.5t-105 -96.5q-23 -11 -42.5 -20.5t-34.5 -20t-23.5 -23.5t-8.5 -29
q0 -33 35 -33q25 0 43 9v-69q-13 -6 -31.5 -10t-44.5 -4z" />
    <glyph glyph-name="uogonek" unicode="&#x173;" horiz-adv-x="605" 
d="M469 -182q-49 0 -79 21.5t-30 59.5q0 34 25 59.5t57 41.5h-29v82q-20 -38 -61 -65t-105 -27q-39 0 -72 11.5t-57 35.5t-37.5 61.5t-13.5 89.5v335h121v-321q0 -60 25 -87.5t78 -27.5q24 0 46.5 8t39 23.5t26.5 39t10 54.5v311h121v-515q-37 -25 -52.5 -45t-15.5 -40
q0 -33 35 -33q25 0 43 9v-67q-13 -6 -31 -10t-44 -4z" />
    <glyph glyph-name="Wcircumflex" unicode="&#x174;" horiz-adv-x="955" 
d="M26 715h136l124 -525l139 525h110l142 -528l128 528h124l-179 -715h-133l-141 521l-145 -521h-127zM426 901h104l108 -135h-88l-74 55l-75 -55h-86z" />
    <glyph glyph-name="wcircumflex" unicode="&#x175;" horiz-adv-x="814" 
d="M20 523h129l104 -378l111 378h101l102 -378l109 378h118l-164 -523h-123l-97 352l-106 -352h-124zM359 753h96l111 -151h-86l-75 68l-76 -68h-84z" />
    <glyph glyph-name="Ycircumflex" unicode="&#x176;" horiz-adv-x="629" 
d="M254 310l-237 405h147l161 -296l157 296h130l-224 -406v-309h-134v310zM266 901h104l108 -135h-88l-74 55l-75 -55h-86z" />
    <glyph glyph-name="ycircumflex" unicode="&#x177;" horiz-adv-x="553" 
d="M225 53l-207 470h131l139 -337l128 337h118l-285 -702h-119zM232 753h96l111 -151h-86l-75 68l-76 -68h-84z" />
    <glyph glyph-name="Ydieresis" unicode="&#x178;" horiz-adv-x="629" 
d="M254 310l-237 405h147l161 -296l157 296h130l-224 -406v-309h-134v310zM211 777q-27 0 -46.5 19t-19.5 46t19.5 46t46.5 19t46.5 -19t19.5 -46t-19.5 -46t-46.5 -19zM422 777q-27 0 -46.5 19t-19.5 46t19.5 46t46.5 19t46.5 -19t19.5 -46t-19.5 -46t-46.5 -19z" />
    <glyph glyph-name="Zacute" unicode="&#x179;" horiz-adv-x="608" 
d="M22 18l365 592h-328v105h516v-17l-357 -591h347v-107h-543v18zM307 901h136l-99 -135h-91z" />
    <glyph glyph-name="zacute" unicode="&#x17a;" horiz-adv-x="493" 
d="M17 14l277 413h-250v96h429v-17l-276 -409h268v-97h-448v14zM261 756h134l-104 -155h-89z" />
    <glyph glyph-name="Zdotaccent" unicode="&#x17b;" horiz-adv-x="608" 
d="M22 18l365 592h-328v105h516v-17l-357 -591h347v-107h-543v18zM305 775q-30 0 -50.5 20t-20.5 49t20.5 48.5t50.5 19.5q29 0 50 -19.5t21 -48.5t-21 -49t-50 -20z" />
    <glyph glyph-name="zdotaccent" unicode="&#x17c;" horiz-adv-x="493" 
d="M17 14l277 413h-250v96h429v-17l-276 -409h268v-97h-448v14zM253 611q-30 0 -50.5 20t-20.5 49t20.5 48.5t50.5 19.5q29 0 50 -19.5t21 -48.5t-21 -49t-50 -20z" />
    <glyph glyph-name="Zcaron" unicode="&#x17d;" horiz-adv-x="608" 
d="M22 18l365 592h-328v105h516v-17l-357 -591h347v-107h-543v18zM143 901h88l75 -55l74 55h86l-110 -135h-105z" />
    <glyph glyph-name="zcaron" unicode="&#x17e;" horiz-adv-x="493" 
d="M17 14l277 413h-250v96h429v-17l-276 -409h268v-97h-448v14zM91 753h87l75 -67l75 67h84l-113 -151h-96z" />
    <glyph glyph-name="uni0192" unicode="&#x192;" horiz-adv-x="421" 
d="M27 414h94l21 141q13 87 61 128t128 41q23 0 39.5 -2.5t32.5 -8.5v-95q-11 5 -25.5 7.5t-34.5 2.5q-38 0 -57.5 -22.5t-24.5 -59.5l-20 -132h125v-90h-138l-75 -506h-120l75 506h-81v90z" />
    <glyph glyph-name="Aringacute" unicode="&#x1fa;" horiz-adv-x="703" 
d="M266 715h174l236 -715h-138l-57 177h-273l-56 -177h-125zM239 274h211l-105 332zM356 800q22 0 36 15.5t14 39.5t-14 39.5t-36 15.5q-23 0 -36.5 -15.5t-13.5 -39.5t13.5 -39.5t36.5 -15.5zM356 746q-23 0 -43.5 8.5t-35.5 23.5t-24 34.5t-9 42.5q0 22 9 42t24 35
t35.5 23.5t43.5 8.5t43.5 -8.5t35.5 -23.5t24 -35t9 -42q0 -23 -9 -42.5t-24 -34.5t-35.5 -23.5t-43.5 -8.5zM363 1123h136l-99 -135h-91z" />
    <glyph glyph-name="aringacute" unicode="&#x1fb;" horiz-adv-x="555" 
d="M209 -10q-36 0 -68 9t-55.5 27.5t-37.5 48t-14 70.5q0 46 21 77.5t57 51t85 28.5t105 9h65v27q0 53 -20.5 79t-74.5 26q-48 0 -71.5 -21.5t-28.5 -60.5h-117q4 46 23 78.5t49 53.5t69 31t83 10t82 -9.5t66.5 -32t44.5 -59t16 -90.5v-343h-119v64q-26 -34 -63 -54t-97 -20
zM238 77q56 0 92.5 27.5t36.5 78.5v52h-62q-69 0 -110 -18.5t-41 -66.5q0 -33 19.5 -53t64.5 -20zM280 629q22 0 36 16t14 39q0 24 -14 39.5t-36 15.5t-36 -15.5t-14 -39.5q0 -23 14 -39t36 -16zM280 576q-23 0 -43 8.5t-35 23.5t-24 34.5t-9 41.5t9 41.5t24 34.5t35 23.5
t43 8.5t43 -8.5t35 -23.5t24 -34.5t9 -41.5t-9 -41.5t-24 -34.5t-35 -23.5t-43 -8.5zM294 963h136l-99 -135h-91z" />
    <glyph glyph-name="AEacute" unicode="&#x1fc;" horiz-adv-x="971" 
d="M373 715h543v-105h-312v-196h250v-100h-250v-209h329v-105h-462v183h-232l-87 -183h-130zM285 278h186v332h-27zM613 901h136l-99 -135h-91z" />
    <glyph glyph-name="aeacute" unicode="&#x1fd;" horiz-adv-x="891" 
d="M620 -10q-68 0 -118 26t-81 74q-35 -51 -82.5 -75.5t-122.5 -24.5q-38 0 -71 9t-58 27.5t-39 48t-14 70.5q0 46 20.5 78t56.5 52t84.5 29.5t104.5 9.5h68v24q0 53 -22 79t-73 26q-92 0 -101 -82h-117q4 46 23 78.5t48.5 53.5t68 31t81.5 10q57 0 99.5 -17t66.5 -59
q31 36 74.5 56t98.5 20q47 0 90.5 -14.5t77 -46.5t53.5 -82t20 -121v-33h-372q3 -75 37 -116t100 -41q53 0 81 21t35 59h116q-13 -83 -74.5 -126.5t-158.5 -43.5zM239 77q57 0 93 27.5t36 78.5v53h-65q-68 0 -108.5 -18t-40.5 -66q0 -35 19.5 -55t65.5 -20zM736 314
q-5 69 -36 100.5t-85 31.5q-53 0 -87 -35t-42 -97h250zM463 756h134l-104 -155h-89z" />
    <glyph glyph-name="Oslashacute" unicode="&#x1fe;" horiz-adv-x="814" 
d="M34 18l91 98q-38 48 -58.5 108t-20.5 129v8q0 78 26.5 144.5t74.5 115t114.5 76t146.5 27.5q64 0 119 -17.5t100 -49.5l78 84l50 -50l-75 -81q42 -48 65.5 -110t23.5 -136v-8q0 -78 -26 -145t-73 -116t-114 -77t-148 -28q-70 0 -128.5 20t-103.5 56l-92 -99zM409 97
q51 0 92.5 18.5t70 52.5t44 81.5t15.5 106.5v8q0 91 -37 154l-336 -364q60 -57 151 -57zM184 354q0 -82 31 -141l333 359q-56 47 -140 47q-53 0 -94.5 -18.5t-70.5 -52.5t-44 -81t-15 -105v-8zM409 901h136l-99 -135h-91z" />
    <glyph glyph-name="oslashacute" unicode="&#x1ff;" horiz-adv-x="611" 
d="M22 4l73 79q-28 34 -43 77.5t-15 95.5v8q0 61 20.5 110.5t56.5 85t85 55t107 19.5q91 0 159 -48l67 73l47 -42l-67 -73q29 -34 45.5 -78.5t16.5 -98.5v-8q0 -61 -20.5 -110.5t-56.5 -85t-85 -54.5t-107 -19q-48 0 -89.5 13t-74.5 37l-72 -78zM306 84q69 0 107 46.5
t38 126.5v8q0 54 -18 93l-222 -241q36 -33 95 -33zM161 258q0 -48 14 -87l220 239q-38 30 -89 30q-68 0 -106.5 -46.5t-38.5 -127.5v-8zM313 756h134l-104 -155h-89z" />
    <glyph glyph-name="uni0218" unicode="&#x218;" horiz-adv-x="640" 
d="M325 -10q-73 0 -125.5 17.5t-87 48t-52.5 73t-22 93.5h128q3 -27 11.5 -51t26 -42t47 -28.5t74.5 -10.5q60 0 97.5 30t37.5 80q0 25 -7 42.5t-24 30t-46 21.5t-72 16q-64 9 -111.5 23.5t-78.5 39t-46.5 60.5t-15.5 86q0 44 18 81.5t50.5 65t78.5 43t102 15.5
q116 0 182.5 -52t77.5 -155h-122q-10 57 -43 82t-95 25q-61 0 -92 -26t-31 -68q0 -22 5.5 -38.5t22 -29t45 -21.5t75.5 -16q63 -9 110.5 -23t80 -39t48.5 -61.5t16 -90.5q0 -47 -19 -87t-53.5 -70t-83 -47t-107.5 -17zM212 -198l52 165l111 -22l-92 -170z" />
    <glyph glyph-name="uni0219" unicode="&#x219;" horiz-adv-x="498" 
d="M251 -10q-102 0 -158.5 44.5t-60.5 128.5h114q5 -40 27.5 -62t76.5 -22q49 0 71.5 17t22.5 50q0 32 -27 47t-85 25q-52 8 -88 20t-58.5 31t-32.5 45t-10 63q0 39 17 68.5t44.5 49t62.5 29.5t72 10q40 0 75.5 -8t62.5 -26.5t44.5 -49t22.5 -74.5h-112q-8 36 -29.5 53
t-63.5 17q-39 0 -61 -17t-22 -45q0 -14 5 -24.5t17.5 -18t33.5 -13.5t52 -11q46 -7 82.5 -17.5t61.5 -28t38.5 -45t13.5 -69.5q0 -80 -54 -123.5t-155 -43.5zM147 -198l52 165l111 -22l-92 -170z" />
    <glyph glyph-name="uni021A" unicode="&#x21a;" horiz-adv-x="584" 
d="M225 610h-199v105h532v-105h-199v-610h-134v610zM194 -198l52 165l111 -22l-92 -170z" />
    <glyph glyph-name="uni021B" unicode="&#x21b;" horiz-adv-x="369" 
d="M250 -9q-78 0 -118 40t-40 115v286h-70v91h70v115h121v-115h115v-91h-115v-275q0 -35 15.5 -51t44.5 -16q35 0 59 10v-96q-14 -5 -34 -9t-48 -4zM102 -198l52 165l111 -22l-92 -170z" />
    <glyph glyph-name="uni0237" unicode="&#x237;" horiz-adv-x="271" 
d="M3 -95q40 3 56 22t16 52v544h121v-541q0 -40 -10 -71t-32.5 -53t-59.5 -33.5t-91 -12.5v93z" />
    <glyph glyph-name="circumflex" unicode="&#x2c6;" horiz-adv-x="400" 
d="M153 753h96l111 -151h-86l-75 68l-76 -68h-84z" />
    <glyph glyph-name="caron" unicode="&#x2c7;" horiz-adv-x="400" 
d="M39 753h87l75 -67l75 67h84l-113 -151h-96z" />
    <glyph glyph-name="breve" unicode="&#x2d8;" horiz-adv-x="400" 
d="M199 606q-62 0 -101.5 39t-43.5 104h84q4 -27 18.5 -42.5t42.5 -15.5t44 15.5t21 42.5h82q-2 -32 -14 -58.5t-31.5 -45.5t-45.5 -29t-56 -10z" />
    <glyph glyph-name="dotaccent" unicode="&#x2d9;" horiz-adv-x="400" 
d="M200 611q-30 0 -50.5 20t-20.5 49t20.5 48.5t50.5 19.5q29 0 50 -19.5t21 -48.5t-21 -49t-50 -20z" />
    <glyph glyph-name="ring" unicode="&#x2da;" horiz-adv-x="400" 
d="M200 643q22 0 36 16t14 39q0 24 -14 39.5t-36 15.5t-36 -15.5t-14 -39.5q0 -23 14 -39t36 -16zM200 590q-23 0 -43 8.5t-35 23.5t-24 34.5t-9 41.5t9 41.5t24 34.5t35 23.5t43 8.5t43 -8.5t35 -23.5t24 -34.5t9 -41.5t-9 -41.5t-24 -34.5t-35 -23.5t-43 -8.5z" />
    <glyph glyph-name="ogonek" unicode="&#x2db;" horiz-adv-x="400" 
d="M213 -182q-48 0 -78.5 20.5t-30.5 58.5q0 35 25 61t57 42h82q-29 -20 -43.5 -38.5t-14.5 -38.5q0 -33 35 -33q25 0 43 9v-67q-13 -6 -31.5 -10t-43.5 -4z" />
    <glyph glyph-name="tilde" unicode="&#x2dc;" horiz-adv-x="400" 
d="M258 606q-18 0 -33.5 6t-29 13.5t-25.5 14t-23 6.5q-14 0 -24 -11.5t-13 -28.5h-75q6 63 35.5 97t71.5 34q17 0 32.5 -6t29 -13.5t26 -13.5t24.5 -6q14 0 23.5 11t12.5 29h75q-6 -63 -35.5 -97.5t-71.5 -34.5z" />
    <glyph glyph-name="hungarumlaut" unicode="&#x2dd;" horiz-adv-x="400" 
d="M121 756h113l-76 -155h-78zM284 756h113l-76 -155h-78z" />
    <glyph glyph-name="Wgrave" unicode="&#x1e80;" horiz-adv-x="955" 
d="M26 715h136l124 -525l139 525h110l142 -528l128 528h124l-179 -715h-133l-141 521l-145 -521h-127zM343 901h136l53 -135h-91z" />
    <glyph glyph-name="wgrave" unicode="&#x1e81;" horiz-adv-x="814" 
d="M20 523h129l104 -378l111 378h101l102 -378l109 378h118l-164 -523h-123l-97 352l-106 -352h-124zM272 756h134l59 -155h-89z" />
    <glyph glyph-name="Wacute" unicode="&#x1e82;" horiz-adv-x="955" 
d="M26 715h136l124 -525l139 525h110l142 -528l128 528h124l-179 -715h-133l-141 521l-145 -521h-127zM490 901h136l-99 -135h-91z" />
    <glyph glyph-name="wacute" unicode="&#x1e83;" horiz-adv-x="814" 
d="M20 523h129l104 -378l111 378h101l102 -378l109 378h118l-164 -523h-123l-97 352l-106 -352h-124zM427 756h134l-104 -155h-89z" />
    <glyph glyph-name="Wdieresis" unicode="&#x1e84;" horiz-adv-x="955" 
d="M26 715h136l124 -525l139 525h110l142 -528l128 528h124l-179 -715h-133l-141 521l-145 -521h-127zM374 777q-27 0 -46.5 19t-19.5 46t19.5 46t46.5 19t46.5 -19t19.5 -46t-19.5 -46t-46.5 -19zM585 777q-27 0 -46.5 19t-19.5 46t19.5 46t46.5 19t46.5 -19t19.5 -46
t-19.5 -46t-46.5 -19z" />
    <glyph glyph-name="wdieresis" unicode="&#x1e85;" horiz-adv-x="814" 
d="M20 523h129l104 -378l111 378h101l102 -378l109 378h118l-164 -523h-123l-97 352l-106 -352h-124zM314 613q-27 0 -46.5 19t-19.5 46q0 26 19.5 45.5t46.5 19.5t46.5 -19.5t19.5 -45.5q0 -27 -19.5 -46t-46.5 -19zM512 613q-28 0 -47 19t-19 46q0 26 19 45.5t47 19.5
q27 0 46.5 -19.5t19.5 -45.5q0 -27 -19.5 -46t-46.5 -19z" />
    <glyph glyph-name="Ygrave" unicode="&#x1ef2;" horiz-adv-x="629" 
d="M254 310l-237 405h147l161 -296l157 296h130l-224 -406v-309h-134v310zM187 901h136l53 -135h-91z" />
    <glyph glyph-name="ygrave" unicode="&#x1ef3;" horiz-adv-x="553" 
d="M225 53l-207 470h131l139 -337l128 337h118l-285 -702h-119zM139 756h134l59 -155h-89z" />
    <glyph glyph-name="uni2009" unicode="&#x2009;" horiz-adv-x="105" 
 />
    <glyph glyph-name="endash" unicode="&#x2013;" horiz-adv-x="532" 
d="M45 324h441v-84h-441v84z" />
    <glyph glyph-name="emdash" unicode="&#x2014;" horiz-adv-x="909" 
d="M45 324h819v-84h-819v84z" />
    <glyph glyph-name="quoteleft" unicode="&#x2018;" horiz-adv-x="277" 
d="M36 507l125 220l71 -31l-86 -232z" />
    <glyph glyph-name="quoteright" unicode="&#x2019;" horiz-adv-x="277" 
d="M45 496l86 231l109 -43l-124 -220z" />
    <glyph glyph-name="quotesinglbase" unicode="&#x201a;" horiz-adv-x="276" 
d="M44 -80l85 232l110 -43l-125 -220z" />
    <glyph glyph-name="quotedblleft" unicode="&#x201c;" horiz-adv-x="473" 
d="M36 507l125 220l71 -31l-86 -232zM233 507l125 220l70 -31l-85 -232z" />
    <glyph glyph-name="quotedblright" unicode="&#x201d;" horiz-adv-x="473" 
d="M45 496l86 231l109 -43l-124 -220zM242 496l85 231l110 -43l-125 -220z" />
    <glyph glyph-name="quotedblbase" unicode="&#x201e;" horiz-adv-x="473" 
d="M44 -80l85 232l110 -43l-125 -220zM240 -80l86 232l110 -43l-125 -220z" />
    <glyph glyph-name="dagger" unicode="&#x2020;" horiz-adv-x="386" 
d="M142 501h-112v90h112v124h103v-124h111v-90h-111v-288h-103v288z" />
    <glyph glyph-name="daggerdbl" unicode="&#x2021;" horiz-adv-x="386" 
d="M142 512h-112v85h112v118h103v-118h111v-85h-111v-96h111v-85h-111v-118h-103v118h-112v85h112v96z" />
    <glyph glyph-name="bullet" unicode="&#x2022;" horiz-adv-x="348" 
d="M174 177q-27 0 -50.5 10t-41 27.5t-27 40.5t-9.5 50q0 26 9.5 49.5t27 41t41 27.5t50.5 10q28 0 51.5 -10t40.5 -27.5t26.5 -41t9.5 -49.5q0 -27 -9.5 -50t-26.5 -40.5t-40.5 -27.5t-51.5 -10z" />
    <glyph glyph-name="ellipsis" unicode="&#x2026;" horiz-adv-x="840" 
d="M144 -7q-33 0 -56 22.5t-23 55.5t23 56t56 23q34 0 57 -23t23 -56t-23 -55.5t-57 -22.5zM420 -7q-34 0 -56.5 22.5t-22.5 55.5t22.5 56t56.5 23t57 -23t23 -56t-23 -55.5t-57 -22.5zM695 -7q-33 0 -56 22.5t-23 55.5t23 56t56 23q34 0 57.5 -23t23.5 -56t-23.5 -55.5
t-57.5 -22.5z" />
    <glyph glyph-name="perthousand" unicode="&#x2030;" horiz-adv-x="1164" 
d="M201 464q34 0 53.5 24t19.5 66q0 41 -19.5 65t-53.5 24q-33 0 -53.5 -23.5t-20.5 -66.5t20.5 -66t53.5 -23zM201 384q-36 0 -67 12.5t-54.5 35t-36.5 53.5t-13 67q0 37 13.5 68t37 53.5t54.5 35.5t66 13t66 -12.5t54 -34.5t36.5 -53t13.5 -67q0 -37 -13 -68t-36 -54
t-54 -36t-67 -13zM582 715h85l-461 -715h-84zM581 70q34 0 53.5 24t19.5 66q0 41 -19.5 65t-53.5 24q-33 0 -53 -23.5t-20 -66.5t20 -66t53 -23zM581 -10q-36 0 -67 12.5t-54 35t-36 53.5t-13 67q0 37 13.5 68t36.5 53.5t54 35.5t66 13t66 -12.5t54 -34.5t36.5 -53t13.5 -67
q0 -37 -13 -68t-36 -54t-54 -36t-67 -13zM963 70q35 0 54.5 24t19.5 66q0 41 -19.5 65t-54.5 24q-33 0 -53 -23.5t-20 -66.5t20 -66t53 -23zM963 -10q-36 0 -67 12.5t-54 35t-36 53.5t-13 67q0 37 13.5 68t36.5 53.5t54 35.5t66 13t66 -12.5t54.5 -34.5t37 -53t13.5 -67
q0 -37 -13 -68t-36.5 -54t-54.5 -36t-67 -13z" />
    <glyph glyph-name="uni2032" unicode="&#x2032;" horiz-adv-x="227" 
d="M65 715h121l-58 -257h-86z" />
    <glyph glyph-name="uni2033" unicode="&#x2033;" horiz-adv-x="409" 
d="M65 715h121l-58 -257h-86zM247 715h121l-58 -257h-86z" />
    <glyph glyph-name="guilsinglleft" unicode="&#x2039;" horiz-adv-x="316" 
d="M48 261l128 183h97l-123 -183l123 -183h-97z" />
    <glyph glyph-name="guilsinglright" unicode="&#x203a;" horiz-adv-x="316" 
d="M166 261l-123 183h97l128 -183l-128 -183h-97z" />
    <glyph glyph-name="fraction" unicode="&#x2044;" horiz-adv-x="135" 
d="M293 715h77l-528 -715h-77z" />
    <glyph glyph-name="zero.sup" unicode="&#x2070;" horiz-adv-x="378" 
d="M190 484q68 0 68 107v11q0 105 -69 105q-68 0 -68 -106v-11q0 -106 69 -106zM188 412q-76 0 -118.5 47.5t-42.5 129.5v11q0 42 12 75t33 56t51 35t66 12t65.5 -11.5t51 -34t33.5 -55t12 -74.5v-11q0 -83 -43 -131.5t-120 -48.5z" />
    <glyph glyph-name="four.sup" unicode="&#x2074;" horiz-adv-x="348" 
d="M193 487h-178v34l154 252h113v-222h46v-64h-46v-69h-89v69zM195 551v157l-91 -157h91z" />
    <glyph glyph-name="five.sup" unicode="&#x2075;" horiz-adv-x="328" 
d="M159 412q-70 0 -103.5 32t-35.5 81h86q3 -20 13.5 -32t37.5 -12q24 0 37 15.5t13 41.5t-13.5 40.5t-37.5 14.5q-23 0 -36.5 -7.5t-22.5 -19.5h-62l7 207h238v-68h-171l-2 -87q11 14 30.5 25.5t53.5 11.5q49 0 79.5 -30.5t30.5 -85.5q0 -60 -38.5 -93.5t-103.5 -33.5z" />
    <glyph glyph-name="six.sup" unicode="&#x2076;" horiz-adv-x="349" 
d="M181 412q-42 0 -71.5 13t-47.5 35.5t-26.5 54t-8.5 69.5v9q0 89 45 137t116 48q57 0 90 -25.5t38 -76.5h-85q-3 15 -12.5 24.5t-30.5 9.5q-32 0 -49 -27t-19 -77q12 19 32.5 31t53.5 12q50 0 84 -29t34 -84q0 -56 -38 -90t-105 -34zM180 476q24 0 39 16t15 42t-14.5 41.5
t-39.5 15.5t-40 -15.5t-15 -39.5q0 -28 15 -44t40 -16z" />
    <glyph glyph-name="seven.sup" unicode="&#x2077;" horiz-adv-x="298" 
d="M171 699h-153v74h270v-10l-129 -345h-94z" />
    <glyph glyph-name="eight.sup" unicode="&#x2078;" horiz-adv-x="340" 
d="M170 412q-65 0 -105.5 26.5t-40.5 78.5q0 32 17 55t48 34q-23 10 -37 28t-14 45q0 24 10.5 42t29 31t42.5 19.5t51 6.5q55 0 93 -25.5t38 -72.5q0 -28 -14 -45.5t-38 -27.5q66 -23 66 -87q0 -52 -40.5 -80t-105.5 -28zM170 477q23 0 38.5 13t15.5 38q0 23 -15.5 36
t-38.5 13t-38.5 -13t-15.5 -37t15.5 -37t38.5 -13zM171 630q20 0 33 11.5t13 31.5t-13.5 31t-32.5 11q-20 0 -33.5 -11.5t-13.5 -31.5t14 -31t33 -11z" />
    <glyph glyph-name="nine.sup" unicode="&#x2079;" horiz-adv-x="349" 
d="M165 412q-60 0 -95 27t-41 77h86q4 -16 14.5 -26t34.5 -10q33 0 48.5 26.5t16.5 75.5q-12 -18 -31.5 -29.5t-51.5 -11.5q-52 0 -86.5 28.5t-34.5 84.5q0 57 38.5 90.5t104.5 33.5q78 0 116 -46.5t38 -124.5v-14q0 -87 -40 -134t-117 -47zM168 599q25 0 40 15.5t15 38.5
q0 28 -15 44.5t-40 16.5q-24 0 -38.5 -16t-14.5 -42t14 -41.5t39 -15.5z" />
    <glyph glyph-name="plus.sup" unicode="&#x207a;" horiz-adv-x="346" 
d="M138 562h-99v69h99v103h70v-103h100v-69h-100v-102h-70v102z" />
    <glyph glyph-name="minus.sup" unicode="&#x207b;" horiz-adv-x="346" 
d="M39 631h269v-69h-269v69z" />
    <glyph glyph-name="zero.sub" unicode="&#x2080;" horiz-adv-x="378" 
d="M190 -33q68 0 68 107v11q0 105 -69 105q-68 0 -68 -106v-11q0 -106 69 -106zM188 -105q-76 0 -118.5 47.5t-42.5 129.5v11q0 42 12 75t33 56t51 35t66 12t65.5 -11.5t51 -34t33.5 -55t12 -74.5v-11q0 -83 -43 -131.5t-120 -48.5z" />
    <glyph glyph-name="one.sub" unicode="&#x2081;" horiz-adv-x="254" 
d="M104 165l-82 -51v78l94 63h82v-355h-94v265z" />
    <glyph glyph-name="two.sub" unicode="&#x2082;" horiz-adv-x="313" 
d="M7 -86l128 135q27 28 43 52t16 47q0 20 -10.5 31.5t-31.5 11.5q-22 0 -35 -14.5t-17 -46.5h-85q3 63 40.5 97t100.5 34q64 0 96.5 -30.5t32.5 -78.5q0 -36 -19 -66t-51 -60l-58 -57h131v-68h-281v13z" />
    <glyph glyph-name="three.sub" unicode="&#x2083;" horiz-adv-x="336" 
d="M166 -105q-74 0 -109 33t-37 87h83q2 -23 15.5 -38.5t42.5 -15.5q27 0 40.5 12.5t13.5 34.5q0 45 -54 45h-28v58h27q52 0 52 43q0 18 -11 29t-34 11t-37 -12.5t-17 -35.5h-83q4 50 39.5 82.5t99.5 32.5q63 0 97 -27t34 -70q0 -30 -16.5 -49t-44.5 -28q31 -6 50.5 -27
t19.5 -55q0 -51 -37 -80.5t-106 -29.5z" />
    <glyph glyph-name="four.sub" unicode="&#x2084;" horiz-adv-x="348" 
d="M193 -30h-178v34l154 252h113v-222h46v-64h-46v-69h-89v69zM195 34v157l-91 -157h91z" />
    <glyph glyph-name="five.sub" unicode="&#x2085;" horiz-adv-x="328" 
d="M159 -105q-70 0 -103.5 32t-35.5 81h86q3 -20 13.5 -32t37.5 -12q24 0 37 15.5t13 41.5t-13.5 40.5t-37.5 14.5q-23 0 -36.5 -7.5t-22.5 -19.5h-62l7 207h238v-68h-171l-2 -87q11 14 30.5 25.5t53.5 11.5q49 0 79.5 -30.5t30.5 -85.5q0 -60 -38.5 -93.5t-103.5 -33.5z
" />
    <glyph glyph-name="six.sub" unicode="&#x2086;" horiz-adv-x="349" 
d="M181 -105q-42 0 -71.5 13t-47.5 35.5t-26.5 54t-8.5 69.5v9q0 89 45 137t116 48q57 0 90 -25.5t38 -76.5h-85q-3 15 -12.5 24.5t-30.5 9.5q-32 0 -49 -27t-19 -77q12 19 32.5 31t53.5 12q50 0 84 -29t34 -84q0 -56 -38 -90t-105 -34zM180 -41q24 0 39 16t15 42
t-14.5 41.5t-39.5 15.5t-40 -15.5t-15 -39.5q0 -28 15 -44t40 -16z" />
    <glyph glyph-name="seven.sub" unicode="&#x2087;" horiz-adv-x="298" 
d="M171 182h-153v74h270v-10l-129 -345h-94z" />
    <glyph glyph-name="eight.sub" unicode="&#x2088;" horiz-adv-x="340" 
d="M170 -105q-65 0 -105.5 26.5t-40.5 78.5q0 32 17 55t48 34q-23 10 -37 28t-14 45q0 24 10.5 42t29 31t42.5 19.5t51 6.5q55 0 93 -25.5t38 -72.5q0 -28 -14 -45.5t-38 -27.5q66 -23 66 -87q0 -52 -40.5 -80t-105.5 -28zM170 -40q23 0 38.5 13t15.5 38q0 23 -15.5 36
t-38.5 13t-38.5 -13t-15.5 -37t15.5 -37t38.5 -13zM171 113q20 0 33 11.5t13 31.5t-13.5 31t-32.5 11q-20 0 -33.5 -11.5t-13.5 -31.5t14 -31t33 -11z" />
    <glyph glyph-name="nine.sub" unicode="&#x2089;" horiz-adv-x="349" 
d="M165 -105q-60 0 -95 27t-41 77h86q4 -16 14.5 -26t34.5 -10q33 0 48.5 26.5t16.5 75.5q-12 -18 -31.5 -29.5t-51.5 -11.5q-52 0 -86.5 28.5t-34.5 84.5q0 57 38.5 90.5t104.5 33.5q78 0 116 -46.5t38 -124.5v-14q0 -87 -40 -134t-117 -47zM168 82q25 0 40 15.5t15 38.5
q0 28 -15 44.5t-40 16.5q-24 0 -38.5 -16t-14.5 -42t14 -41.5t39 -15.5z" />
    <glyph glyph-name="plus.sub" unicode="&#x208a;" horiz-adv-x="346" 
d="M138 45h-99v68h99v104h70v-104h100v-68h-100v-103h-70v103z" />
    <glyph glyph-name="minus.sub" unicode="&#x208b;" horiz-adv-x="346" 
d="M39 113h269v-68h-269v68z" />
    <glyph glyph-name="Euro" unicode="&#x20ac;" horiz-adv-x="692" 
d="M28 452h69q7 58 30 108t59 87t85.5 57.5t110.5 20.5q114 0 182.5 -60.5t80.5 -174.5h-125q-8 64 -44 98t-94 34q-69 0 -106.5 -46t-47.5 -124h206l-12 -63h-197v-68h184l-11 -63h-170q10 -78 48 -120.5t107 -42.5q125 0 145 145h124q-14 -119 -83.5 -184.5t-187.5 -65.5
q-62 0 -111 20t-85 55.5t-58.5 84.5t-29.5 108h-69v63h66v68h-66v63z" />
    <glyph glyph-name="trademark" unicode="&#x2122;" horiz-adv-x="733" 
d="M342 715h97l78 -199l77 199h98v-322h-76v224l-91 -224h-25l-91 224v-224h-67v322zM124 655h-92v60h260v-60h-92v-262h-76v262z" />
    <glyph glyph-name="onethird" unicode="&#x2153;" horiz-adv-x="758" 
d="M107 625l-82 -51v78l94 63h82v-355h-94v265zM578 715h77l-528 -715h-77zM584 -6q-74 0 -109 33t-37 87h83q2 -23 15.5 -38.5t42.5 -15.5q27 0 40.5 12.5t13.5 34.5q0 45 -54 45h-28v58h27q52 0 52 43q0 18 -11 29t-34 11t-37 -12.5t-17 -35.5h-83q4 50 39.5 82.5
t99.5 32.5q63 0 97 -27t34 -70q0 -30 -16.5 -49t-44.5 -28q31 -6 50.5 -27t19.5 -55q0 -51 -37 -80.5t-106 -29.5z" />
    <glyph glyph-name="twothirds" unicode="&#x2154;" horiz-adv-x="800" 
d="M10 373l128 135q27 28 43 52t16 47q0 20 -10.5 31.5t-31.5 11.5q-22 0 -35 -14.5t-17 -46.5h-85q3 63 40.5 97t100.5 34q64 0 96.5 -30.5t32.5 -78.5q0 -36 -19 -66t-51 -60l-58 -57h131v-68h-281v13zM634 715h77l-528 -715h-77zM626 -6q-74 0 -109 33t-37 87h83
q2 -23 15.5 -38.5t42.5 -15.5q27 0 40.5 12.5t13.5 34.5q0 45 -54 45h-28v58h27q52 0 52 43q0 18 -11 29t-34 11t-37 -12.5t-17 -35.5h-83q4 50 39.5 82.5t99.5 32.5q63 0 97 -27t34 -70q0 -30 -16.5 -49t-44.5 -28q31 -6 50.5 -27t19.5 -55q0 -51 -37 -80.5t-106 -29.5z
" />
    <glyph glyph-name="oneeighth" unicode="&#x215b;" horiz-adv-x="752" 
d="M107 625l-82 -51v78l94 63h82v-355h-94v265zM575 715h77l-528 -715h-77zM578 -6q-65 0 -105.5 26.5t-40.5 78.5q0 32 17 55t48 34q-23 10 -37 28t-14 45q0 24 10.5 42t29 31t42.5 19.5t51 6.5q55 0 93 -25.5t38 -72.5q0 -28 -14 -45.5t-38 -27.5q66 -23 66 -87
q0 -52 -40.5 -80t-105.5 -28zM578 59q23 0 38.5 13t15.5 38q0 23 -15.5 36t-38.5 13t-38.5 -13t-15.5 -37t15.5 -37t38.5 -13zM579 212q20 0 33 11.5t13 31.5t-13.5 31t-32.5 11q-20 0 -33.5 -11.5t-13.5 -31.5t14 -31t33 -11z" />
    <glyph glyph-name="threeeighths" unicode="&#x215c;" horiz-adv-x="787" 
d="M169 354q-74 0 -109 33t-37 87h83q2 -23 15.5 -38.5t42.5 -15.5q27 0 40.5 12.5t13.5 34.5q0 45 -54 45h-28v58h27q52 0 52 43q0 18 -11 29t-34 11t-37 -12.5t-17 -35.5h-83q4 50 39.5 82.5t99.5 32.5q63 0 97 -27t34 -70q0 -30 -16.5 -49t-44.5 -28q31 -6 50.5 -27
t19.5 -55q0 -51 -37 -80.5t-106 -29.5zM621 715h77l-528 -715h-77zM613 -6q-65 0 -105.5 26.5t-40.5 78.5q0 32 17 55t48 34q-23 10 -37 28t-14 45q0 24 10.5 42t29 31t42.5 19.5t51 6.5q55 0 93 -25.5t38 -72.5q0 -28 -14 -45.5t-38 -27.5q66 -23 66 -87q0 -52 -40.5 -80
t-105.5 -28zM613 59q23 0 38.5 13t15.5 38q0 23 -15.5 36t-38.5 13t-38.5 -13t-15.5 -37t15.5 -37t38.5 -13zM614 212q20 0 33 11.5t13 31.5t-13.5 31t-32.5 11q-20 0 -33.5 -11.5t-13.5 -31.5t14 -31t33 -11z" />
    <glyph glyph-name="fiveeighths" unicode="&#x215d;" horiz-adv-x="775" 
d="M162 354q-70 0 -103.5 32t-35.5 81h86q3 -20 13.5 -32t37.5 -12q24 0 37 15.5t13 41.5t-13.5 40.5t-37.5 14.5q-23 0 -36.5 -7.5t-22.5 -19.5h-62l7 207h238v-68h-171l-2 -87q11 14 30.5 25.5t53.5 11.5q49 0 79.5 -30.5t30.5 -85.5q0 -60 -38.5 -93.5t-103.5 -33.5z
M610 715h77l-528 -715h-77zM602 -6q-65 0 -105.5 26.5t-40.5 78.5q0 32 17 55t48 34q-23 10 -37 28t-14 45q0 24 10.5 42t29 31t42.5 19.5t51 6.5q55 0 93 -25.5t38 -72.5q0 -28 -14 -45.5t-38 -27.5q66 -23 66 -87q0 -52 -40.5 -80t-105.5 -28zM602 59q23 0 38.5 13
t15.5 38q0 23 -15.5 36t-38.5 13t-38.5 -13t-15.5 -37t15.5 -37t38.5 -13zM603 212q20 0 33 11.5t13 31.5t-13.5 31t-32.5 11q-20 0 -33.5 -11.5t-13.5 -31.5t14 -31t33 -11z" />
    <glyph glyph-name="seveneighths" unicode="&#x215e;" horiz-adv-x="745" 
d="M174 641h-153v74h270v-10l-129 -345h-94zM562 715h77l-528 -715h-77zM572 -6q-65 0 -105.5 26.5t-40.5 78.5q0 32 17 55t48 34q-23 10 -37 28t-14 45q0 24 10.5 42t29 31t42.5 19.5t51 6.5q55 0 93 -25.5t38 -72.5q0 -28 -14 -45.5t-38 -27.5q66 -23 66 -87
q0 -52 -40.5 -80t-105.5 -28zM572 59q23 0 38.5 13t15.5 38q0 23 -15.5 36t-38.5 13t-38.5 -13t-15.5 -37t15.5 -37t38.5 -13zM573 212q20 0 33 11.5t13 31.5t-13.5 31t-32.5 11q-20 0 -33.5 -11.5t-13.5 -31.5t14 -31t33 -11z" />
    <glyph glyph-name="minus" unicode="&#x2212;" horiz-adv-x="540" 
d="M37 389h467v-96h-467v96z" />
    <glyph glyph-name="approxequal" unicode="&#x2248;" horiz-adv-x="530" 
d="M41 148q6 74 41 108t81 34q29 0 57 -6.5t53.5 -14.5t48.5 -14.5t42 -6.5q17 0 30 11t15 34h79q-2 -36 -12.5 -63t-27 -44.5t-37 -26t-42.5 -8.5q-30 0 -58.5 6.5t-54 15t-48.5 15t-42 6.5q-17 0 -29.5 -11.5t-16.5 -34.5h-79zM41 342q6 74 41 108t81 34q29 0 57 -6.5
t53.5 -14.5t48.5 -14.5t42 -6.5q17 0 30 11t15 34h79q-2 -36 -12.5 -63t-27 -44.5t-37 -26t-42.5 -8.5q-30 0 -58.5 6.5t-54 15t-48.5 15t-42 6.5q-17 0 -29.5 -11.5t-16.5 -34.5h-79z" />
    <glyph glyph-name="notequal" unicode="&#x2260;" horiz-adv-x="513" 
d="M39 463h227l39 100h91l-39 -100h116v-92h-152l-36 -95h188v-91h-223l-39 -101h-91l39 101h-120v91h155l36 95h-191v92z" />
    <glyph glyph-name="lessequal" unicode="&#x2264;" horiz-adv-x="507" 
d="M49 341v26l398 213v-111l-223 -114l223 -115v-112zM49 89h398v-89h-398v89z" />
    <glyph glyph-name="greaterequal" unicode="&#x2265;" horiz-adv-x="507" 
d="M60 240l223 115l-223 114v111l399 -213v-26l-399 -213v112zM60 89h399v-89h-399v89z" />
    <glyph glyph-name="uni24C5" unicode="&#x24c5;" horiz-adv-x="843" 
d="M294 559h140q75 0 115 -32.5t40 -95.5v-3q0 -64 -40.5 -94.5t-109.5 -30.5h-49v-143h-96v399zM432 369q66 0 66 59v3q0 29 -17 42t-49 13h-42v-117h42zM421 32q64 0 122.5 24t102.5 67t70 103t26 133q0 72 -25 131.5t-68.5 102t-101.5 66.5t-124 24q-67 0 -125.5 -24
t-102 -67t-68.5 -103t-25 -132q0 -73 26 -133t70 -102.5t101.5 -66t121.5 -23.5zM421 -13q-78 0 -146 28.5t-118.5 78t-79.5 117t-29 146.5q0 78 29 145.5t79.5 117.5t119 79t147.5 29t147.5 -28.5t118.5 -78.5t78.5 -117.5t28.5 -144.5q0 -79 -29 -147t-80 -118
t-119.5 -78.5t-146.5 -28.5z" />
    <glyph glyph-name="zero.den" unicode="&#xe402;" horiz-adv-x="378" 
d="M190 66q68 0 68 107v11q0 105 -69 105q-68 0 -68 -106v-11q0 -106 69 -106zM188 -6q-76 0 -118.5 47.5t-42.5 129.5v11q0 42 12 75t33 56t51 35t66 12t65.5 -11.5t51 -34t33.5 -55t12 -74.5v-11q0 -83 -43 -131.5t-120 -48.5z" />
    <glyph glyph-name="one.den" unicode="&#xe403;" horiz-adv-x="254" 
d="M104 265l-82 -51v78l94 63h82v-355h-94v265z" />
    <glyph glyph-name="two.den" unicode="&#xe404;" horiz-adv-x="313" 
d="M7 13l128 135q27 28 43 52t16 47q0 20 -10.5 31.5t-31.5 11.5q-22 0 -35 -14.5t-17 -46.5h-85q3 63 40.5 97t100.5 34q64 0 96.5 -30.5t32.5 -78.5q0 -36 -19 -66t-51 -60l-58 -57h131v-68h-281v13z" />
    <glyph glyph-name="three.den" unicode="&#xe405;" horiz-adv-x="336" 
d="M166 -6q-74 0 -109 33t-37 87h83q2 -23 15.5 -38.5t42.5 -15.5q27 0 40.5 12.5t13.5 34.5q0 45 -54 45h-28v58h27q52 0 52 43q0 18 -11 29t-34 11t-37 -12.5t-17 -35.5h-83q4 50 39.5 82.5t99.5 32.5q63 0 97 -27t34 -70q0 -30 -16.5 -49t-44.5 -28q31 -6 50.5 -27
t19.5 -55q0 -51 -37 -80.5t-106 -29.5z" />
    <glyph glyph-name="four.den" unicode="&#xe406;" horiz-adv-x="348" 
d="M193 69h-178v34l154 252h113v-222h46v-64h-46v-69h-89v69zM195 133v157l-91 -157h91z" />
    <glyph glyph-name="five.den" unicode="&#xe407;" horiz-adv-x="328" 
d="M159 -6q-70 0 -103.5 32t-35.5 81h86q3 -20 13.5 -32t37.5 -12q24 0 37 15.5t13 41.5t-13.5 40.5t-37.5 14.5q-23 0 -36.5 -7.5t-22.5 -19.5h-62l7 207h238v-68h-171l-2 -87q11 14 30.5 25.5t53.5 11.5q49 0 79.5 -30.5t30.5 -85.5q0 -60 -38.5 -93.5t-103.5 -33.5z" />
    <glyph glyph-name="six.den" unicode="&#xe408;" horiz-adv-x="349" 
d="M181 -6q-42 0 -71.5 13t-47.5 35.5t-26.5 54t-8.5 69.5v9q0 89 45 137t116 48q57 0 90 -25.5t38 -76.5h-85q-3 15 -12.5 24.5t-30.5 9.5q-32 0 -49 -27t-19 -77q12 19 32.5 31t53.5 12q50 0 84 -29t34 -84q0 -56 -38 -90t-105 -34zM180 58q24 0 39 16t15 42t-14.5 41.5
t-39.5 15.5t-40 -15.5t-15 -39.5q0 -28 15 -44t40 -16z" />
    <glyph glyph-name="seven.den" unicode="&#xe409;" horiz-adv-x="298" 
d="M171 281h-153v74h270v-10l-129 -345h-94z" />
    <glyph glyph-name="eight.den" unicode="&#xe40a;" horiz-adv-x="340" 
d="M170 -6q-65 0 -105.5 26.5t-40.5 78.5q0 32 17 55t48 34q-23 10 -37 28t-14 45q0 24 10.5 42t29 31t42.5 19.5t51 6.5q55 0 93 -25.5t38 -72.5q0 -28 -14 -45.5t-38 -27.5q66 -23 66 -87q0 -52 -40.5 -80t-105.5 -28zM170 59q23 0 38.5 13t15.5 38q0 23 -15.5 36
t-38.5 13t-38.5 -13t-15.5 -37t15.5 -37t38.5 -13zM171 212q20 0 33 11.5t13 31.5t-13.5 31t-32.5 11q-20 0 -33.5 -11.5t-13.5 -31.5t14 -31t33 -11z" />
    <glyph glyph-name="nine.den" unicode="&#xe40b;" horiz-adv-x="349" 
d="M165 -6q-60 0 -95 27t-41 77h86q4 -16 14.5 -26t34.5 -10q33 0 48.5 26.5t16.5 75.5q-12 -18 -31.5 -29.5t-51.5 -11.5q-52 0 -86.5 28.5t-34.5 84.5q0 57 38.5 90.5t104.5 33.5q78 0 116 -46.5t38 -124.5v-14q0 -87 -40 -134t-117 -47zM168 181q25 0 40 15.5t15 38.5
q0 28 -15 44.5t-40 16.5q-24 0 -38.5 -16t-14.5 -42t14 -41.5t39 -15.5z" />
    <glyph glyph-name="zero.num" unicode="&#xe416;" horiz-adv-x="378" 
d="M190 426q68 0 68 107v11q0 105 -69 105q-68 0 -68 -106v-11q0 -106 69 -106zM188 354q-76 0 -118.5 47.5t-42.5 129.5v11q0 42 12 75t33 56t51 35t66 12t65.5 -11.5t51 -34t33.5 -55t12 -74.5v-11q0 -83 -43 -131.5t-120 -48.5z" />
    <glyph glyph-name="one.num" unicode="&#xe417;" horiz-adv-x="253" 
d="M104 625l-82 -51v78l94 63h82v-355h-94v265z" />
    <glyph glyph-name="two.num" unicode="&#xe418;" horiz-adv-x="313" 
d="M7 373l128 135q27 28 43 52t16 47q0 20 -10.5 31.5t-31.5 11.5q-22 0 -35 -14.5t-17 -46.5h-85q3 63 40.5 97t100.5 34q64 0 96.5 -30.5t32.5 -78.5q0 -36 -19 -66t-51 -60l-58 -57h131v-68h-281v13z" />
    <glyph glyph-name="three.num" unicode="&#xe419;" horiz-adv-x="336" 
d="M166 354q-74 0 -109 33t-37 87h83q2 -23 15.5 -38.5t42.5 -15.5q27 0 40.5 12.5t13.5 34.5q0 45 -54 45h-28v58h27q52 0 52 43q0 18 -11 29t-34 11t-37 -12.5t-17 -35.5h-83q4 50 39.5 82.5t99.5 32.5q63 0 97 -27t34 -70q0 -30 -16.5 -49t-44.5 -28q31 -6 50.5 -27
t19.5 -55q0 -51 -37 -80.5t-106 -29.5z" />
    <glyph glyph-name="four.num" unicode="&#xe41a;" horiz-adv-x="347" 
d="M193 429h-178v34l154 252h113v-222h46v-64h-46v-69h-89v69zM195 493v157l-91 -157h91z" />
    <glyph glyph-name="five.num" unicode="&#xe41b;" horiz-adv-x="327" 
d="M159 354q-70 0 -103.5 32t-35.5 81h86q3 -20 13.5 -32t37.5 -12q24 0 37 15.5t13 41.5t-13.5 40.5t-37.5 14.5q-23 0 -36.5 -7.5t-22.5 -19.5h-62l7 207h238v-68h-171l-2 -87q11 14 30.5 25.5t53.5 11.5q49 0 79.5 -30.5t30.5 -85.5q0 -60 -38.5 -93.5t-103.5 -33.5z" />
    <glyph glyph-name="six.num" unicode="&#xe41c;" horiz-adv-x="348" 
d="M181 354q-42 0 -71.5 13t-47.5 35.5t-26.5 54t-8.5 69.5v9q0 89 45 137t116 48q57 0 90 -25.5t38 -76.5h-85q-3 15 -12.5 24.5t-30.5 9.5q-32 0 -49 -27t-19 -77q12 19 32.5 31t53.5 12q50 0 84 -29t34 -84q0 -56 -38 -90t-105 -34zM180 418q24 0 39 16t15 42t-14.5 41.5
t-39.5 15.5t-40 -15.5t-15 -39.5q0 -28 15 -44t40 -16z" />
    <glyph glyph-name="seven.num" unicode="&#xe41d;" horiz-adv-x="298" 
d="M171 641h-153v74h270v-10l-129 -345h-94z" />
    <glyph glyph-name="eight.num" unicode="&#xe41e;" horiz-adv-x="340" 
d="M170 354q-65 0 -105.5 26.5t-40.5 78.5q0 32 17 55t48 34q-23 10 -37 28t-14 45q0 24 10.5 42t29 31t42.5 19.5t51 6.5q55 0 93 -25.5t38 -72.5q0 -28 -14 -45.5t-38 -27.5q66 -23 66 -87q0 -52 -40.5 -80t-105.5 -28zM170 419q23 0 38.5 13t15.5 38q0 23 -15.5 36
t-38.5 13t-38.5 -13t-15.5 -37t15.5 -37t38.5 -13zM171 572q20 0 33 11.5t13 31.5t-13.5 31t-32.5 11q-20 0 -33.5 -11.5t-13.5 -31.5t14 -31t33 -11z" />
    <glyph glyph-name="nine.num" unicode="&#xe41f;" horiz-adv-x="348" 
d="M165 354q-60 0 -95 27t-41 77h86q4 -16 14.5 -26t34.5 -10q33 0 48.5 26.5t16.5 75.5q-12 -18 -31.5 -29.5t-51.5 -11.5q-52 0 -86.5 28.5t-34.5 84.5q0 57 38.5 90.5t104.5 33.5q78 0 116 -46.5t38 -124.5v-14q0 -87 -40 -134t-117 -47zM168 541q25 0 40 15.5t15 38.5
q0 28 -15 44.5t-40 16.5q-24 0 -38.5 -16t-14.5 -42t14 -41.5t39 -15.5z" />
    <glyph glyph-name="f_i" unicode="&#xfb01;" horiz-adv-x="628" 
d="M93 432h-71v91h71v70q0 87 45 132t129 45q23 0 37.5 -2t28.5 -7v-94q-19 8 -51 8q-36 0 -52 -21.5t-16 -55.5v-75h119v-91h-119v-432h-121v432zM431 523h121v-523h-121v523zM490 609q-30 0 -51 20t-21 49q0 30 21 50t51 20t51 -20t21 -50q0 -29 -21 -49t-51 -20z" />
    <glyph glyph-name="f_l" unicode="&#xfb02;" horiz-adv-x="628" 
d="M93 432h-71v91h71v70q0 87 45 132t129 45q23 0 37.5 -2t28.5 -7v-94q-19 8 -51 8q-36 0 -52 -21.5t-16 -55.5v-75h119v-91h-119v-432h-121v432zM431 765h121v-765h-121v765z" />
    <glyph glyph-name="idotaccent" horiz-adv-x="271" 
d="M134 609q-30 0 -51 20t-21 49q0 30 21 50t51 20t51 -20t21 -50q0 -29 -21 -49t-51 -20zM75 523h121v-523h-121v523z" />
    <glyph glyph-name="space_uni0326" horiz-adv-x="404" 
d="M115 -198l52 165l111 -22l-92 -170z" />
    <glyph glyph-name="dollar.old" horiz-adv-x="621" 
d="M277 -9q-62 4 -106 23t-73 48.5t-43.5 68.5t-18.5 83h120q3 -24 9.5 -45t20 -38.5t35.5 -29t56 -15.5v220q-108 18 -163 62.5t-55 136.5q0 40 15.5 74.5t44 60.5t69 42t89.5 19v88h66v-89q94 -9 149.5 -57.5t64.5 -138.5h-114q-8 44 -31.5 69.5t-68.5 33.5v-200
q54 -9 96 -23.5t71 -37.5t44.5 -57.5t15.5 -83.5q0 -42 -15.5 -79.5t-44.5 -66t-71 -46.5t-96 -22v-122h-66v122zM450 193q0 21 -5 37t-17 28t-32.5 20.5t-52.5 15.5v-208q48 7 77.5 35.5t29.5 71.5zM174 515q0 -19 4 -34t15.5 -26.5t31.5 -20.5t52 -16v191q-51 -6 -77 -32
t-26 -62z" />
    <glyph glyph-name="Euro.old" horiz-adv-x="671" 
d="M27 438h68q7 57 28.5 105.5t56.5 84t83 55.5t108 20q111 0 177 -58.5t77 -168.5h-120q-9 62 -43.5 95t-91.5 33q-66 0 -103 -45t-46 -121h200l-12 -61h-191v-65h179l-11 -62h-165q9 -75 45.5 -116.5t105.5 -41.5q121 0 141 141h119q-13 -115 -80 -179t-182 -64
q-60 0 -107.5 19t-82.5 53.5t-56.5 82.5t-28.5 105h-68v62h65v65h-65v61z" />
    <glyph glyph-name="sterling.old" horiz-adv-x="607" 
d="M41 377h58q-7 26 -11 55t-4 62q0 48 18 86.5t49.5 65.5t74.5 41.5t93 14.5q109 0 166.5 -55t62.5 -148h-120q-9 51 -32.5 76.5t-74.5 25.5q-48 0 -78 -30t-30 -82q0 -31 3.5 -58.5t8.5 -53.5h194v-82h-177q5 -23 7.5 -47.5t2.5 -51.5q0 -17 -3.5 -32.5t-8.5 -29.5
q40 -11 75 -25t61 -14q35 0 55.5 16t22.5 57h113q-2 -38 -14 -70.5t-33.5 -56t-52 -37t-70.5 -13.5q-34 0 -63.5 9t-55.5 19.5t-49 19.5t-42 9q-29 0 -42 -15t-15 -33h-101q2 21 8.5 42.5t19 40.5t30.5 34t43 22q5 12 7.5 26t2.5 31q0 26 -4.5 50t-12.5 49h-82v82z" />
    <glyph glyph-name="yen.old" horiz-adv-x="586" 
d="M73 339h144l-196 355h139l143 -280l138 280h124l-187 -355h146v-61h-161v-66h161v-61h-161v-151h-129v151h-161v61h161v66h-161v61z" />
    <glyph glyph-name="zero.old" horiz-adv-x="655" 
d="M329 90q75 0 113.5 52.5t38.5 153.5v30q0 98 -39 151t-114 53t-114.5 -51.5t-39.5 -151.5v-32q0 -101 40 -153t115 -52zM328 -10q-63 0 -115 21t-89.5 60.5t-58 95.5t-20.5 126v32q0 71 20.5 127.5t58 95.5t89.5 60t115 21t114.5 -20.5t89 -59.5t58 -95t20.5 -126v-31
q0 -71 -20 -128t-57 -96.5t-89 -61t-116 -21.5z" />
    <glyph glyph-name="one.old" horiz-adv-x="406" 
d="M182 493l-148 -100v112l162 114h112v-619h-126v493z" />
    <glyph glyph-name="two.old" horiz-adv-x="559" 
d="M18 23l242 227q26 25 48 47.5t37.5 44t24.5 44t9 47.5q0 45 -27 71.5t-78 26.5t-83 -32t-41 -102h-114q3 52 21 95t49.5 73.5t75 47t97.5 16.5q52 0 94.5 -14t72 -39t45.5 -60t16 -77q0 -33 -12 -62.5t-32.5 -57.5t-48.5 -56t-61 -58l-116 -108h276v-97h-495v23z" />
    <glyph glyph-name="three.old" horiz-adv-x="604" 
d="M298 -105q-63 0 -111.5 17t-81.5 47.5t-51 73t-20 92.5h117q5 -59 38.5 -96t105.5 -37q71 0 103.5 33t32.5 89q0 116 -133 116h-53v91h49q63 0 91 29t28 79q0 47 -26.5 75t-81.5 28q-57 0 -91.5 -32t-41.5 -88h-113q2 45 20 85t49.5 69t77 46t102.5 17q54 0 96.5 -15
t71.5 -40.5t44 -60t15 -74.5q0 -60 -30.5 -98.5t-82.5 -58.5q63 -17 100 -58t37 -115q0 -48 -18 -87.5t-52 -67.5t-82 -43.5t-109 -15.5z" />
    <glyph glyph-name="four.old" horiz-adv-x="638" 
d="M385 51h-361v42l322 525h164v-477h97v-90h-97v-146h-125v146zM386 141v380l-224 -380h224z" />
    <glyph glyph-name="five.old" horiz-adv-x="586" 
d="M285 -105q-61 0 -106.5 16t-76.5 43.5t-47.5 66t-19.5 83.5h118q4 -24 12 -44.5t23 -35.5t38.5 -23t57.5 -8q60 0 94.5 39.5t34.5 105.5q0 63 -35 101t-93 38q-54 0 -89 -17t-59 -45h-64l5 404h424v-103h-326l-2 -204q22 24 60 40.5t93 16.5q46 0 85.5 -16t68 -45.5
t44.5 -72.5t16 -97q0 -56 -19 -100.5t-53 -76.5t-81 -49t-103 -17z" />
    <glyph glyph-name="six.old" horiz-adv-x="627" 
d="M322 -10q-76 0 -128 25t-84.5 69t-46.5 104t-14 129v32q0 91 21.5 161.5t59.5 118t91.5 72t116.5 24.5q96 0 155.5 -46.5t72.5 -139.5h-120q-10 42 -35 64.5t-76 22.5q-71 0 -113 -64.5t-45 -196.5q23 39 67 64.5t107 25.5q51 0 93 -16.5t73 -46t48 -71.5t17 -93
q0 -54 -18 -97.5t-52 -75t-82 -48.5t-108 -17zM322 85q60 0 96.5 38.5t36.5 101.5t-36 102t-98 39q-30 0 -55.5 -10t-43.5 -28t-28.5 -42.5t-10.5 -53.5q0 -70 39 -108.5t100 -38.5z" />
    <glyph glyph-name="seven.old" horiz-adv-x="542" 
d="M360 515h-334v103h496v-15l-277 -698h-133z" />
    <glyph glyph-name="eight.old" horiz-adv-x="612" 
d="M306 -10q-52 0 -99.5 13.5t-84 40t-58 66t-21.5 90.5q0 34 10.5 62.5t29.5 51t44 39t55 26.5q-50 20 -80.5 58t-30.5 94q0 46 19.5 82t52.5 61t75.5 38t88.5 13q47 0 89.5 -13t75 -38t51.5 -60.5t19 -80.5q0 -57 -31.5 -95t-80.5 -58q63 -22 101 -66t38 -110
q0 -52 -21 -92t-57 -67t-83.5 -41t-101.5 -14zM307 87q57 0 95.5 32.5t38.5 91.5q0 29 -10 51.5t-28 38t-42.5 23.5t-52.5 8t-52.5 -8t-43 -23.5t-29.5 -38.5t-11 -52t11 -52t29.5 -39t43 -24t51.5 -8zM309 419q49 0 80 28.5t31 79.5q0 47 -32.5 75.5t-80.5 28.5t-81 -28
t-33 -78q0 -25 9.5 -44.5t25 -33t36.5 -21t45 -7.5z" />
    <glyph glyph-name="nine.old" horiz-adv-x="627" 
d="M292 -105q-106 0 -167.5 51.5t-73.5 142.5h121q4 -20 13.5 -37.5t24.5 -30t36.5 -20t50.5 -7.5q82 0 116 63t37 198q-24 -39 -68 -65t-106 -26q-51 0 -93 16.5t-73 46t-48 71t-17 92.5q0 54 18 98t52 75.5t82 48.5t108 17q76 0 128 -25t84 -69.5t46 -105t14 -130.5v-30
q0 -182 -72 -278t-213 -96zM305 253q30 0 55.5 10t44 28t28.5 42.5t10 53.5q0 70 -38.5 108.5t-99.5 38.5q-60 0 -96.5 -38t-36.5 -101q0 -64 36 -103t97 -39z" />
    <glyph glyph-name="space.tab" horiz-adv-x="304" 
 />
    <glyph glyph-name="dollar.tab" 
d="M269 -9q-63 4 -107.5 23.5t-73.5 50t-44 70.5t-19 86h120q3 -25 9.5 -47t20 -40t36.5 -30t58 -16v226q-54 9 -95.5 25t-69.5 40.5t-42 59t-14 82.5q0 41 16 76.5t45 62t69.5 43t90.5 20.5v90h66v-91q96 -8 151.5 -59.5t64.5 -143.5h-115q-8 46 -32 72.5t-69 34.5v-206
q54 -9 97 -24t72 -39.5t44.5 -60t15.5 -86.5q0 -43 -15.5 -81t-44.5 -67.5t-71.5 -48t-97.5 -22.5v-126h-66v126zM444 199q0 21 -5 37.5t-17.5 29t-33.5 21.5t-53 16v-215q51 8 80 37t29 74zM164 531q0 -20 4.5 -35.5t16 -27.5t32 -21t52.5 -16v197q-52 -6 -78.5 -32.5
t-26.5 -64.5z" />
    <glyph glyph-name="cent.tab" 
d="M282 -8q-51 5 -93.5 25t-73.5 53.5t-48.5 80.5t-17.5 105v8q0 57 18 104t49 81.5t73.5 55.5t92.5 27v97h66v-97q39 -3 75 -16t64 -36.5t46.5 -58.5t23.5 -83h-115q-7 45 -32 69t-62 31v-356q40 8 69 36t34 77h109q-3 -42 -19.5 -77t-44 -62t-65 -43.5t-83.5 -20.5v-127
h-66v127zM171 256q0 -75 29.5 -118t81.5 -54v353q-50 -12 -80.5 -56.5t-30.5 -116.5v-8z" />
    <glyph glyph-name="Euro.tab" 
d="M14 453h56q3 63 22 113.5t52 86t78 54t101 18.5q99 0 158.5 -56.5t68.5 -169.5h-115q-8 63 -34.5 94.5t-77.5 31.5q-122 0 -131 -172h191l-12 -64h-179v-67h167l-12 -63h-155q5 -86 36 -126.5t97 -40.5q54 0 83 32.5t38 104.5h113q-9 -119 -71 -179t-166 -60
q-112 0 -178.5 69t-73.5 200h-56v63h56v67h-56v64z" />
    <glyph glyph-name="sterling.tab" 
d="M43 386h57q-7 28 -11.5 58t-4.5 65q0 50 18 90t49.5 67.5t74 42.5t91.5 15q108 0 164.5 -55t62.5 -153h-116q-9 54 -33 79.5t-75 25.5q-49 0 -79 -31t-30 -86q0 -32 3.5 -61t9.5 -57h192v-80h-176q4 -25 7 -50.5t3 -54.5q0 -34 -12 -61q40 -11 75.5 -26t61.5 -15
q35 0 56 16t23 58h109q-4 -81 -46.5 -131.5t-120.5 -50.5q-34 0 -63.5 9t-55 20.5t-48 20.5t-42.5 9q-28 0 -41 -15t-15 -35h-100q1 22 7.5 44t18.5 41.5t30 34.5t43 23q9 25 9 59q0 26 -5 52t-12 52h-79v80z" />
    <glyph glyph-name="yen.tab" 
d="M80 350h150l-192 365h138l135 -280l129 280h122l-182 -365h152v-64h-162v-67h162v-64h-162v-155h-130v155h-160v64h160v67h-160v64z" />
    <glyph glyph-name="florin.tab" 
d="M101 414h112l21 141q13 87 61 128t128 41q23 0 39.5 -2.5t33.5 -8.5v-95q-11 5 -26 7.5t-35 2.5q-38 0 -57 -22.5t-25 -59.5l-20 -132h135v-90h-148l-75 -506h-120l75 506h-99v90z" />
    <glyph glyph-name="zero.tab" 
d="M304 95q67 0 95.5 45t28.5 149v140q0 98 -30 145t-96 47q-67 0 -98.5 -47t-31.5 -150v-136q0 -105 33.5 -149t98.5 -44zM301 -10q-59 0 -106 19t-81 56t-52 92.5t-18 129.5v136q0 75 18.5 131t52 94t81 57t105.5 19t105 -18.5t80.5 -55t51.5 -92t18 -128.5v-140
q0 -148 -67 -224t-188 -76z" />
    <glyph glyph-name="one.tab" 
d="M290 582l-192 -145v116l199 162h126v-715h-133v582z" />
    <glyph glyph-name="two.tab" 
d="M35 24l259 285q51 57 79 106t28 101q0 50 -26.5 78t-75.5 28q-51 0 -81.5 -32.5t-38.5 -110.5h-123q3 56 20 101.5t48 77.5t75 49t103 17q112 0 172 -55.5t60 -149.5q0 -70 -40 -133.5t-104 -128.5l-153 -152h299v-105h-501v24z" />
    <glyph glyph-name="three.tab" 
d="M294 -10q-62 0 -109 16.5t-80 47t-50.5 73t-19.5 94.5h119q2 -29 10.5 -52.5t25 -41t41.5 -27t60 -9.5q69 0 99.5 31t30.5 84q0 117 -125 117h-55v95h52q60 0 88.5 27t28.5 77q0 44 -26 72.5t-80 28.5q-56 0 -90 -31.5t-39 -86.5h-115q2 47 20 87t49.5 69.5t76 46
t99.5 16.5q54 0 96.5 -15t72 -40.5t44.5 -60.5t15 -75q0 -61 -32 -99t-83 -57q61 -15 98 -58t37 -114q0 -50 -18 -90t-52 -67.5t-81.5 -42.5t-107.5 -15z" />
    <glyph glyph-name="four.tab" 
d="M362 145h-330v44l293 526h160v-474h79v-96h-79v-145h-123v145zM364 241v370l-202 -370h202z" />
    <glyph glyph-name="five.tab" 
d="M290 -10q-61 0 -106 15.5t-75.5 43.5t-46.5 68t-19 89h119q4 -26 11.5 -46.5t22 -35t37 -22.5t56.5 -8q60 0 93 39t33 107q0 63 -34 101t-93 38q-54 0 -87.5 -17t-56.5 -46h-66l5 399h422v-105h-322l-2 -195q21 24 58 42t91 18q48 0 88 -16.5t68 -47t43.5 -74t15.5 -97.5
q0 -58 -18.5 -104.5t-52.5 -78.5t-80.5 -49.5t-103.5 -17.5z" />
    <glyph glyph-name="six.tab" 
d="M310 -10q-74 0 -124.5 24.5t-82.5 68t-46 102.5t-14 129v36q0 92 21 162t59 117t90.5 71t115.5 24q93 0 151.5 -45.5t69.5 -142.5h-118q-9 42 -32.5 65t-74.5 23q-70 0 -112.5 -62t-44.5 -189q23 39 66 65t104 26q49 0 90.5 -16.5t71 -46.5t46 -72.5t16.5 -94.5
q0 -55 -17.5 -100t-50 -77t-79.5 -49.5t-105 -17.5zM308 90q59 0 95 38.5t36 101.5q0 65 -36 103t-96 38q-30 0 -54.5 -9.5t-42.5 -27t-28 -42t-10 -54.5q0 -72 38 -110t98 -38z" />
    <glyph glyph-name="seven.tab" 
d="M385 609h-327v106h494v-16l-273 -699h-135z" />
    <glyph glyph-name="eight.tab" 
d="M301 -10q-51 0 -97.5 13.5t-82.5 40t-57 66.5t-21 93q0 68 36 113.5t93 67.5q-48 20 -75 57.5t-27 90.5q0 46 19.5 81.5t51.5 60t73.5 37.5t86.5 13q46 0 88 -13t73.5 -37.5t50 -60t18.5 -79.5q0 -54 -28 -91t-75 -58q61 -23 95.5 -68t34.5 -111q0 -53 -20.5 -93.5
t-56 -67.5t-82 -41t-98.5 -14zM301 92q28 0 52 8t41.5 23.5t27.5 38t10 52.5q0 60 -37.5 90.5t-91.5 30.5q-27 0 -51 -8t-42.5 -23t-29 -38t-10.5 -53t10.5 -52.5t28.5 -37.5t42 -23t50 -8zM304 423q48 0 78 27.5t30 75.5q0 46 -31.5 74t-79.5 28q-46 0 -78 -27t-32 -75
q0 -49 33 -76t80 -27z" />
    <glyph glyph-name="nine.tab" 
d="M281 -9q-106 0 -166.5 50t-71.5 146h118q9 -45 36 -70.5t84 -25.5q75 0 113 61t40 189q-23 -40 -67 -65t-104 -25q-49 0 -90 16t-71 46t-47 72.5t-17 95.5q0 55 17.5 100t50 77t79 49.5t105.5 17.5q134 0 200.5 -82.5t66.5 -237.5v-56q0 -174 -72 -266t-204 -92zM293 345
q60 0 97.5 35t37.5 95q0 72 -38 111.5t-98 39.5q-59 0 -95 -38t-36 -102q0 -65 36 -103t96 -38z" />
    <glyph glyph-name="percent.tab" horiz-adv-x="800" 
d="M208 461q35 0 55 24t20 68q0 42 -20 67t-55 25q-34 0 -54 -24t-20 -68q0 -45 20 -68.5t54 -23.5zM208 383q-36 0 -67 13t-54 35.5t-36 53.5t-13 67q0 37 13.5 68t36.5 53.5t54 35.5t66 13t66 -12.5t54 -35t36.5 -53.5t13.5 -67q0 -37 -13 -68.5t-36 -54t-54 -35.5
t-67 -13zM586 715h84l-455 -715h-84zM592 69q35 0 54.5 23.5t19.5 67.5q0 43 -19.5 67.5t-54.5 24.5q-34 0 -54.5 -23.5t-20.5 -68.5t20.5 -68t54.5 -23zM592 -10q-36 0 -67 13t-54 35.5t-36 53.5t-13 67q0 37 13.5 68t36.5 53.5t54 35.5t66 13t66 -12.5t54 -34.5t36.5 -53
t13.5 -67q0 -37 -13 -68.5t-36 -54.5t-54 -36t-67 -13z" />
    <glyph glyph-name="perthousand.tab" horiz-adv-x="1000" 
d="M179 467q52 0 52 90q0 91 -52 91q-53 0 -53 -91q0 -90 53 -90zM178 392q-30 0 -55.5 11.5t-45 32.5t-30.5 51.5t-11 68.5q0 39 11.5 70t31 52t45.5 32.5t55 11.5t55 -11t45.5 -32t30.5 -51t11 -69t-11 -70t-30.5 -52.5t-45.5 -33t-56 -11.5zM529 715h83l-455 -715h-83z
M503 65q53 0 53 91q0 44 -13.5 67t-39.5 23q-52 0 -52 -90q0 -91 52 -91zM503 -10q-30 0 -56 11.5t-45 33t-30 52t-11 68.5q0 39 11.5 69.5t31 52t45 32.5t54.5 11q30 0 56 -11t45.5 -31.5t30.5 -51t11 -69.5t-11 -70t-30.5 -52.5t-45.5 -33t-56 -11.5zM822 65q52 0 52 91
q0 44 -13 67t-39 23q-53 0 -53 -90q0 -91 53 -91zM821 -10q-30 0 -56 11.5t-45 33t-30 52t-11 68.5q0 39 11.5 69.5t31 52t45.5 32.5t55 11t55 -11t45.5 -31.5t30.5 -51t11 -69.5t-11 -70t-30.5 -52.5t-45.5 -33t-56 -11.5z" />
    <glyph glyph-name="plus.tab" 
d="M250 294h-180v94h180v195h101v-195h180v-94h-180v-195h-101v195z" />
    <glyph glyph-name="minus.tab" 
d="M69 389h462v-96h-462v96z" />
    <glyph glyph-name="plusminus.tab" 
d="M250 332h-183v94h183v176h101v-176h182v-94h-182v-175h-101v175zM67 89h467v-89h-467v89z" />
    <glyph glyph-name="multiply.tab" 
d="M81 181l154 153l-155 154l66 67l154 -155l154 154l66 -66l-154 -154l155 -154l-67 -66l-154 155l-153 -154z" />
    <glyph glyph-name="divide.tab" 
d="M300 71q-32 0 -54 21.5t-22 53.5t22 53.5t54 21.5q31 0 53.5 -21.5t22.5 -53.5t-22.5 -53.5t-53.5 -21.5zM67 387h467v-91h-467v91zM300 461q-32 0 -54 21.5t-22 53.5t22 54t54 22q31 0 53.5 -22t22.5 -54t-22.5 -53.5t-53.5 -21.5z" />
    <glyph glyph-name="equal.tab" 
d="M86 276h428v-91h-428v91zM86 463h428v-92h-428v92z" />
    <glyph glyph-name="notequal.tab" 
d="M83 463h227l39 100h91l-39 -100h116v-92h-152l-36 -95h188v-91h-223l-39 -101h-91l39 101h-120v91h155l36 95h-191v92z" />
    <glyph glyph-name="approxequal.tab" 
d="M78 148q3 37 13.5 64t27 44t37.5 25.5t44 8.5q29 0 56.5 -6.5t52.5 -14.5t47.5 -14.5t42.5 -6.5q17 0 29.5 11t15.5 34h78q-2 -36 -12.5 -63t-27 -44.5t-37 -26t-42.5 -8.5q-30 0 -58 6.5t-53.5 15t-48 15t-41.5 6.5q-17 0 -29.5 -11.5t-16.5 -34.5h-78zM78 342
q3 37 13.5 64t27 44t37.5 25.5t44 8.5q29 0 56.5 -6.5t52.5 -14.5t47.5 -14.5t42.5 -6.5q17 0 29.5 11t15.5 34h78q-2 -36 -12.5 -63t-27 -44.5t-37 -26t-42.5 -8.5q-30 0 -58 6.5t-53.5 15t-48 15t-41.5 6.5q-17 0 -29.5 -11.5t-16.5 -34.5h-78z" />
    <glyph glyph-name="less.tab" 
d="M92 309v26l407 228v-112l-240 -128l240 -131v-111z" />
    <glyph glyph-name="greater.tab" 
d="M101 194l240 128l-240 131v111l407 -229v-25l-407 -229v113z" />
    <glyph glyph-name="lessequal.tab" horiz-adv-x="599" 
d="M95 341v26l398 213v-111l-223 -114l223 -115v-112zM95 89h398v-89h-398v89z" />
    <glyph glyph-name="greaterequal.tab" 
d="M106 240l223 115l-223 114v111l399 -213v-26l-399 -213v112zM106 89h399v-89h-399v89z" />
    <glyph glyph-name="period.tab" horiz-adv-x="299" 
d="M149 -7q-33 0 -56 22.5t-23 55.5t23 56t56 23q34 0 57 -23t23 -56t-23 -55.5t-57 -22.5z" />
    <glyph glyph-name="comma.tab" horiz-adv-x="300" 
d="M31 -90l91 237l115 -46l-131 -224z" />
    <glyph glyph-name="colon.tab" horiz-adv-x="299" 
d="M149 -7q-33 0 -56 22.5t-23 55.5t23 56t56 23q34 0 57 -23t23 -56t-23 -55.5t-57 -22.5zM149 285q-33 0 -56 23t-23 56t23 55.5t56 22.5q34 0 57 -22.5t23 -55.5t-23 -56t-57 -23z" />
    <glyph glyph-name="semicolon.tab" horiz-adv-x="303" 
d="M13 -90l91 237l114 -46l-131 -224zM159 285q-34 0 -57 23t-23 56t23 55.5t57 22.5q33 0 56.5 -22.5t23.5 -55.5t-23.5 -56t-56.5 -23z" />
    <glyph glyph-name="parenleft.tab" horiz-adv-x="300" 
d="M184 -148q-26 38 -51 85.5t-44.5 105t-31.5 125t-12 145.5t12 145.5t31.5 125t44.5 105t51 85.5h100q-24 -41 -46.5 -89t-39.5 -105.5t-27.5 -124t-10.5 -142.5q0 -77 10.5 -143.5t27.5 -123.5t39.5 -105.5t46.5 -88.5h-100v0z" />
    <glyph glyph-name="parenright.tab" horiz-adv-x="300" 
d="M16 -148q24 40 46.5 88.5t39.5 105.5t27.5 123.5t10.5 143.5q0 76 -10.5 142.5t-27.5 124t-39.5 105.5t-46.5 89h100q26 -38 51 -85.5t44.5 -105t31.5 -125t12 -145.5t-12 -145.5t-31.5 -125t-44.5 -105t-51 -85.5h-100v0z" />
    <glyph glyph-name="bracketleft.tab" horiz-adv-x="300" 
d="M60 776h212v-86h-98v-752h98v-86h-212v924z" />
    <glyph glyph-name="bracketright.tab" horiz-adv-x="300" 
d="M28 -62h98v752h-98v86h212v-924h-212v86z" />
    <glyph glyph-name="braceleft.tab" horiz-adv-x="300" 
d="M272 -147q-114 0 -163 51t-26 167l19 98q4 20 2.5 37t-10.5 30.5t-26.5 23t-45.5 15.5v82q28 5 45.5 14.5t26.5 23t10.5 30.5t-2.5 37l-19 98q-23 118 25.5 168t163.5 50v-84q-27 -1 -45.5 -7t-28 -20.5t-11.5 -39t4 -60.5l18 -108q10 -57 -16.5 -89.5t-81.5 -53.5
q55 -20 81.5 -53t16.5 -89l-18 -109q-6 -36 -4 -60.5t11.5 -39t28 -21t45.5 -7.5v-84v0z" />
    <glyph glyph-name="braceright.tab" horiz-adv-x="300" 
d="M28 -63q27 1 45.5 7.5t28 21t11.5 39t-4 60.5l-18 109q-10 56 16 89t82 53q-55 21 -81.5 53.5t-16.5 89.5l18 108q6 36 4 60.5t-11.5 39t-28 20.5t-45.5 7v84q115 0 163.5 -50t25.5 -168l-19 -98q-8 -41 8 -68t72 -37v-82q-56 -11 -72 -38.5t-8 -67.5l19 -98
q22 -116 -26.5 -167t-162.5 -51v84z" />
    <glyph glyph-name="dollar.oldtab" 
d="M269 -8q-61 4 -104.5 23t-72 48.5t-43 68t-17.5 82.5h117q3 -24 9.5 -45t20 -38.5t35 -29t55.5 -15.5v220q-106 18 -160 62.5t-54 136.5q0 40 15.5 74.5t43.5 60.5t67.5 42t87.5 19v88h65v-89q94 -8 148.5 -57t63.5 -139h-112q-9 45 -32 70t-68 33v-200q53 -9 95 -23
t71 -37.5t44 -58t15 -83.5q0 -42 -15.5 -79.5t-44.5 -66t-70.5 -46.5t-94.5 -22v-122h-65v123zM441 193q0 21 -5 37t-17 28t-33 20.5t-52 15.5v-208q49 7 78 35.5t29 71.5zM167 515q0 -19 4 -34t15.5 -26.5t31 -20.5t51.5 -16v190q-49 -5 -75.5 -31t-26.5 -62z" />
    <glyph glyph-name="Euro.oldtab" 
d="M31 439h54q7 125 71.5 194.5t173.5 69.5q97 0 154 -54.5t67 -164.5h-112q-8 61 -33.5 91.5t-75.5 30.5q-119 0 -127 -167h186l-11 -61h-175v-66h162l-11 -61h-151q5 -83 35.5 -122.5t93.5 -39.5q53 0 81 32t37 101h109q-8 -115 -68.5 -173.5t-160.5 -58.5
q-109 0 -173.5 67t-71.5 194h-54v61h54v66h-54v61z" />
    <glyph glyph-name="sterling.oldtab" 
d="M45 378h55q-7 26 -11 54.5t-4 60.5q0 49 18 87.5t49.5 65.5t74 41.5t90.5 14.5q104 0 160.5 -53.5t62.5 -148.5h-119q-8 52 -30 76.5t-72 24.5q-48 0 -76 -29t-28 -83q0 -31 3 -58t8 -53h185v-83h-169q4 -23 6.5 -47.5t2.5 -51.5q0 -33 -11 -61q38 -11 71 -25.5t59 -14.5
q34 0 54.5 16t22.5 57h111q-2 -39 -14 -72t-33.5 -56t-52 -36t-67.5 -13q-33 0 -61 9t-53 19.5t-46 19.5t-40 9q-28 0 -40.5 -14.5t-14.5 -33.5h-103q4 41 28 80.5t69 56.5q5 12 7.5 26.5t2.5 32.5q0 25 -5 49t-12 50h-78v83z" />
    <glyph glyph-name="yen.oldtab" 
d="M87 344h145l-187 350h134l132 -271l126 271h118l-177 -350h148v-61h-158v-66h158v-61h-158v-156h-126v156h-155v61h155v66h-155v61z" />
    <glyph glyph-name="zero.oldtab" 
d="M302 93q66 0 96.5 45t30.5 126v94q0 79 -31.5 125t-96.5 46q-66 0 -98 -45t-32 -126v-95q0 -81 33 -125.5t98 -44.5zM300 -10q-59 0 -106 19.5t-80 55.5t-50.5 86.5t-17.5 111.5v94q0 61 18.5 111.5t51.5 86t80 55t104 19.5t104 -19t80.5 -54t51.5 -85t18 -111v-95
q0 -62 -17.5 -112.5t-50.5 -86.5t-80 -56t-106 -20z" />
    <glyph glyph-name="one.oldtab" 
d="M297 493l-193 -135v112l206 149h113v-619h-126v493z" />
    <glyph glyph-name="two.oldtab" 
d="M42 23l241 227q53 50 84 91.5t31 91.5q0 45 -26.5 71.5t-76.5 26.5q-51 0 -81.5 -32t-39.5 -102h-114q4 52 21.5 95t48.5 73.5t73.5 47t96.5 16.5q52 0 94 -14t71.5 -39t45 -60t15.5 -77q0 -33 -11.5 -62.5t-32 -57.5t-48 -56t-60.5 -58l-116 -108h274v-97h-490v23z" />
    <glyph glyph-name="three.oldtab" 
d="M294 -105q-62 0 -109.5 17t-80 47.5t-49.5 73t-19 92.5h116q3 -29 12 -53.5t26 -42t42.5 -27.5t60.5 -10q69 0 101 33t32 88q0 117 -129 117h-52v91h49q60 0 88 29t28 80q0 45 -26 73.5t-81 28.5q-57 0 -90.5 -31.5t-39.5 -88.5h-113q2 45 20 85t49.5 69t76 46t99.5 17
q54 0 95.5 -14.5t70 -40t43.5 -60.5t15 -75q0 -61 -29.5 -99.5t-80.5 -57.5q61 -15 97.5 -57t36.5 -114q0 -50 -18.5 -89.5t-52 -68t-81.5 -43.5t-107 -15z" />
    <glyph glyph-name="four.oldtab" 
d="M358 51h-330v41l290 526h161v-477h86v-90h-86v-146h-121v146zM359 141v377l-205 -377h205z" />
    <glyph glyph-name="five.oldtab" 
d="M295 -105q-60 0 -104.5 15t-74.5 43t-45.5 66t-18.5 85h115q4 -25 12 -45.5t22.5 -35t37 -22.5t55.5 -8q60 0 93 39t33 106q0 63 -34 101t-91 38q-52 0 -86.5 -16.5t-57.5 -45.5h-63l5 404h413v-102h-316l-2 -205q20 23 56.5 40.5t90.5 17.5q46 0 85 -16t66.5 -46
t43 -72.5t15.5 -94.5q0 -57 -18.5 -102.5t-51.5 -77.5t-79 -49t-101 -17z" />
    <glyph glyph-name="six.oldtab" 
d="M312 -10q-68 0 -117 23t-80.5 64.5t-46.5 99t-15 126.5v60q0 87 19.5 154.5t55.5 113.5t86.5 70t112.5 24q90 0 149 -46t70 -140h-115q-9 42 -34 65t-74 23q-69 0 -107.5 -64t-40.5 -198q23 38 64 64t101 26q49 0 89 -16t68.5 -45t44 -71t15.5 -93q0 -54 -17 -98.5
t-49 -76t-77.5 -48.5t-101.5 -17zM312 86q55 0 91 37.5t36 100.5q0 66 -35.5 104t-92.5 38q-28 0 -52 -9.5t-42 -27t-28 -42t-10 -54.5q0 -36 10 -63t28 -46t42.5 -28.5t52.5 -9.5z" />
    <glyph glyph-name="seven.oldtab" 
d="M382 515h-326v103h492v-15l-284 -698h-133z" />
    <glyph glyph-name="eight.oldtab" 
d="M301 -10q-50 0 -95 13.5t-79.5 40t-55 66t-20.5 90.5q0 69 36.5 114t94.5 65q-49 20 -76.5 58t-27.5 94q0 46 18.5 82t49.5 61t71.5 38t84.5 13q45 0 85 -13t70.5 -38t48.5 -60.5t18 -80.5q0 -57 -29 -95t-77 -58q62 -22 97 -66t35 -110q0 -52 -20 -92t-54 -67t-79 -41
t-96 -14zM301 87q55 0 90.5 32t35.5 91t-35.5 90.5t-89.5 31.5q-26 0 -49.5 -8t-41 -24t-27.5 -38.5t-10 -52.5q0 -29 10 -51.5t27 -38.5t40.5 -24t49.5 -8zM303 419q47 0 75.5 28.5t28.5 79.5q0 47 -30 76t-75 29t-76 -28.5t-31 -77.5q0 -25 8.5 -45t23.5 -33.5t34.5 -21
t41.5 -7.5z" />
    <glyph glyph-name="nine.oldtab" 
d="M280 -106q-103 0 -161 51t-69 144h114q9 -41 35.5 -69t84.5 -28q74 0 106.5 63.5t34.5 195.5q-23 -38 -63 -62.5t-98 -24.5q-48 0 -88.5 15.5t-69.5 45t-45.5 71t-16.5 93.5q0 54 18 98t50 75.5t77.5 49t101.5 17.5q68 0 116.5 -22.5t79.5 -63.5t45.5 -98t14.5 -126v-65
q0 -174 -66 -267t-201 -93zM292 253q28 0 52 9.5t41 27.5t27 42.5t10 54.5q0 72 -37 109.5t-94 37.5q-27 0 -50.5 -10t-41 -28t-27 -44t-9.5 -57q0 -65 36 -103.5t93 -38.5z" />
    <glyph glyph-name="one.sup" horiz-adv-x="254" 
d="M104 683l-82 -51v78l94 63h82v-355h-94v265z" />
    <glyph glyph-name="two.sup" horiz-adv-x="313" 
d="M7 430l128 135q27 28 43 52t16 47q0 20 -10.5 31.5t-31.5 11.5q-22 0 -35 -14.5t-17 -46.5h-85q3 63 40.5 97t100.5 34q64 0 96.5 -30.5t32.5 -78.5q0 -36 -19 -66t-51 -60l-58 -57h131v-68h-281v13z" />
    <glyph glyph-name="three.sup" horiz-adv-x="336" 
d="M166 412q-74 0 -109 33t-37 87h83q2 -23 15.5 -38.5t42.5 -15.5q27 0 40.5 12.5t13.5 34.5q0 45 -54 45h-28v58h27q52 0 52 43q0 18 -11 29t-34 11t-37 -12.5t-17 -35.5h-83q4 50 39.5 82.5t99.5 32.5q63 0 97 -27t34 -70q0 -30 -16.5 -49t-44.5 -28q31 -6 50.5 -27
t19.5 -55q0 -51 -37 -80.5t-106 -29.5z" />
    <glyph glyph-name="a.alt" horiz-adv-x="623" 
d="M264 -10q-46 0 -87 17t-72 50.5t-49 82.5t-18 113v8q0 63 18.5 113.5t50 86t73.5 54.5t89 19q60 0 99 -25.5t62 -64.5v79h121v-523h-121v86q-11 -19 -28 -36.5t-39 -30.5t-47 -21t-52 -8zM293 86q29 0 55 10.5t45 32t30 54t11 76.5v8q0 88 -37 130t-98 42q-63 0 -100 -45
t-37 -130v-8q0 -86 38 -128t93 -42z" />
    <glyph glyph-name="t.alt" horiz-adv-x="354" 
d="M100 432h-78v91h78v115h121v-115h107v-91h-107v-432h-121v432z" />
    <glyph glyph-name="aacute.alt" horiz-adv-x="623" 
d="M264 -10q-46 0 -87 17t-72 50.5t-49 82.5t-18 113v8q0 63 18.5 113.5t50 86t73.5 54.5t89 19q60 0 99 -25.5t62 -64.5v79h121v-523h-121v86q-11 -19 -28 -36.5t-39 -30.5t-47 -21t-52 -8zM293 86q29 0 55 10.5t45 32t30 54t11 76.5v8q0 88 -37 130t-98 42q-63 0 -100 -45
t-37 -130v-8q0 -86 38 -128t93 -42zM316 756h134l-104 -155h-89z" />
    <glyph glyph-name="abreve.alt" horiz-adv-x="623" 
d="M264 -10q-46 0 -87 17t-72 50.5t-49 82.5t-18 113v8q0 63 18.5 113.5t50 86t73.5 54.5t89 19q60 0 99 -25.5t62 -64.5v79h121v-523h-121v86q-11 -19 -28 -36.5t-39 -30.5t-47 -21t-52 -8zM293 86q29 0 55 10.5t45 32t30 54t11 76.5v8q0 88 -37 130t-98 42q-63 0 -100 -45
t-37 -130v-8q0 -86 38 -128t93 -42zM307 606q-62 0 -101.5 39t-43.5 104h84q4 -27 18.5 -42.5t42.5 -15.5t44 15.5t21 42.5h82q-2 -32 -14 -58.5t-31.5 -45.5t-45.5 -29t-56 -10z" />
    <glyph glyph-name="acircumflex.alt" horiz-adv-x="623" 
d="M264 -10q-46 0 -87 17t-72 50.5t-49 82.5t-18 113v8q0 63 18.5 113.5t50 86t73.5 54.5t89 19q60 0 99 -25.5t62 -64.5v79h121v-523h-121v86q-11 -19 -28 -36.5t-39 -30.5t-47 -21t-52 -8zM293 86q29 0 55 10.5t45 32t30 54t11 76.5v8q0 88 -37 130t-98 42q-63 0 -100 -45
t-37 -130v-8q0 -86 38 -128t93 -42zM261 753h96l111 -151h-86l-75 68l-76 -68h-84z" />
    <glyph glyph-name="adieresis.alt" horiz-adv-x="623" 
d="M264 -10q-46 0 -87 17t-72 50.5t-49 82.5t-18 113v8q0 63 18.5 113.5t50 86t73.5 54.5t89 19q60 0 99 -25.5t62 -64.5v79h121v-523h-121v86q-11 -19 -28 -36.5t-39 -30.5t-47 -21t-52 -8zM293 86q29 0 55 10.5t45 32t30 54t11 76.5v8q0 88 -37 130t-98 42q-63 0 -100 -45
t-37 -130v-8q0 -86 38 -128t93 -42zM211 613q-27 0 -46.5 19t-19.5 46q0 26 19.5 45.5t46.5 19.5t46.5 -19.5t19.5 -45.5q0 -27 -19.5 -46t-46.5 -19zM409 613q-28 0 -47 19t-19 46q0 26 19 45.5t47 19.5q27 0 46.5 -19.5t19.5 -45.5q0 -27 -19.5 -46t-46.5 -19z" />
    <glyph glyph-name="agrave.alt" horiz-adv-x="623" 
d="M264 -10q-46 0 -87 17t-72 50.5t-49 82.5t-18 113v8q0 63 18.5 113.5t50 86t73.5 54.5t89 19q60 0 99 -25.5t62 -64.5v79h121v-523h-121v86q-11 -19 -28 -36.5t-39 -30.5t-47 -21t-52 -8zM293 86q29 0 55 10.5t45 32t30 54t11 76.5v8q0 88 -37 130t-98 42q-63 0 -100 -45
t-37 -130v-8q0 -86 38 -128t93 -42zM166 756h134l59 -155h-89z" />
    <glyph glyph-name="amacron.alt" horiz-adv-x="623" 
d="M264 -10q-46 0 -87 17t-72 50.5t-49 82.5t-18 113v8q0 63 18.5 113.5t50 86t73.5 54.5t89 19q60 0 99 -25.5t62 -64.5v79h121v-523h-121v86q-11 -19 -28 -36.5t-39 -30.5t-47 -21t-52 -8zM293 86q29 0 55 10.5t45 32t30 54t11 76.5v8q0 88 -37 130t-98 42q-63 0 -100 -45
t-37 -130v-8q0 -86 38 -128t93 -42zM168 712h280v-78h-280v78z" />
    <glyph glyph-name="aogonek.alt" horiz-adv-x="623" 
d="M486 -182q-50 0 -79.5 21.5t-29.5 59.5q0 34 24.5 59.5t56.5 41.5h-28v86q-11 -19 -28 -36.5t-39 -30.5t-47 -21t-52 -8q-46 0 -87 17t-72 50.5t-49 82.5t-18 113v8q0 63 18.5 113.5t50 86t73.5 54.5t89 19q60 0 99 -25.5t62 -64.5v79h121v-515q-37 -24 -53 -44.5
t-16 -40.5q0 -33 35 -33q25 0 43 9v-67q-13 -6 -30.5 -10t-43.5 -4zM293 86q29 0 55 10.5t45 32t30 54t11 76.5v8q0 88 -37 130t-98 42q-63 0 -100 -45t-37 -130v-8q0 -86 38 -128t93 -42z" />
    <glyph glyph-name="aring.alt" horiz-adv-x="623" 
d="M264 -10q-46 0 -87 17t-72 50.5t-49 82.5t-18 113v8q0 63 18.5 113.5t50 86t73.5 54.5t89 19q60 0 99 -25.5t62 -64.5v79h121v-523h-121v86q-11 -19 -28 -36.5t-39 -30.5t-47 -21t-52 -8zM293 86q29 0 55 10.5t45 32t30 54t11 76.5v8q0 88 -37 130t-98 42q-63 0 -100 -45
t-37 -130v-8q0 -86 38 -128t93 -42zM304 643q22 0 36 16t14 39q0 24 -14 39.5t-36 15.5t-36 -15.5t-14 -39.5q0 -23 14 -39t36 -16zM304 590q-23 0 -43 8.5t-35 23.5t-24 34.5t-9 41.5t9 41.5t24 34.5t35 23.5t43 8.5t43 -8.5t35 -23.5t24 -34.5t9 -41.5t-9 -41.5t-24 -34.5
t-35 -23.5t-43 -8.5z" />
    <glyph glyph-name="aringacute.alt" horiz-adv-x="623" 
d="M264 -10q-46 0 -87 17t-72 50.5t-49 82.5t-18 113v8q0 63 18.5 113.5t50 86t73.5 54.5t89 19q60 0 99 -25.5t62 -64.5v79h121v-523h-121v86q-11 -19 -28 -36.5t-39 -30.5t-47 -21t-52 -8zM293 86q29 0 55 10.5t45 32t30 54t11 76.5v8q0 88 -37 130t-98 42q-63 0 -100 -45
t-37 -130v-8q0 -86 38 -128t93 -42zM304 629q22 0 36 16t14 39q0 24 -14 39.5t-36 15.5t-36 -15.5t-14 -39.5q0 -23 14 -39t36 -16zM304 576q-23 0 -43 8.5t-35 23.5t-24 34.5t-9 41.5t9 41.5t24 34.5t35 23.5t43 8.5t43 -8.5t35 -23.5t24 -34.5t9 -41.5t-9 -41.5t-24 -34.5
t-35 -23.5t-43 -8.5zM318 963h136l-99 -135h-91z" />
    <glyph glyph-name="atilde.alt" horiz-adv-x="623" 
d="M264 -10q-46 0 -87 17t-72 50.5t-49 82.5t-18 113v8q0 63 18.5 113.5t50 86t73.5 54.5t89 19q60 0 99 -25.5t62 -64.5v79h121v-523h-121v86q-11 -19 -28 -36.5t-39 -30.5t-47 -21t-52 -8zM293 86q29 0 55 10.5t45 32t30 54t11 76.5v8q0 88 -37 130t-98 42q-63 0 -100 -45
t-37 -130v-8q0 -86 38 -128t93 -42zM365 606q-18 0 -33.5 6t-29 13.5t-25.5 14t-23 6.5q-14 0 -24 -11.5t-13 -28.5h-75q6 63 35.5 97t71.5 34q17 0 32.5 -6t29 -13.5t26 -13.5t24.5 -6q14 0 23.5 11t12.5 29h75q-6 -63 -35.5 -97.5t-71.5 -34.5z" />
    <glyph glyph-name="germandbls.alt" horiz-adv-x="645" 
d="M431 -9q-85 0 -134 42t-51 115h109q2 -32 20 -50.5t52 -18.5q31 0 49.5 16t18.5 54q0 17 -7 30t-20 23.5t-30 20t-36 20.5q-22 12 -43.5 25t-39 30t-28 38t-10.5 49q0 36 20.5 63.5t45.5 52t45.5 48t20.5 51.5q0 77 -96 77q-58 0 -91 -33.5t-33 -100.5v-543h-121v540
q0 54 18.5 96.5t51.5 72.5t78 46t98 16q46 0 85 -10.5t67.5 -31t44.5 -50t16 -67.5q0 -29 -10 -52t-25 -41.5t-33 -33.5t-33 -29t-25 -27.5t-10 -28.5q0 -9 6 -16.5t18 -16t31.5 -19.5t46.5 -27q22 -13 43 -29t37.5 -35.5t26.5 -44t10 -54.5q0 -41 -13.5 -72t-38 -52
t-58 -32t-73.5 -11z" />
    <glyph glyph-name="tbar.alt" horiz-adv-x="354" 
d="M22 336h78v96h-78v91h78v115h121v-115h107v-91h-107v-96h107v-75h-107v-261h-121v261h-78v75z" />
    <glyph glyph-name="tcaron.alt" horiz-adv-x="354" 
d="M100 432h-78v91h78v115h121v-115h107v-91h-107v-432h-121v432zM286 765h110l-49 -175h-71z" />
    <glyph glyph-name="tcommaaccent.alt" horiz-adv-x="354" 
d="M63 -198l52 165l111 -22l-92 -170zM100 432h-78v91h78v115h121v-115h107v-91h-107v-432h-121v432z" />
    <glyph glyph-name="space_uni0326.alt" horiz-adv-x="404" 
d="M137 610l92 169l70 -26l-51 -165z" />
    <glyph glyph-name="registered.alt" horiz-adv-x="843" 
d="M277 560h146q72 0 113.5 -29.5t41.5 -92.5v-2q0 -45 -23 -70t-57 -36l103 -169h-99l-92 152h-39v-152h-94v399zM419 377q65 0 65 55v3q0 29 -16.5 40.5t-47.5 11.5h-49v-110h48zM421 32q64 0 122.5 24t102.5 67t70 103t26 133q0 72 -25 131.5t-68.5 102t-101.5 66.5
t-124 24q-67 0 -125.5 -24t-102 -67t-68.5 -103t-25 -132q0 -73 26 -133t70 -102.5t101.5 -66t121.5 -23.5zM421 -13q-78 0 -146 28.5t-118.5 78t-79.5 117t-29 146.5q0 78 29 145.5t79.5 117.5t119 79t147.5 29t147.5 -28.5t118.5 -78.5t78.5 -117.5t28.5 -144.5
q0 -79 -29 -147t-80 -118t-119.5 -78.5t-146.5 -28.5z" />
    <glyph glyph-name="caron.alt" horiz-adv-x="400" 
d="M180 765h110l-49 -175h-71z" />
    <glyph glyph-name="questiondown.uc" horiz-adv-x="516" 
d="M340.011 462.016q0 -29.998 -8.99902 -53.9971q-9 -23.998 -23.499 -44.9971t-32.498 -39.498q-17.999 -18.498 -35.998 -36.4971q-27.998 -27.999 -48.9971 -54.4971q-20.998 -26.498 -20.998 -58.4961q0 -37.998 21.498 -60.9961q21.499 -22.999 67.4961 -22.999
q46.9971 0 76.9951 30.498t34.998 82.4951h115.993q-3 -48.9971 -20.999 -88.4941q-17.999 -39.498 -48.4971 -66.9961q-30.498 -27.499 -72.4951 -42.498q-41.998 -14.999 -91.9951 -14.999q-53.9961 0 -93.4941 13.499q-39.4971 13.5 -65.4961 37.498
q-25.998 23.999 -38.4971 55.9971t-12.499 67.9951q0 26.999 7.49902 48.9971q7.5 21.999 19.499 41.498t27.998 36.9971q15.999 17.499 32.998 33.498q17.999 16.999 34.998 33.498t30.498 33.498t22.499 35.498q8.99902 18.499 9.99902 39.4971v31.998h111.993v-37.9971z
M285.014 722q33.998 0 57.9971 -22.499q23.998 -22.499 23.998 -54.4971q0 -32.998 -23.998 -55.4961q-23.999 -22.499 -57.9971 -22.499q-32.998 0 -56.4961 22.499q-23.499 22.498 -23.499 55.4961q0 31.998 23.499 54.4971q23.498 22.499 56.4961 22.499z" />
    <glyph glyph-name="exclamdown.uc" horiz-adv-x="305" 
d="M153.01 722q32.9971 0 56.4961 -22.499q23.498 -22.499 23.498 -54.4971q0 -32.998 -23.498 -55.4961q-23.499 -22.499 -56.4961 -22.499q-33.998 0 -57.4971 22.499q-23.498 22.498 -23.498 55.4961q0 31.998 23.498 54.4971q23.499 22.499 57.4971 22.499z
M219.005 0.0439453h-134.991l18.999 499.969h97.9932z" />
    <glyph glyph-name="hyphen.uc" horiz-adv-x="380" 
d="M56 378h268v-103h-268v103z" />
    <glyph glyph-name="endash.uc" horiz-adv-x="532" 
d="M45 369h441v-84h-441v84z" />
    <glyph glyph-name="emdash.uc" horiz-adv-x="909" 
d="M45 369h819v-84h-819v84z" />
    <glyph glyph-name="guilsinglleft.uc" horiz-adv-x="316" 
d="M48 301l128 191h97l-123 -191l123 -191h-97z" />
    <glyph glyph-name="guilsinglright.uc" horiz-adv-x="316" 
d="M166 301l-123 191h97l128 -191l-128 -191h-97z" />
    <glyph glyph-name="guillemotleft.uc" horiz-adv-x="492" 
d="M48 301l128 191h95l-123 -191l123 -191h-95zM227 301l128 191h95l-123 -191l123 -191h-95z" />
    <glyph glyph-name="guillemotright.uc" horiz-adv-x="492" 
d="M166 301l-123 191h95l128 -191l-128 -191h-95zM344 301l-123 191h95l128 -191l-128 -191h-95z" />
    <glyph glyph-name="parenleft.uc" horiz-adv-x="335" 
d="M214 -98q-31 36 -60.5 83t-52.5 102.5t-37 119.5t-14 136q0 71 14 135.5t37 120t52.5 102.5t60.5 83h105q-29 -39 -56 -87.5t-47.5 -104.5t-33 -118.5t-12.5 -130.5t12.5 -131t33 -119t47.5 -104t56 -87h-105v0z" />
    <glyph glyph-name="parenright.uc" horiz-adv-x="335" 
d="M17 -98q28 39 55 87.5t47.5 104.5t33 118.5t12.5 130.5t-12.5 131t-33 119t-47.5 104t-55 87h104q31 -36 60.5 -83t52.5 -102.5t37 -119.5t14 -136q0 -71 -14 -135.5t-37 -120t-52.5 -102.5t-60.5 -83h-104v0z" />
    <glyph glyph-name="bracketleft.uc" horiz-adv-x="377" 
d="M79 780h256v-91h-134v-685h134v-92h-256v868z" />
    <glyph glyph-name="bracketright.uc" horiz-adv-x="377" 
d="M42 4h134v685h-134v91h256v-868h-256v92z" />
    <glyph glyph-name="braceleft.uc" horiz-adv-x="396" 
d="M354 -90q-126 0 -183.5 46.5t-40.5 158.5l12 84q3 21 0 39.5t-15 32.5t-34 22.5t-57 8.5v87q35 0 57 8.5t34 22.5t15 33t0 39l-12 84q-9 57 1.5 96t39 63t74.5 35t109 11v-90q-33 -1 -55.5 -6t-35.5 -18t-17 -34.5t1 -55.5l12 -98q7 -54 -20 -87t-80 -46q53 -12 80 -45.5
t20 -87.5l-12 -98q-5 -34 -1 -56t17 -34.5t35.5 -18t55.5 -6.5v-90v0z" />
    <glyph glyph-name="braceright.uc" horiz-adv-x="396" 
d="M42 0q33 1 55.5 6.5t35 18t16 34.5t-0.5 56l-12 98q-7 54 20.5 87.5t79.5 45.5q-52 13 -79.5 46t-20.5 87l12 98q4 34 0.5 55.5t-16 34.5t-35 18t-55.5 6v90q63 0 109 -11t74.5 -35t39 -63t1.5 -96l-13 -84q-3 -20 0 -39t15 -33t34 -22.5t57 -8.5v-87q-35 0 -57 -8.5
t-34 -22.5t-15 -32.5t0 -39.5l13 -84q16 -112 -41.5 -158.5t-182.5 -46.5v90z" />
    <glyph glyph-name="slash.uc" horiz-adv-x="415" 
d="M295 777h103l-283 -861h-102z" />
    <glyph glyph-name="backslash.uc" horiz-adv-x="415" 
d="M18 777h102l281 -861h-102z" />
    <glyph glyph-name="bar.uc" horiz-adv-x="259" 
d="M84 777h90v-861h-90v861z" />
    <glyph glyph-name="at.uc" horiz-adv-x="917" 
d="M460 -67q-99 0 -175.5 32t-129.5 87t-80.5 127.5t-27.5 152.5q0 93 34.5 170.5t93 133.5t135.5 87t163 31q87 0 160 -26.5t125.5 -74t82 -113t29.5 -143.5q0 -71 -18 -119.5t-46.5 -79t-63 -44t-68.5 -13.5q-61 0 -88.5 22t-35.5 60q-20 -38 -57 -62.5t-83 -24.5
q-72 0 -115 46.5t-43 127.5q0 50 15 92t41 72t61 47t75 17q51 0 77 -19t37 -44l7 55h108l-31 -254q-9 -72 44 -72q21 0 40.5 11t34.5 34t24 60t9 88q0 65 -22 118t-63.5 91t-100.5 59t-134 21t-138 -25t-109.5 -71.5t-72.5 -112t-26 -145.5q0 -68 21 -128t62.5 -105
t104 -71.5t145.5 -26.5q82 0 138.5 21t98.5 59h83q-21 -33 -53.5 -60.5t-74 -47t-90.5 -30t-103 -10.5zM439 219q20 0 39.5 9.5t34.5 27.5t24 44.5t9 60.5q0 46 -22.5 69.5t-64.5 23.5q-41 0 -69 -37t-28 -103q0 -44 21 -69.5t56 -25.5z" />
    <glyph glyph-name="grave.uc" horiz-adv-x="400" 
d="M65 901h136l53 -135h-91z" />
    <glyph glyph-name="dieresis.uc" horiz-adv-x="400" 
d="M94 777q-27 0 -46.5 19t-19.5 46t19.5 46t46.5 19t46.5 -19t19.5 -46t-19.5 -46t-46.5 -19zM305 777q-27 0 -46.5 19t-19.5 46t19.5 46t46.5 19t46.5 -19t19.5 -46t-19.5 -46t-46.5 -19z" />
    <glyph glyph-name="macron.uc" horiz-adv-x="400" 
d="M56 861h288v-81h-288v81z" />
    <glyph glyph-name="acute.uc" horiz-adv-x="400" 
d="M200 901h136l-99 -135h-91z" />
    <glyph glyph-name="circumflex.uc" horiz-adv-x="400" 
d="M149 901h104l108 -135h-88l-74 55l-75 -55h-86z" />
    <glyph glyph-name="caron.uc" horiz-adv-x="400" 
d="M38 901h88l75 -55l74 55h86l-110 -135h-105z" />
    <glyph glyph-name="breve.uc" horiz-adv-x="400" 
d="M199 761q-63 0 -102.5 38.5t-42.5 101.5h85q4 -26 18.5 -41t41.5 -15t42.5 15t20.5 41h84q-2 -31 -14 -57t-31.5 -44.5t-45.5 -28.5t-56 -10z" />
    <glyph glyph-name="dotaccent.uc" horiz-adv-x="400" 
d="M200 775q-30 0 -50.5 20t-20.5 49t20.5 48.5t50.5 19.5q29 0 50 -19.5t21 -48.5t-21 -49t-50 -20z" />
    <glyph glyph-name="ring.uc" horiz-adv-x="400" 
d="M200 807q22 0 36 15.5t14 39.5t-14 39.5t-36 15.5q-23 0 -36.5 -15.5t-13.5 -39.5t13.5 -39.5t36.5 -15.5zM200 753q-23 0 -43.5 8.5t-35.5 23.5t-24 34.5t-9 42.5q0 22 9 42t24 35t35.5 23.5t43.5 8.5t43.5 -8.5t35.5 -23.5t24 -35t9 -42q0 -23 -9 -42.5t-24 -34.5
t-35.5 -23.5t-43.5 -8.5z" />
    <glyph glyph-name="tilde.uc" horiz-adv-x="400" 
d="M258 768q-18 0 -33.5 6t-29.5 13.5t-26 13.5t-23 6q-14 0 -24 -11.5t-13 -28.5h-76q5 63 36 97t73 34q17 0 32.5 -6.5t29.5 -14t26.5 -13.5t24.5 -6q14 0 23.5 11.5t12.5 28.5h77q-6 -63 -37 -96.5t-73 -33.5z" />
    <glyph glyph-name="hungarumlaut.uc" horiz-adv-x="400" 
d="M112 901h118l-73 -135h-83zM282 901h118l-73 -135h-83z" />
    <glyph glyph-name="f.short" horiz-adv-x="349" 
d="M93 432h-71v91h71v70q0 87 45 132t129 45q23 0 37.5 -2t28.5 -7v-94q-19 8 -51 8q-36 0 -52 -21.5t-16 -55.5v-75h119v-91h-119v-432h-121v432z" />
    <glyph glyph-name="f_f.short" horiz-adv-x="654" 
d="M93 432h-71v91h71v63q0 88 45 132.5t130 44.5q22 0 37 -2.5t32 -7.5v-94q-11 4 -24 7t-30 3q-37 0 -53 -21.5t-16 -55.5v-69h184v70q0 87 45 132t129 45q22 0 37 -2t29 -7v-94q-20 8 -51 8q-37 0 -52.5 -21.5t-15.5 -55.5v-75h119v-91h-119v-432h-121v432h-184v-432h-121
v432z" />
    <glyph glyph-name="uni021B.alt" horiz-adv-x="358" 
d="M63 -198l52 165l111 -22l-92 -170zM100 432h-78v91h78v115h121v-115h107v-91h-107v-432h-121v432z" />
    <glyph glyph-name="semicolon.alt1" horiz-adv-x="297" 
d="M148 285q-33 0 -56 23t-23 56t23 55.5t56 22.5q34 0 57 -22.5t23 -55.5t-23 -56t-57 -23zM74 -45q68 7 69 52q-35 1 -54.5 19.5t-19.5 51.5q0 32 23 52t54 20q35 0 58.5 -23.5t23.5 -65.5v-18q0 -73 -42.5 -108t-111.5 -37v57z" />
    <glyph glyph-name="quotedblright.alt1" horiz-adv-x="437" 
d="M51 537q65 7 65 51q-32 1 -51.5 18.5t-19.5 48.5q0 30 21 48.5t52 18.5q34 0 56.5 -23t22.5 -62v-15q0 -68 -38.5 -103t-107.5 -37v55zM247 537q63 7 65 51q-33 1 -52 18.5t-19 48.5q0 30 21 48.5t51 18.5q35 0 57 -23t22 -62v-15q0 -68 -38 -103t-107 -37v55z" />
    <glyph glyph-name="quoteright.alt1" horiz-adv-x="242" 
d="M51 537q65 7 65 51q-32 1 -51.5 18.5t-19.5 48.5q0 30 21 48.5t52 18.5q34 0 56.5 -23t22.5 -62v-15q0 -68 -38.5 -103t-107.5 -37v55z" />
    <glyph glyph-name="quotedblleft.alt1" horiz-adv-x="437" 
d="M191 665q-64 -7 -66 -51q33 -2 52.5 -19t19.5 -49q0 -29 -21.5 -47.5t-51.5 -18.5q-34 0 -56.5 23t-22.5 62v15q0 68 38.5 102.5t107.5 36.5v-54zM386 665q-33 -4 -48.5 -17t-16.5 -34q33 -2 52 -19t19 -49q0 -29 -21 -47.5t-52 -18.5q-34 0 -56 23t-22 62v15
q0 68 38 102.5t107 36.5v-54z" />
    <glyph glyph-name="commaaccent.alt1alt" horiz-adv-x="400" 
d="M207 602q-29 0 -47 17.5t-18 49.5v10q0 54 30.5 80.5t88.5 29.5v-43q-56 -8 -57 -43q28 1 44.5 -12t16.5 -39q0 -22 -16 -36t-42 -14z" />
    <glyph glyph-name="quoteleft.alt1" horiz-adv-x="242" 
d="M191 665q-64 -7 -66 -51q33 -2 52.5 -19t19.5 -49q0 -29 -21.5 -47.5t-51.5 -18.5q-34 0 -56.5 23t-22.5 62v15q0 68 38.5 102.5t107.5 36.5v-54z" />
    <glyph glyph-name="quotedblbase.alt1" horiz-adv-x="437" 
d="M247 -26q63 7 65 52q-33 1 -52 18.5t-19 48.5q0 29 21 48t51 19q35 0 57 -23t22 -63v-15q0 -68 -38 -102.5t-107 -36.5v54zM51 -26q65 7 65 52q-32 1 -51.5 18.5t-19.5 48.5q0 29 21 48t52 19q34 0 56.5 -23t22.5 -63v-15q0 -68 -38.5 -102.5t-107.5 -36.5v54z" />
    <glyph glyph-name="commaaccent.alt1" horiz-adv-x="392" 
d="M144 -182q56 8 57 43q-29 -1 -45.5 12.5t-16.5 38.5q0 22 16.5 36t42.5 14q29 0 46.5 -17.5t17.5 -49.5v-10q0 -104 -118 -109v42z" />
    <glyph glyph-name="comma.alt1" horiz-adv-x="289" 
d="M69 -45q69 7 70 52q-35 2 -54.5 20t-19.5 51q0 32 23 52t54 20q35 0 58.5 -23.5t23.5 -65.5v-18q0 -73 -43 -108t-112 -37v57z" />
    <glyph glyph-name="tcommaaccent.altalt1" horiz-adv-x="354" 
d="M106 -182q56 8 57 43q-29 -1 -45.5 12.5t-16.5 38.5q0 22 16.5 36t42.5 14q29 0 46.5 -17.5t17.5 -49.5v-10q0 -104 -118 -109v42zM100 432h-78v91h78v115h121v-115h107v-91h-107v-432h-121v432z" />
    <glyph glyph-name="Scommaaccent.alt1" horiz-adv-x="636" 
d="M325 -10q-73 0 -125.5 17.5t-87 48t-52.5 73t-22 93.5h128q3 -27 11.5 -51t26 -42t47 -28.5t74.5 -10.5q60 0 97.5 30t37.5 80q0 25 -7 42.5t-24 30t-46 21.5t-72 16q-64 9 -111.5 23.5t-78.5 39t-46.5 60.5t-15.5 86q0 44 18 81.5t50.5 65t78.5 43t102 15.5
q116 0 182.5 -52t77.5 -155h-122q-10 57 -43 82t-95 25q-61 0 -92 -26t-31 -68q0 -22 5.5 -38.5t22 -29t45 -21.5t75.5 -16q63 -9 110.5 -23t80 -39t48.5 -61.5t16 -90.5q0 -47 -19 -87t-53.5 -70t-83 -47t-107.5 -17zM261 -182q56 8 57 43q-29 -1 -45.5 12.5t-16.5 38.5
q0 22 16.5 36t42.5 14q29 0 46.5 -17.5t17.5 -49.5v-10q0 -104 -118 -109v42z" />
    <glyph glyph-name="kcommaaccent.alt1" horiz-adv-x="540" 
d="M72 765h121v-472l187 230h132l-203 -240l220 -283h-140l-196 257v-257h-121v765zM227 -182q56 8 57 43q-29 -1 -45.5 12.5t-16.5 38.5q0 22 16.5 36t42.5 14q29 0 46.5 -17.5t17.5 -49.5v-10q0 -104 -118 -109v42z" />
    <glyph glyph-name="tcommaaccent.alt1" horiz-adv-x="369" 
d="M250 -9q-78 0 -118 40t-40 115v286h-70v91h70v115h121v-115h115v-91h-115v-275q0 -35 15.5 -51t44.5 -16q35 0 59 10v-96q-14 -5 -34 -9t-48 -4zM151 -182q56 8 57 43q-29 -1 -45.5 12.5t-16.5 38.5q0 22 16.5 36t42.5 14q29 0 46.5 -17.5t17.5 -49.5v-10
q0 -104 -118 -109v42z" />
    <glyph glyph-name="lcommaaccent.alt1" horiz-adv-x="271" 
d="M75 765h121v-765h-121v765zM78 -182q56 8 57 43q-29 -1 -45.5 12.5t-16.5 38.5q0 22 16.5 36t42.5 14q29 0 46.5 -17.5t17.5 -49.5v-10q0 -104 -118 -109v42z" />
    <glyph glyph-name="Rcommaaccent.alt1" horiz-adv-x="655" 
d="M82 715h240q59 0 108 -12.5t84.5 -38t55 -65t19.5 -94.5v-4q0 -42 -12.5 -74t-34 -55.5t-50.5 -38.5t-62 -24l201 -309h-144l-187 289h-85v-289h-133v715zM322 384q136 0 136 114v4q0 62 -36 86t-100 24h-107v-228h107zM275 -182q56 8 57 43q-29 -1 -45.5 12.5
t-16.5 38.5q0 22 16.5 36t42.5 14q29 0 46.5 -17.5t17.5 -49.5v-10q0 -104 -118 -109v42z" />
    <glyph glyph-name="quotesinglbase.alt1" horiz-adv-x="242" 
d="M51 -26q65 7 65 52q-32 1 -51.5 18.5t-19.5 48.5q0 29 21 48t52 19q34 0 56.5 -23t22.5 -63v-15q0 -68 -38.5 -102.5t-107.5 -36.5v54z" />
    <glyph glyph-name="Lcommaaccent.alt1" horiz-adv-x="551" 
d="M82 715h133v-609h305v-106h-438v715zM250 -182q56 8 57 43q-29 -1 -45.5 12.5t-16.5 38.5q0 22 16.5 36t42.5 14q29 0 46.5 -17.5t17.5 -49.5v-10q0 -104 -118 -109v42z" />
    <glyph glyph-name="Tcommaaccent.alt1" horiz-adv-x="584" 
d="M225 610h-199v105h532v-105h-199v-610h-134v610zM232 -182q56 8 57 43q-29 -1 -45.5 12.5t-16.5 38.5q0 22 16.5 36t42.5 14q29 0 46.5 -17.5t17.5 -49.5v-10q0 -104 -118 -109v42z" />
    <glyph glyph-name="Gcommaaccent.alt1" horiz-adv-x="775" 
d="M403 -10q-86 0 -152.5 27t-112 75.5t-69 115t-23.5 145.5v8q0 80 26.5 147t73.5 115.5t113 75.5t144 27q57 0 110 -13.5t94.5 -43t69 -75t34.5 -109.5h-133q-12 72 -57.5 104t-115.5 32q-53 0 -94 -18.5t-69 -53t-43 -82.5t-15 -107v-8q0 -57 13.5 -104.5t41 -81.5
t69 -53t97.5 -19q50 0 86 14t59 38.5t34.5 57.5t13.5 70h-180v100h311v-66q0 -74 -22.5 -133t-64.5 -100t-102.5 -63t-136.5 -22zM340 -182q56 8 57 43q-29 -1 -45.5 12.5t-16.5 38.5q0 22 16.5 36t42.5 14q29 0 46.5 -17.5t17.5 -49.5v-10q0 -104 -118 -109v42z" />
    <glyph glyph-name="gcommaaccent.alt1" horiz-adv-x="633" 
d="M295 -192q-62 0 -107 13t-75.5 36.5t-47.5 55t-22 69.5h122q8 -39 38.5 -60.5t90.5 -21.5q71 0 108.5 35t37.5 106v77q-11 -19 -28 -36.5t-39.5 -31t-48.5 -21.5t-55 -8q-49 0 -91.5 17.5t-73.5 50t-49 78.5t-18 103v7q0 55 17.5 102t49 81.5t74.5 54t94 19.5
q65 0 105 -26t63 -65v80h121v-484q-1 -116 -72.5 -173.5t-193.5 -57.5zM299 114q63 0 104 42.5t41 117.5v7q0 75 -37.5 116.5t-103.5 41.5q-68 0 -105 -44t-37 -116v-8q0 -36 10.5 -65.5t29 -49.5t44 -31t54.5 -11zM301 602q-29 0 -47 17.5t-18 49.5v10q0 54 30.5 80.5
t88.5 29.5v-43q-56 -8 -57 -43q28 1 44.5 -12t16.5 -39q0 -22 -16 -36t-42 -14z" />
    <glyph glyph-name="Kcommaaccent.alt1" horiz-adv-x="659" 
d="M82 715h133v-324l274 324h143l-296 -341l311 -374h-157l-275 334v-334h-133v715zM284 -182q56 8 57 43q-29 -1 -45.5 12.5t-16.5 38.5q0 22 16.5 36t42.5 14q29 0 46.5 -17.5t17.5 -49.5v-10q0 -104 -118 -109v42z" />
    <glyph glyph-name="scommaaccent.alt1" horiz-adv-x="494" 
d="M250 -10q-102 0 -158.5 44.5t-60.5 128.5h114q5 -40 27.5 -62t76.5 -22q49 0 71.5 17t22.5 50q0 32 -27 47t-85 25q-52 8 -88 20t-58.5 31t-32.5 45t-10 63q0 39 17 68.5t44.5 49t62.5 29.5t72 10q40 0 75.5 -8t62.5 -26.5t44.5 -49t22.5 -74.5h-112q-8 36 -29.5 53
t-63.5 17q-39 0 -61 -17t-22 -45q0 -14 5 -24.5t17.5 -18t33.5 -13.5t52 -11q46 -7 82.5 -17.5t61.5 -28t38.5 -45t13.5 -69.5q0 -80 -54 -123.5t-155 -43.5zM195 -182q56 8 57 43q-29 -1 -45.5 12.5t-16.5 38.5q0 22 16.5 36t42.5 14q29 0 46.5 -17.5t17.5 -49.5v-10
q0 -104 -118 -109v42z" />
    <glyph glyph-name="rcommaaccent.alt1" horiz-adv-x="397" 
d="M72 523h121v-98q25 50 64.5 77.5t105.5 28.5v-113q-40 0 -71.5 -7.5t-53.5 -24.5t-33.5 -44.5t-11.5 -69.5v-272h-121v523zM77 -182q56 8 57 43q-29 -1 -45.5 12.5t-16.5 38.5q0 22 16.5 36t42.5 14q29 0 46.5 -17.5t17.5 -49.5v-10q0 -104 -118 -109v42z" />
    <glyph glyph-name="ncommaaccent.alt1" horiz-adv-x="608" 
d="M72 523h121v-83q19 38 61.5 66t107.5 28q39 0 72 -12t57 -36.5t37 -63.5t13 -93v-329h-121v318q0 60 -25 87.5t-79 27.5q-51 0 -87 -31.5t-36 -93.5v-308h-121v523zM248 -182q56 8 57 43q-29 -1 -45.5 12.5t-16.5 38.5q0 22 16.5 36t42.5 14q29 0 46.5 -17.5t17.5 -49.5
v-10q0 -104 -118 -109v42z" />
    <glyph glyph-name="Ncommaaccent.alt1" horiz-adv-x="745" 
d="M82 715h159l301 -517v517h121v-715h-138l-322 548v-548h-121v715zM305 -182q56 8 57 43q-29 -1 -45.5 12.5t-16.5 38.5q0 22 16.5 36t42.5 14q29 0 46.5 -17.5t17.5 -49.5v-10q0 -104 -118 -109v42z" />
    </font>
</defs>
</svg>
