<?xml version="1.0" standalone="no"?>
<!DOCTYPE svg PUBLIC "-//W3C//DTD SVG 1.1//EN" "http://www.w3.org/Graphics/SVG/1.1/DTD/svg11.dtd" >
<svg xmlns="http://www.w3.org/2000/svg" xmlns:xlink="http://www.w3.org/1999/xlink" version="1.1">
<metadata>
Created by FontForge 20201107 at Sun Jan  7 04:35:28 2018
 By 
(C)2009 Commercial Type.
</metadata>
<defs>
<font id="GraphikApp-Bold" horiz-adv-x="600" >
  <font-face 
    font-family="Graphik App Bold"
    font-weight="700"
    font-stretch="normal"
    units-per-em="1000"
    panose-1="2 11 8 3 3 2 2 6 2 3"
    ascent="800"
    descent="-200"
    x-height="523"
    cap-height="715"
    bbox="-243 -232 1198 1137"
    underline-thickness="66"
    underline-position="-92"
    unicode-range="U+000D-FB02"
  />
<missing-glyph horiz-adv-x="519" 
 />
    <glyph glyph-name="f_f" unicode="ff" horiz-adv-x="716" 
d="M80 401h-66v122h66v40q0 97 55.5 144t148.5 47q25 0 44 -2.5t36 -7.5v-131q-10 3 -21.5 5t-26.5 2q-30 0 -44 -16t-14 -41v-40h152v46q0 49 14.5 85t41.5 60t65 35.5t84 11.5q25 0 44.5 -3t37.5 -8v-131q-10 3 -22 5t-27 2q-31 0 -45 -15.5t-14 -41.5v-46h106v-122h-106
v-401h-179v401h-152v-401h-178v401z" />
    <glyph glyph-name=".notdef" horiz-adv-x="519" 
 />
    <glyph glyph-name=".null" horiz-adv-x="0" 
 />
    <glyph glyph-name="nonmarkingreturn" unicode="&#xd;" horiz-adv-x="197" 
 />
    <glyph glyph-name="NULL" horiz-adv-x="0" 
 />
    <glyph glyph-name="NULL" horiz-adv-x="0" 
 />
    <glyph glyph-name="space" unicode=" " horiz-adv-x="197" 
 />
    <glyph glyph-name="exclam" unicode="!" horiz-adv-x="334" 
d="M167 -11q-45 0 -75.5 28.5t-30.5 70.5t30.5 71t75.5 29q22 0 41.5 -8t34.5 -21q14 -14 22.5 -32t8.5 -39t-8.5 -39t-22.5 -31q-15 -14 -34.5 -21.5t-41.5 -7.5zM66 715h202l-27 -480h-148z" />
    <glyph glyph-name="quotedbl" unicode="&#x22;" horiz-adv-x="462" 
d="M41 715h168l-21 -275h-127zM253 715h169l-21 -275h-127z" />
    <glyph glyph-name="numbersign" unicode="#" horiz-adv-x="576" 
d="M291 241h-62l-21 -142h-121l21 142h-69v141h90l11 76h-77v134h97l18 123h121l-18 -123h62l19 123h121l-19 -123h72v-134h-92l-11 -76h79v-141h-100l-21 -142h-121zM250 382h62l11 76h-62z" />
    <glyph glyph-name="dollar" unicode="$" horiz-adv-x="647" 
d="M288 -10q-130 9 -194.5 73t-69.5 163h185q4 -35 20.5 -60t58.5 -34v146q-65 9 -112 26.5t-77 44.5t-44.5 65.5t-14.5 90.5q0 45 17 83.5t50 67.5q32 28 78 46t103 22v89h78v-90q109 -9 171.5 -61t71.5 -155h-181q-5 29 -18 48t-44 27v-138q57 -8 104 -23t80 -40
q33 -26 51 -64t18 -92q0 -46 -15 -87t-46 -72q-31 -32 -79 -52t-113 -24v-125h-78v125zM433 203q0 25 -13.5 39t-53.5 23v-133q33 7 50 25.5t17 45.5zM220 520q0 -26 13.5 -41t54.5 -23v128q-34 -6 -51 -23t-17 -41z" />
    <glyph glyph-name="percent" unicode="%" horiz-adv-x="827" 
d="M215 468q28 0 42.5 21t14.5 56t-14.5 55.5t-42.5 20.5t-43.5 -20t-15.5 -55q0 -38 15.5 -58t43.5 -20zM214 364q-44 0 -79 14t-59 38q-25 24 -38 57t-13 72q0 38 14.5 70.5t40.5 56.5q25 24 59.5 37.5t75.5 13.5q40 0 74.5 -13t60.5 -36q25 -24 39.5 -56t14.5 -70
q0 -39 -13.5 -72.5t-37.5 -58.5q-25 -25 -60.5 -39t-78.5 -14zM614 715h98l-496 -715h-98zM613 93q29 0 43.5 20.5t14.5 56.5q0 35 -14.5 55t-43.5 20q-27 0 -42.5 -20t-15.5 -55q0 -38 15.5 -57.5t42.5 -19.5zM612 -12q-44 0 -79 14t-59 38q-25 24 -38 57t-13 72
q0 38 14.5 70.5t40.5 56.5q25 24 59.5 37.5t75.5 13.5q40 0 75 -13t60 -36t39.5 -55t14.5 -71t-13.5 -72.5t-37.5 -58.5q-25 -25 -60.5 -39t-78.5 -14z" />
    <glyph glyph-name="ampersand" unicode="&#x26;" horiz-adv-x="762" 
d="M632 146l119 -146h-233l-42 52q-34 -27 -78.5 -45.5t-114.5 -18.5q-57 0 -103.5 14.5t-78.5 42.5q-33 28 -51 68t-18 91q0 69 40.5 120.5t116.5 87.5q-23 33 -33.5 66t-10.5 59q0 46 18 81t50 59q31 23 73 35t89 12q43 0 82 -10.5t69 -31.5t48 -52.5t18 -72.5
q0 -57 -35.5 -101.5t-107.5 -75.5l90 -110l52 102h156zM314 137q21 0 38.5 7.5t31.5 22.5l-113 136q-20 -12 -34 -30t-14 -47q0 -39 23 -64t68 -25zM321 535q0 -20 11 -39t30 -41q36 17 53.5 39t17.5 48q0 24 -14.5 39.5t-38.5 15.5q-26 0 -42.5 -16.5t-16.5 -45.5z" />
    <glyph glyph-name="quotesingle" unicode="'" horiz-adv-x="256" 
d="M41 715h175l-21 -275h-134z" />
    <glyph glyph-name="parenleft" unicode="(" horiz-adv-x="356" 
d="M204 -148q-29 35 -58.5 80t-53.5 102t-39 126.5t-15 152.5q0 84 15 153.5t39 126.5t53.5 102t58.5 80h140q-25 -38 -49 -85.5t-43 -104.5q-19 -58 -31 -125.5t-12 -146.5q0 -78 12 -145.5t31 -124.5q19 -58 43 -105.5t49 -85.5h-140z" />
    <glyph glyph-name="parenright" unicode=")" horiz-adv-x="356" 
d="M11 -147q25 38 49.5 85.5t43.5 105.5q19 57 30.5 124.5t11.5 146.5q0 78 -11.5 145.5t-30.5 125.5q-19 57 -43.5 104.5t-49.5 85.5h140q29 -35 59 -80t54 -102t39 -126t15 -153t-15 -153.5t-39 -126.5t-54 -102t-59 -80h-140z" />
    <glyph glyph-name="asterisk" unicode="*" horiz-adv-x="440" 
d="M57 447l89 90l-117 13l34 123l110 -53l-24 123h143l-24 -123l109 53l35 -123l-118 -13l89 -90l-107 -77l-56 115l-55 -115z" />
    <glyph glyph-name="plus" unicode="+" horiz-adv-x="570" 
d="M213 275h-176v130h176v192h144v-192h176v-130h-176v-192h-144v192z" />
    <glyph glyph-name="comma" unicode="," horiz-adv-x="306" 
d="M16 -81l84 263l166 -59l-144 -245z" />
    <glyph glyph-name="hyphen" unicode="-" horiz-adv-x="382" 
d="M51 353h280v-135h-280v135z" />
    <glyph glyph-name="period" unicode="." horiz-adv-x="299" 
d="M148 -11q-22 0 -41 8t-32 22q-14 13 -21.5 31.5t-7.5 39.5t7.5 39.5t21.5 32.5q13 13 32 21t41 8t41.5 -8t33.5 -21q14 -14 22 -32.5t8 -39.5t-8 -39.5t-22 -31.5q-14 -14 -33.5 -22t-41.5 -8z" />
    <glyph glyph-name="slash" unicode="/" horiz-adv-x="434" 
d="M293 776h143l-318 -924h-142z" />
    <glyph glyph-name="zero" unicode="0" horiz-adv-x="732" 
d="M368 147q66 0 94.5 48.5t28.5 148.5v29q0 99 -29.5 148t-95.5 49q-65 0 -95 -48.5t-30 -148.5v-30q0 -100 30.5 -148t96.5 -48zM362 -12q-75 0 -135.5 23.5t-102.5 69.5q-42 45 -65 111t-23 150v30q0 85 25 150.5t69 110.5t104.5 68.5t131.5 23.5q70 0 130.5 -22
t105.5 -65q44 -44 69 -109.5t25 -152.5v-28q0 -85 -23.5 -152t-66.5 -113q-44 -46 -106 -70.5t-138 -24.5z" />
    <glyph glyph-name="one" unicode="1" horiz-adv-x="450" 
d="M168 513l-136 -84v171l164 115h177v-715h-205v513z" />
    <glyph glyph-name="two" unicode="2" horiz-adv-x="615" 
d="M8 29l250 265q54 57 86 104.5t32 92.5q0 36 -19 58t-57 22t-61.5 -26t-30.5 -90h-186q5 134 81.5 202t206.5 68q66 0 116 -17t84 -47q33 -30 50.5 -71.5t17.5 -90.5q0 -37 -10 -69.5t-27 -62.5q-18 -31 -43 -59.5t-55 -57.5l-100 -97h240v-153h-575v29z" />
    <glyph glyph-name="three" unicode="3" horiz-adv-x="652" 
d="M326 -12q-149 0 -221.5 65.5t-76.5 181.5h182q5 -45 28 -72t77 -27q48 0 71 21.5t23 59.5q0 42 -23.5 63t-70.5 21h-57v127h53q48 0 71.5 20.5t23.5 58.5q0 32 -20.5 51.5t-61.5 19.5q-42 0 -65.5 -23.5t-29.5 -67.5h-181q3 53 22.5 96.5t54.5 75.5q35 31 86 48.5
t118 17.5q63 0 113 -14t85 -39q34 -26 52.5 -62t18.5 -81q0 -60 -32 -98.5t-89 -55.5q62 -13 100.5 -54.5t38.5 -107.5q0 -102 -74 -163.5t-216 -61.5z" />
    <glyph glyph-name="four" unicode="4" horiz-adv-x="678" 
d="M366 137h-348v77l298 501h247v-437h92v-141h-92v-137h-197v137zM371 278v283l-160 -283h160z" />
    <glyph glyph-name="five" unicode="5" horiz-adv-x="631" 
d="M307 -12q-71 0 -123 18t-86 50q-35 32 -52.5 75.5t-19.5 93.5h186q3 -19 8.5 -34t16.5 -26q10 -11 26.5 -17t41.5 -6q45 0 65.5 29t20.5 72q0 48 -25 75t-72 27q-44 0 -72 -15t-46 -36h-122l15 421h482v-150h-334l-4 -158q20 29 60 52.5t107 23.5q49 0 89 -16t69 -47
q28 -31 43.5 -76.5t15.5 -103.5q0 -57 -20 -103.5t-57 -79.5q-38 -33 -91.5 -51t-121.5 -18z" />
    <glyph glyph-name="six" unicode="6" horiz-adv-x="674" 
d="M351 -12q-86 0 -145.5 26t-97.5 73q-38 46 -55 110t-17 141v19q0 87 24.5 155.5t67.5 116.5q43 47 102 71.5t127 24.5q121 0 190.5 -52.5t80.5 -158.5h-188q-5 26 -21.5 43t-54.5 17q-59 0 -90.5 -49t-34.5 -140q24 37 62.5 60t104.5 23q49 0 92 -14.5t75 -43.5t51 -72
t19 -99q0 -57 -20 -103t-57 -79q-38 -33 -92.5 -51t-122.5 -18zM349 133q43 0 69 29t26 75q0 45 -25 74t-70 29t-71 -29t-26 -72q0 -48 26 -77t71 -29z" />
    <glyph glyph-name="seven" unicode="7" horiz-adv-x="576" 
d="M312 549h-288v166h544v-21l-248 -694h-208z" />
    <glyph glyph-name="eight" unicode="8" horiz-adv-x="657" 
d="M328 -12q-68 0 -123 14t-94 41t-60 67t-21 92q0 62 33 107t97 68q-47 21 -73.5 57.5t-26.5 90.5q0 48 21.5 85t58.5 63q37 25 86 38.5t104 13.5q57 0 106.5 -13t85.5 -38q36 -26 57 -63t21 -85q0 -55 -27.5 -91t-73.5 -57q64 -22 96 -66t32 -105q0 -52 -21.5 -92.5
t-60.5 -68.5t-94 -43t-123 -15zM329 132q43 0 70 24t27 67t-26.5 67t-69.5 24q-42 0 -70 -23.5t-28 -67.5q0 -43 27.5 -67t69.5 -24zM331 430q35 0 59.5 21t24.5 58q0 36 -25 57t-60 21t-59.5 -21t-24.5 -57q0 -37 25 -58t60 -21z" />
    <glyph glyph-name="nine" unicode="9" horiz-adv-x="675" 
d="M322 -11q-128 0 -199.5 55t-82.5 158h188q5 -27 23.5 -44t60.5 -17q64 0 92.5 47t30.5 139q-23 -37 -59.5 -60.5t-102.5 -23.5q-51 0 -95.5 14.5t-76.5 44.5q-33 29 -51.5 72t-18.5 100q0 56 20.5 102.5t58.5 79.5t92.5 51.5t122.5 18.5q80 0 139 -25.5t98 -71.5
q38 -47 57 -111t19 -142v-24q0 -175 -81 -269t-235 -94zM322 375q45 0 71.5 28.5t26.5 71.5q0 48 -26.5 77.5t-71.5 29.5q-43 0 -69 -29.5t-26 -75.5q0 -45 25 -73.5t70 -28.5z" />
    <glyph glyph-name="colon" unicode=":" horiz-adv-x="305" 
d="M151 -11q-22 0 -40.5 8t-31.5 22q-14 13 -22 31.5t-8 39.5t8 39.5t22 32.5q13 13 31.5 21t40.5 8t41.5 -8t33.5 -21q14 -14 22 -32.5t8 -39.5t-8 -39.5t-22 -31.5q-14 -14 -33.5 -22t-41.5 -8zM151 275q-44 0 -73 29t-29 72q0 21 8 39.5t22 32.5q13 13 31.5 21t40.5 8
t41.5 -8t33.5 -21q14 -14 22 -32.5t8 -39.5q0 -43 -30 -72t-75 -29z" />
    <glyph glyph-name="semicolon" unicode=";" horiz-adv-x="321" 
d="M10 -81l83 263l166 -59l-143 -245zM174 275q-45 0 -73.5 29t-28.5 72q0 21 7.5 39.5t21.5 32.5q13 13 32 21t41 8t41.5 -8t33.5 -21q14 -14 22 -32.5t8 -39.5q0 -43 -30 -72t-75 -29z" />
    <glyph glyph-name="less" unicode="&#x3c;" horiz-adv-x="513" 
d="M42 305v34l421 246v-162l-190 -100l190 -106v-158z" />
    <glyph glyph-name="equal" unicode="=" horiz-adv-x="557" 
d="M39 289h479v-122h-479v122zM39 486h479v-122h-479v122z" />
    <glyph glyph-name="greater" unicode="&#x3e;" horiz-adv-x="513" 
d="M49 223l191 99l-191 106v158l422 -246v-34l-422 -246v163z" />
    <glyph glyph-name="question" unicode="?" horiz-adv-x="556" 
d="M169 254q0 28 9 52t23 44t31.5 37.5l34.5 34.5q26 25 45.5 48.5t19.5 49.5q0 30 -15 45t-46 15q-32 0 -53 -23t-26 -65h-174q2 57 22 100.5t56 73.5q35 29 83 44t106 15q116 0 178.5 -49t62.5 -139q0 -50 -21.5 -85.5t-51.5 -64.5q-18 -18 -37 -35t-35 -33
q-17 -17 -28.5 -34t-14.5 -35v-15h-169v19zM254 -11q-23 0 -42.5 7.5t-33.5 21.5q-15 13 -23.5 31t-8.5 39t8.5 39t23.5 32q14 13 33.5 21t42.5 8q22 0 41 -8t34 -21q14 -14 22.5 -32t8.5 -39t-8.5 -39t-22.5 -31q-15 -14 -34 -21.5t-41 -7.5z" />
    <glyph glyph-name="at" unicode="@" horiz-adv-x="921" 
d="M460 -158q-101 0 -181.5 32t-135.5 87q-56 56 -85.5 130.5t-29.5 159.5q0 99 37.5 180.5t99.5 139.5q62 57 143.5 88.5t170.5 31.5t164.5 -26t131.5 -74q55 -48 86 -115t31 -149q0 -75 -18.5 -127t-48.5 -85q-31 -33 -70 -48t-79 -15q-66 0 -101 21t-46 61
q-20 -40 -53 -62t-81 -22q-74 0 -118.5 49.5t-44.5 136.5q0 53 15.5 96.5t42.5 74.5q27 30 63 47t77 17q47 0 72.5 -17.5t36.5 -42.5l7 52h147l-34 -273q-4 -32 6.5 -49t37.5 -17q21 0 40.5 11.5t34.5 36.5q15 24 24.5 63t9.5 94q0 65 -23.5 119t-66.5 93q-43 38 -104 59
t-137 21q-77 0 -144.5 -26t-116.5 -74q-50 -49 -78.5 -117.5t-28.5 -153.5q0 -71 22 -133t66 -108t110 -71.5t153 -25.5q88 0 153.5 26t103.5 62h91q-25 -36 -61.5 -65t-81.5 -50t-98 -32t-111 -11zM443 168q33 0 56.5 32t23.5 84q0 33 -16 52t-48 19q-34 0 -55.5 -31
t-21.5 -82q0 -32 15.5 -53t45.5 -21z" />
    <glyph glyph-name="A" unicode="A" horiz-adv-x="747" 
d="M242 715h265l227 -715h-217l-38 133h-237l-38 -133h-191zM282 274h157l-78 275z" />
    <glyph glyph-name="B" unicode="B" horiz-adv-x="679" 
d="M69 715h319q63 0 109 -13.5t75 -38.5t43 -59t14 -76v-4q0 -61 -30 -99.5t-91 -54.5q66 -11 104.5 -51.5t38.5 -115.5v-4q0 -96 -63.5 -147.5t-196.5 -51.5h-322v715zM354 137q49 0 72 21.5t23 61.5v4q0 41 -23.5 61.5t-77.5 20.5h-79v-169h85zM347 431q48 0 68 17.5
t20 55.5v4q0 37 -20.5 54t-67.5 17h-78v-148h78z" />
    <glyph glyph-name="C" unicode="C" horiz-adv-x="759" 
d="M405 -12q-94 0 -164 26t-116 74q-47 48 -70 115.5t-23 149.5v8q0 82 27.5 149.5t76.5 115.5t116 74t145 26q70 0 128 -16.5t102 -49.5q43 -34 69.5 -86t32.5 -123h-211q-6 55 -36 84t-84 29q-69 0 -109.5 -52t-40.5 -150v-8q0 -97 39.5 -149.5t113.5 -52.5
q54 0 89.5 28.5t43.5 88.5h204q-5 -69 -32 -122t-70 -88q-44 -35 -103 -53t-128 -18z" />
    <glyph glyph-name="D" unicode="D" horiz-adv-x="743" 
d="M322 158q92 0 134 48.5t42 148.5v8q0 103 -42 148.5t-136 45.5h-45v-399h47zM69 715h260q190 0 286.5 -91.5t96.5 -257.5v-8q0 -84 -24.5 -150t-72.5 -112q-49 -47 -121 -71.5t-166 -24.5h-259v715z" />
    <glyph glyph-name="E" unicode="E" horiz-adv-x="612" 
d="M69 715h494v-158h-290v-123h231v-146h-231v-130h306v-158h-510v715z" />
    <glyph glyph-name="F" unicode="F" horiz-adv-x="579" 
d="M69 715h483v-159h-277v-152h221v-151h-221v-253h-206v715z" />
    <glyph glyph-name="G" unicode="G" horiz-adv-x="787" 
d="M406 -12q-91 0 -161 27t-117 76q-48 48 -72.5 115t-24.5 147v8q0 82 28.5 149t78.5 115t118.5 74.5t149.5 26.5q63 0 121 -15t104 -47q45 -32 74 -81.5t34 -119.5h-203q-7 51 -39.5 76.5t-89.5 25.5q-76 0 -119 -55t-43 -152v-8q0 -44 8.5 -81.5t28.5 -64.5
q20 -28 51.5 -44t78.5 -16q37 0 63.5 9t43.5 24t25 34.5t10 40.5h-134v143h336v-88q0 -68 -22 -126.5t-66 -101.5t-109.5 -67t-152.5 -24z" />
    <glyph glyph-name="H" unicode="H" horiz-adv-x="784" 
d="M69 715h206v-273h235v273h205v-715h-205v282h-235v-282h-206v715z" />
    <glyph glyph-name="I" unicode="I" horiz-adv-x="352" 
d="M73 715h207v-715h-207v715z" />
    <glyph glyph-name="J" unicode="J" horiz-adv-x="478" 
d="M163 -9q-51 0 -79.5 6.5t-50.5 17.5v153q18 -6 37 -10t50 -4q42 0 67.5 21.5t25.5 77.5v462h206v-464q0 -130 -64.5 -195t-191.5 -65z" />
    <glyph glyph-name="K" unicode="K" horiz-adv-x="726" 
d="M69 715h206v-283l215 283h214l-262 -332l276 -383h-237l-206 299v-299h-206v715z" />
    <glyph glyph-name="L" unicode="L" horiz-adv-x="575" 
d="M69 715h206v-556h270v-159h-476v715z" />
    <glyph glyph-name="M" unicode="M" horiz-adv-x="942" 
d="M69 715h267l137 -381l137 381h262v-715h-204v445l-175 -445h-68l-173 445v-445h-183v715z" />
    <glyph glyph-name="N" unicode="N" horiz-adv-x="777" 
d="M69 715h231l229 -403v403h179v-715h-198l-261 449v-449h-180v715z" />
    <glyph glyph-name="O" unicode="O" horiz-adv-x="819" 
d="M410 149q76 0 120 54.5t44 151.5v8q0 96 -44.5 149t-120.5 53t-120 -52.5t-44 -150.5v-8q0 -98 45 -151.5t120 -53.5zM406 -12q-87 0 -156 27t-118 75t-75 115t-26 148v8q0 82 29 149t80 115t120 74t149 26q82 0 151.5 -25t120.5 -71q50 -47 78.5 -113.5t28.5 -149.5v-8
q0 -83 -27 -151t-77 -116q-50 -49 -120.5 -76t-157.5 -27z" />
    <glyph glyph-name="P" unicode="P" horiz-adv-x="652" 
d="M69 715h272q147 0 217 -62.5t70 -176.5v-4q0 -113 -72 -172t-206 -59h-77v-241h-204v715zM332 381q51 0 76 22.5t25 67.5v4q0 46 -26 66t-74 20h-60v-180h59z" />
    <glyph glyph-name="Q" unicode="Q" horiz-adv-x="819" 
d="M497 -3q-22 -5 -44.5 -7t-46.5 -2q-87 0 -156 27t-118 75t-75 115t-26 148v8q0 82 29 149t80 115t120 74t149 26q82 0 151.5 -25t120.5 -71q50 -47 78.5 -113.5t28.5 -149.5v-8q0 -94 -35 -168.5t-98 -123.5l72 -72l-114 -114zM245 354q0 -81 27.5 -131t75.5 -69l115 106
l64 -65q24 28 35.5 68t11.5 92v8q0 96 -44.5 149t-120.5 53t-120 -52.5t-44 -150.5v-8z" />
    <glyph glyph-name="R" unicode="R" horiz-adv-x="697" 
d="M69 715h280q141 0 216 -56.5t75 -170.5v-4q0 -77 -36.5 -121.5t-92.5 -66.5l171 -296h-216l-145 256h-48v-256h-204v715zM339 389q52 0 77.5 22t25.5 65v4q0 44 -26 62.5t-76 18.5h-67v-172h66z" />
    <glyph glyph-name="S" unicode="S" horiz-adv-x="647" 
d="M331 -12q-151 0 -227 61t-81 178h195q2 -19 8 -36t19 -29q12 -13 33 -20.5t53 -7.5q45 0 68.5 19.5t23.5 51.5q0 16 -5.5 27.5t-18.5 19.5q-13 7 -35 12t-54 10q-76 9 -127.5 25.5t-82.5 43.5q-32 27 -46 66t-14 93q0 48 19 89t55 71t87.5 46.5t115.5 16.5
q130 0 201 -54.5t81 -168.5h-190q-5 38 -27.5 57.5t-64.5 19.5t-62.5 -17t-20.5 -44q0 -15 5 -26t18 -19q12 -9 33.5 -15t54.5 -10q68 -8 119 -21.5t86 -38.5q34 -26 51.5 -65t17.5 -97q0 -49 -19 -92.5t-56 -75.5t-90.5 -51t-122.5 -19z" />
    <glyph glyph-name="T" unicode="T" horiz-adv-x="618" 
d="M206 557h-185v158h576v-158h-185v-557h-206v557z" />
    <glyph glyph-name="U" unicode="U" horiz-adv-x="764" 
d="M381 -12q-152 0 -234.5 75.5t-82.5 226.5v425h205v-416q0 -76 23.5 -113t88.5 -37q64 0 88 36t24 117v413h207v-422q0 -78 -22 -135.5t-63 -94.5q-42 -38 -101 -56.5t-133 -18.5z" />
    <glyph glyph-name="V" unicode="V" horiz-adv-x="728" 
d="M12 715h221l145 -502l146 502h192l-234 -715h-233z" />
    <glyph glyph-name="W" unicode="W" horiz-adv-x="996" 
d="M14 715h207l92 -446l96 446h182l104 -450l97 450h190l-167 -715h-214l-110 454l-111 -454h-200z" />
    <glyph glyph-name="X" unicode="X" horiz-adv-x="755" 
d="M243 368l-204 347h233l112 -213l110 213h210l-192 -340l221 -375h-234l-133 246l-133 -246h-211z" />
    <glyph glyph-name="Y" unicode="Y" horiz-adv-x="677" 
d="M241 306l-233 409h223l121 -241l121 241h196l-222 -409v-306h-206v306z" />
    <glyph glyph-name="Z" unicode="Z" horiz-adv-x="627" 
d="M13 23l304 535h-265v157h556v-22l-300 -535h285v-158h-580v23z" />
    <glyph glyph-name="bracketleft" unicode="[" horiz-adv-x="409" 
d="M66 776h305v-131h-125v-662h125v-131h-305v924z" />
    <glyph glyph-name="backslash" unicode="\" horiz-adv-x="434" 
d="M-2 776h143l317 -924h-142z" />
    <glyph glyph-name="bracketright" unicode="]" horiz-adv-x="409" 
d="M39 -17h124v662h-124v131h304v-924h-304v131z" />
    <glyph glyph-name="asciicircum" unicode="^" horiz-adv-x="531" 
d="M187 715h157l164 -322h-153l-91 176l-91 -176h-150z" />
    <glyph glyph-name="underscore" unicode="_" horiz-adv-x="434" 
d="M-1 -75h436v-86h-436v86z" />
    <glyph glyph-name="grave" unicode="`" horiz-adv-x="400" 
d="M38 749h180l53 -166h-128z" />
    <glyph glyph-name="a" unicode="a" horiz-adv-x="578" 
d="M200 -12q-35 0 -67 9t-56 28q-25 19 -39.5 48.5t-14.5 71.5q0 92 73.5 131.5t204.5 39.5h50v12q0 38 -13 60.5t-56 22.5q-37 0 -52.5 -18.5t-18.5 -43.5h-168q3 47 22.5 82.5t52.5 59.5q32 23 76.5 34.5t98.5 11.5t97.5 -11.5t74.5 -35.5t47.5 -61.5t16.5 -89.5v-339
h-174v61q-19 -29 -55.5 -51t-99.5 -22zM262 109q38 0 63.5 20t25.5 54v32h-47q-54 0 -79 -12.5t-25 -44.5q0 -23 15 -36t47 -13z" />
    <glyph glyph-name="b" unicode="b" horiz-adv-x="643" 
d="M394 -12q-59 0 -100.5 25.5t-61.5 67.5v-81h-179v753h179v-308q23 38 63 65t100 27q46 0 86 -17t70 -51t47.5 -85t17.5 -118v-8q0 -68 -17.5 -118.5t-47.5 -83.5q-30 -34 -70.5 -51t-86.5 -17zM331 125q51 0 77 34t26 99v8q0 69 -27.5 102.5t-75.5 33.5
q-49 0 -76.5 -34.5t-27.5 -100.5v-8q0 -67 27.5 -100.5t76.5 -33.5z" />
    <glyph glyph-name="c" unicode="c" horiz-adv-x="583" 
d="M300 -12q-59 0 -109 17t-87 51q-37 33 -58 83t-21 116v8q0 65 22 116t60 86t88.5 53.5t108.5 18.5q48 0 92.5 -11t79.5 -36q35 -26 57.5 -67t26.5 -101h-168q-6 37 -25.5 56.5t-58.5 19.5q-48 0 -74 -33.5t-26 -99.5v-8q0 -69 26 -103.5t77 -34.5q38 0 62 22t29 65h161
q-4 -99 -70 -158.5t-193 -59.5z" />
    <glyph glyph-name="d" unicode="d" horiz-adv-x="642" 
d="M247 -12q-45 0 -85 16.5t-70 49.5t-47.5 83.5t-17.5 118.5v8q0 67 17 118t47 86q30 34 70.5 51.5t87.5 17.5q62 0 100 -24t61 -64v304h179v-753h-179v85q-20 -41 -61.5 -69t-101.5 -28zM310 125q49 0 77 33.5t28 100.5v8q0 66 -26.5 100.5t-76.5 34.5q-51 0 -77 -34
t-26 -102v-8q0 -66 27 -99.5t74 -33.5z" />
    <glyph glyph-name="e" unicode="e" horiz-adv-x="598" 
d="M309 -12q-62 0 -114 17.5t-89 51.5q-38 34 -59.5 84t-21.5 114v8q0 63 22 113.5t60 86.5t90 55t111 19q54 0 102 -16t85 -49q36 -33 57.5 -84t21.5 -121v-47h-368q4 -52 32.5 -80.5t76.5 -28.5q45 0 65.5 18t25.5 44h168q-12 -89 -79 -137t-186 -48zM400 321
q-2 48 -25 73t-67 25q-41 0 -67 -25t-33 -73h192z" />
    <glyph glyph-name="f" unicode="f" horiz-adv-x="386" 
d="M80 401h-66v122h66v46q0 97 56 144.5t149 47.5q25 0 44.5 -3t37.5 -8v-131q-10 3 -22 5t-27 2q-32 0 -46 -15.5t-14 -41.5v-46h106v-122h-106v-401h-178v401z" />
    <glyph glyph-name="g" unicode="g" horiz-adv-x="641" 
d="M298 -194q-67 0 -116 13.5t-82 38.5q-34 26 -52.5 61.5t-23.5 80.5h178q6 -29 26.5 -48.5t69.5 -19.5q60 0 85.5 30.5t25.5 79.5v80q-10 -19 -25.5 -36t-35.5 -30q-21 -14 -46.5 -22t-54.5 -8q-46 0 -86.5 16.5t-70.5 48.5t-47.5 79t-17.5 107v8q0 58 17.5 104.5
t47.5 79.5t70.5 50.5t86.5 17.5q63 0 101 -24t61 -64v74h179v-479q0 -118 -74.5 -178t-215.5 -60zM310 158q48 0 76 32t28 88v7q0 54 -26.5 86t-76.5 32q-51 0 -77 -32.5t-26 -86.5v-8q0 -54 27 -86t75 -32z" />
    <glyph glyph-name="h" unicode="h" horiz-adv-x="624" 
d="M53 753h179v-314q21 41 63.5 69.5t108.5 28.5q76 0 123.5 -48.5t47.5 -148.5v-340h-179v304q0 45 -18 66.5t-57 21.5q-40 0 -64.5 -24t-24.5 -75v-293h-179v753z" />
    <glyph glyph-name="i" unicode="i" horiz-adv-x="295" 
d="M58 523h179v-523h-179v523zM147 573q-42 0 -70 26t-28 66t28 66.5t70 26.5t70.5 -26.5t28.5 -66.5t-28.5 -66t-70.5 -26z" />
    <glyph glyph-name="j" unicode="j" horiz-adv-x="295" 
d="M-6 -54q33 2 48.5 16.5t15.5 45.5v515h178v-519q0 -42 -11 -77t-39 -60q-28 -24 -74.5 -37.5t-117.5 -13.5v130zM147 573q-42 0 -70 26t-28 66t28 66.5t70 26.5t70.5 -26.5t28.5 -66.5t-28.5 -66t-70.5 -26z" />
    <glyph glyph-name="k" unicode="k" horiz-adv-x="577" 
d="M53 753h179v-437l141 207h186l-171 -235l185 -288h-200l-141 229v-229h-179v753z" />
    <glyph glyph-name="l" unicode="l" horiz-adv-x="294" 
d="M58 753h178v-753h-178v753z" />
    <glyph glyph-name="m" unicode="m" horiz-adv-x="931" 
d="M53 523h179v-80q21 38 62 66t102 28q52 0 87.5 -21.5t54.5 -65.5q34 46 78.5 66.5t94.5 20.5q37 0 68.5 -12t54.5 -36q22 -25 35 -61.5t13 -85.5v-342h-179v312q0 40 -18 59.5t-49 19.5q-36 0 -58 -22.5t-22 -65.5v-303h-177v312q0 40 -18 59.5t-49 19.5q-36 0 -58 -22.5
t-22 -65.5v-303h-179v523z" />
    <glyph glyph-name="n" unicode="n" horiz-adv-x="624" 
d="M53 523h179v-84q21 41 63.5 69.5t108.5 28.5q76 0 123.5 -48.5t47.5 -148.5v-340h-179v304q0 45 -18 66.5t-57 21.5q-40 0 -64.5 -24t-24.5 -75v-293h-179v523z" />
    <glyph glyph-name="o" unicode="o" horiz-adv-x="622" 
d="M312 121q51 0 77 35.5t26 101.5v8q0 66 -26 101.5t-77 35.5t-77.5 -34.5t-26.5 -100.5v-8q0 -68 26 -103.5t78 -35.5zM311 -12q-60 0 -112.5 18t-90.5 52q-39 34 -61 84t-22 113v8q0 63 22 113.5t61 86.5q38 36 90.5 55t113.5 19q60 0 112.5 -18.5t90.5 -53.5t60 -85
t22 -112v-8q0 -64 -22 -114.5t-60 -85.5q-39 -35 -91.5 -53.5t-112.5 -18.5z" />
    <glyph glyph-name="p" unicode="p" horiz-adv-x="643" 
d="M53 523h179v-78q23 38 63 65t100 27q46 0 86 -17t70 -51t47.5 -85t17.5 -118v-8q0 -68 -17.5 -118.5t-47.5 -83.5q-30 -34 -70.5 -51t-86.5 -17q-60 0 -101 25t-61 64v-252h-179v698zM331 125q51 0 77 34t26 99v8q0 69 -27.5 102.5t-75.5 33.5q-49 0 -76.5 -34.5
t-27.5 -100.5v-8q0 -67 27.5 -100.5t76.5 -33.5z" />
    <glyph glyph-name="q" unicode="q" horiz-adv-x="642" 
d="M410 81q-20 -38 -61.5 -65.5t-101.5 -27.5q-45 0 -85 16.5t-70 49.5t-47.5 83.5t-17.5 118.5v8q0 67 17 118t47 86q30 34 70.5 51.5t87.5 17.5q62 0 100 -24t61 -64v74h179v-698h-179v256zM310 125q49 0 77 33.5t28 100.5v8q0 66 -26.5 100.5t-76.5 34.5q-51 0 -77 -34
t-26 -102v-8q0 -66 27 -99.5t74 -33.5z" />
    <glyph glyph-name="r" unicode="r" horiz-adv-x="428" 
d="M53 523h179v-104q25 59 66.5 85.5t102.5 25.5v-167q-82 2 -125.5 -25t-43.5 -90v-248h-179v523z" />
    <glyph glyph-name="s" unicode="s" horiz-adv-x="515" 
d="M258 -12q-112 0 -174.5 45t-65.5 133h165q5 -29 20.5 -44t53.5 -15q33 0 48.5 11.5t15.5 31.5q0 19 -21.5 29t-75.5 18q-53 7 -90.5 18.5t-61.5 31.5q-24 19 -35.5 48t-11.5 70q0 43 18 75.5t49 54.5q30 21 71 31.5t86 10.5q48 0 88.5 -9t70.5 -29t48.5 -52t23.5 -79
h-162q-5 26 -20.5 39t-46.5 13q-29 0 -44 -11.5t-15 -29.5q0 -19 20 -28t68 -15q54 -7 94.5 -18t67.5 -30q27 -20 40 -49t13 -71q0 -93 -64 -136.5t-173 -43.5z" />
    <glyph glyph-name="t" unicode="t" horiz-adv-x="389" 
d="M261 -12q-89 0 -136.5 43.5t-47.5 136.5v233h-63v122h63v109h179v-109h103v-122h-103v-216q0 -27 13.5 -41t39.5 -14q15 0 27 2t24 7v-136q-17 -5 -42 -10t-57 -5z" />
    <glyph glyph-name="u" unicode="u" horiz-adv-x="623" 
d="M225 -12q-38 0 -70 11.5t-55 35.5q-24 24 -37.5 60.5t-13.5 86.5v341h179v-312q0 -44 18.5 -66t55.5 -22q41 0 65 24t24 75v301h179v-523h-179v81q-21 -41 -60.5 -67t-105.5 -26z" />
    <glyph glyph-name="v" unicode="v" horiz-adv-x="593" 
d="M8 523h191l109 -337l107 337h171l-191 -523h-195z" />
    <glyph glyph-name="w" unicode="w" horiz-adv-x="845" 
d="M9 523h187l76 -313l88 313h144l78 -313l85 313h170l-166 -523h-171l-78 292l-81 -292h-174z" />
    <glyph glyph-name="x" unicode="x" 
d="M185 266l-163 257h206l81 -138l79 138h184l-165 -243l181 -280h-206l-93 156l-95 -156h-183z" />
    <glyph glyph-name="y" unicode="y" horiz-adv-x="589" 
d="M217 53l-209 470h194l108 -279l100 279h171l-280 -698h-171z" />
    <glyph glyph-name="z" unicode="z" horiz-adv-x="508" 
d="M10 18l229 370h-205v135h461v-19l-235 -369h223v-135h-473v18z" />
    <glyph glyph-name="braceleft" unicode="{" horiz-adv-x="418" 
d="M380 -149q-152 0 -219.5 55t-47.5 176l15 85q6 35 -16.5 60t-80.5 25v125q58 0 80.5 24.5t16.5 59.5l-15 84q-20 125 47.5 178t219.5 53v-130q-29 -2 -48 -7t-29 -16q-11 -11 -13.5 -28.5t0.5 -44.5l13 -101q7 -51 -20.5 -85.5t-82.5 -47.5q55 -13 82.5 -48t20.5 -86
l-13 -101q-7 -54 12.5 -75.5t77.5 -23.5v-131z" />
    <glyph glyph-name="bar" unicode="|" horiz-adv-x="268" 
d="M71 776h125v-924h-125v924z" />
    <glyph glyph-name="braceright" unicode="}" horiz-adv-x="418" 
d="M38 -18q58 2 77.5 23.5t12.5 75.5l-13 101q-7 51 20.5 86t82.5 48q-55 13 -82.5 47.5t-20.5 85.5l13 101q3 27 0.5 44.5t-12.5 28.5q-11 11 -30 16t-48 7v130q76 0 131 -12.5t89 -40.5q33 -28 45 -71.5t2 -106.5l-15 -84q-6 -35 16.5 -59.5t80.5 -24.5v-125
q-58 0 -80.5 -25t-16.5 -60l15 -85q20 -121 -47.5 -176t-219.5 -55v131z" />
    <glyph glyph-name="asciitilde" unicode="~" horiz-adv-x="518" 
d="M28 214q3 54 16 91.5t34 61.5q20 23 45.5 34t52.5 11t49.5 -7t41.5 -15q18 -8 33.5 -15t28.5 -7q20 0 31 11.5t14 34.5h116q-2 -50 -15 -87t-33 -62t-45.5 -37t-52.5 -12q-28 0 -50.5 7t-40.5 15q-19 8 -34.5 15t-28.5 7q-20 0 -31 -12.5t-15 -33.5h-116z" />
    <glyph glyph-name="uni00A0" unicode="&#xa0;" horiz-adv-x="258" 
 />
    <glyph glyph-name="exclamdown" unicode="&#xa1;" horiz-adv-x="334" 
d="M171.01 608.999q44.998 0 75.4961 -28.498t30.498 -70.4951q0 -41.998 -30.498 -70.9961t-75.4961 -28.998q-21.998 0 -41.4971 7.99902q-19.499 8 -34.498 20.999q-13.999 13.999 -22.498 31.998q-8.5 17.999 -8.5 38.998q0 20.998 8.5 38.9971
q8.49902 17.999 22.498 30.998q14.999 13.999 34.498 21.499q19.499 7.49902 41.4971 7.49902zM272.004 -116.956h-201.987l26.998 479.971h147.991z" />
    <glyph glyph-name="cent" unicode="&#xa2;" horiz-adv-x="595" 
d="M275 -10q-54 5 -100 24t-79 53q-33 33 -52 80t-19 108v8q0 59 19 106.5t53 82.5q34 34 79.5 55t98.5 27v95h78v-94q44 -4 82.5 -18.5t68.5 -40.5q29 -27 47.5 -65t22.5 -89h-164q-4 30 -19 50t-38 28v-284q28 8 46 30.5t21 59.5h157q-5 -91 -63 -148.5t-161 -67.5v-125
h-78v125zM202 257q0 -57 19 -91.5t54 -47.5v281q-34 -12 -53.5 -45.5t-19.5 -88.5v-8z" />
    <glyph glyph-name="sterling" unicode="&#xa3;" horiz-adv-x="657" 
d="M34 407h51q-5 20 -8.5 42t-3.5 47q0 55 21 97.5t58 72.5q37 29 87.5 44t108.5 15q69 0 119.5 -17.5t84.5 -48.5q33 -32 50 -76.5t20 -98.5h-187q-6 45 -25 66t-55 21t-57.5 -23t-21.5 -63q0 -20 2 -39t5 -39h177v-120h-157q2 -14 3 -28t1 -28q0 -17 -2.5 -31t-7.5 -28
q26 -8 48.5 -15t42.5 -7q30 0 45.5 15t17.5 44h184q-2 -47 -16 -87t-40 -69t-64 -45.5t-87 -16.5q-38 0 -68.5 8t-55.5 18q-26 10 -47 18t-39 8q-23 0 -35 -12.5t-14 -30.5h-151q4 58 29.5 106.5t76.5 69.5q4 12 6 26t2 29q0 13 -2 27t-6 29h-90v120z" />
    <glyph glyph-name="yen" unicode="&#xa5;" horiz-adv-x="646" 
d="M64 365h138l-191 350h222l104 -233l103 233h195l-182 -350h140v-72h-162v-50h162v-72h-162v-171h-205v171h-162v72h162v50h-162v72z" />
    <glyph glyph-name="brokenbar" unicode="&#xa6;" horiz-adv-x="270" 
d="M71 301h125v-449h-125v449zM71 776h125v-404h-125v404z" />
    <glyph glyph-name="section" unicode="&#xa7;" horiz-adv-x="606" 
d="M292 -137q-105 0 -161.5 49t-60.5 134h163q2 -29 16.5 -45.5t46.5 -16.5q29 0 43.5 12.5t14.5 33.5q0 23 -23 35.5t-84 26.5q-51 12 -92.5 28t-70.5 39q-30 22 -46 53.5t-16 75.5q0 51 29.5 85t78.5 52q-22 23 -33.5 52t-11.5 64q0 43 17 77t48 58q30 24 72 36.5t92 12.5
q104 0 160 -49t60 -134h-162q-3 29 -16.5 44.5t-45.5 15.5q-29 0 -43 -13t-14 -33q0 -12 4.5 -21t16.5 -15q12 -7 32 -13.5t51 -13.5q50 -12 92 -26.5t72 -36.5t47 -54t17 -78q0 -50 -29.5 -84t-78.5 -54q22 -22 33 -50.5t11 -64.5q0 -41 -16.5 -74.5t-46.5 -57.5
q-31 -24 -73 -37t-93 -13zM368 224q24 5 34 17t10 30q0 13 -5.5 21.5t-17.5 15.5t-31 13.5t-45 14.5l-74 24q-22 -4 -33 -15.5t-11 -31.5q0 -23 24.5 -35.5t75.5 -28.5z" />
    <glyph glyph-name="dieresis" unicode="&#xa8;" horiz-adv-x="400" 
d="M93 580q-18 0 -33.5 6.5t-26.5 17.5q-12 11 -18.5 26.5t-6.5 32.5t6.5 32.5t18.5 27.5q11 11 26.5 17.5t33.5 6.5q36 0 61 -24.5t25 -59.5t-25 -59t-61 -24zM306 580q-36 0 -60.5 24t-24.5 59t24.5 59.5t60.5 24.5t61 -24.5t25 -59.5t-25 -59t-61 -24z" />
    <glyph glyph-name="copyright" unicode="&#xa9;" horiz-adv-x="843" 
d="M428 151q-107 0 -159.5 55.5t-52.5 147.5v8q0 46 16 83.5t44 63.5q27 26 65 40.5t83 14.5q80 0 131 -37.5t57 -119.5h-128q-3 30 -18 44.5t-42 14.5q-36 0 -56 -26t-20 -78v-7q0 -51 20 -78t58 -27q27 0 46 14.5t22 46.5h123q-5 -79 -57 -119.5t-132 -40.5zM420 31
q66 0 125 23.5t103 67.5q44 43 69.5 103t25.5 134q0 72 -25 132t-68 103q-44 43 -102.5 66.5t-125.5 23.5q-68 0 -126.5 -24t-101.5 -67q-44 -43 -69 -103t-25 -133q0 -74 25.5 -134t69.5 -102q43 -43 101.5 -66.5t123.5 -23.5zM420 -20q-80 0 -149.5 29t-121.5 80
q-52 50 -82 119t-30 149q0 79 30 148t82 120t122 80.5t151 29.5q82 0 152 -29t122 -80q51 -51 80.5 -119.5t29.5 -147.5q0 -81 -30 -150t-82 -120t-122.5 -80t-151.5 -29z" />
    <glyph glyph-name="ordfeminine" unicode="&#xaa;" horiz-adv-x="483" 
d="M168 287q-28 0 -53.5 7t-44.5 23q-20 15 -31.5 39t-11.5 57q0 73 56 102.5t164 29.5h40v15q0 25 -9.5 39.5t-38.5 14.5q-25 0 -36 -13.5t-13 -30.5h-148q5 75 59.5 114t145.5 39q93 0 144.5 -38t51.5 -120v-267h-153v47q-14 -21 -42.5 -39.5t-79.5 -18.5zM226 393
q26 0 43.5 13.5t17.5 36.5v23h-36q-34 0 -51.5 -9.5t-17.5 -29.5q0 -17 11 -25.5t33 -8.5z" />
    <glyph glyph-name="guillemotleft" unicode="&#xab;" horiz-adv-x="480" 
d="M31 261l124 191h115l-119 -191l119 -191h-115zM211 261l124 191h115l-119 -191l119 -191h-115z" />
    <glyph glyph-name="registered" unicode="&#xae;" horiz-adv-x="517" 
d="M173 615h90q46 0 68.5 -17.5t22.5 -53.5v-1q0 -23 -10 -36.5t-27 -21.5l50 -89h-72l-40 75h-12v-75h-70v219zM258 516q14 0 21 6t7 17v1q0 11 -7 16.5t-21 5.5h-15v-46h15zM258 319q39 0 73 13.5t59 38.5q25 24 39.5 57.5t14.5 74.5q0 40 -14 74t-38 59
q-25 24 -59.5 37.5t-74.5 13.5q-41 0 -74.5 -13.5t-58.5 -38.5t-38.5 -59t-13.5 -74q0 -41 14.5 -74.5t39.5 -57.5q24 -24 58 -37.5t73 -13.5zM258 281q-48 0 -89.5 17t-72.5 47q-31 29 -49 69.5t-18 87.5q0 46 18 87t49 71q30 30 72 47.5t90 17.5q49 0 91 -17.5t73 -47.5
t48.5 -70.5t17.5 -86.5q0 -47 -18 -87.5t-49 -70.5t-73 -47t-90 -17z" />
    <glyph glyph-name="macron" unicode="&#xaf;" horiz-adv-x="400" 
d="M46 712h307v-100h-307v100z" />
    <glyph glyph-name="degree" unicode="&#xb0;" horiz-adv-x="453" 
d="M227 451q40 0 65.5 29t25.5 71q0 45 -25.5 74t-65.5 29q-41 0 -67 -29t-26 -74q0 -42 26 -71t67 -29zM227 381q-37 0 -69 13.5t-56 37.5q-24 23 -38 53.5t-14 65.5q0 36 14 67.5t38 55.5q24 23 56 36.5t69 13.5q36 0 68 -13.5t56 -36.5q24 -24 38 -55.5t14 -67.5
q0 -35 -14 -65.5t-38 -53.5q-24 -24 -56 -37.5t-68 -13.5z" />
    <glyph glyph-name="plusminus" unicode="&#xb1;" horiz-adv-x="570" 
d="M213 341h-176v131h176v164h144v-164h176v-131h-176v-165h-144v165zM37 118h498v-118h-498v118z" />
    <glyph glyph-name="twosuperior" unicode="&#xb2;" horiz-adv-x="353" 
d="M1 356l128 133q32 32 50 55.5t18 46.5q0 16 -7.5 24t-23.5 8q-17 0 -27 -13t-13 -39h-120q2 74 46.5 111.5t119.5 37.5q79 0 117 -34.5t38 -85.5q0 -38 -21.5 -69.5t-55.5 -62.5l-35 -34h113v-95h-327v17z" />
    <glyph glyph-name="threesuperior" unicode="&#xb3;" horiz-adv-x="374" 
d="M186 332q-44 0 -75.5 10t-51.5 28t-30 42.5t-11 53.5h116q2 -18 12.5 -30t32.5 -12q20 0 29.5 8.5t9.5 25.5t-11 25.5t-34 8.5h-30v74h30q24 0 34.5 8.5t10.5 25.5q0 13 -8.5 21t-25.5 8t-28 -9.5t-14 -28.5h-116q5 57 44 93t117 36q74 0 115 -27t41 -77q0 -32 -18 -52
t-50 -29q34 -5 55 -26.5t21 -55.5q0 -54 -41 -87.5t-124 -33.5z" />
    <glyph glyph-name="acute" unicode="&#xb4;" horiz-adv-x="400" 
d="M182 749h180l-105 -166h-128z" />
    <glyph glyph-name="paragraph" unicode="&#xb6;" horiz-adv-x="551" 
d="M256 329h-8q-100 0 -160 47t-60 142q0 50 16 87t46 62q29 24 69.5 36t88.5 12h233v-815h-76v751h-74v-751h-75v429z" />
    <glyph glyph-name="periodcentered" unicode="&#xb7;" horiz-adv-x="299" 
d="M148 225q-22 0 -41 8t-32 22q-14 13 -21.5 31.5t-7.5 39.5t7.5 39.5t21.5 32.5q13 13 32 21t41 8t41.5 -8t33.5 -21q14 -14 22 -32.5t8 -39.5t-8 -39.5t-22 -31.5q-14 -14 -33.5 -22t-41.5 -8z" />
    <glyph glyph-name="cedilla" unicode="&#xb8;" horiz-adv-x="400" 
d="M204 -226q-54 0 -87 24t-40 69h84q3 -11 11 -19.5t25 -8.5q15 0 23.5 8.5t8.5 21.5q0 14 -8.5 22.5t-24.5 8.5q-12 0 -19.5 -3.5t-12.5 -7.5l-39 38l48 73h72l-31 -45q22 2 42 -2t36 -15q15 -10 24 -27.5t9 -41.5q0 -45 -33 -70t-88 -25z" />
    <glyph glyph-name="onesuperior" unicode="&#xb9;" horiz-adv-x="286" 
d="M102 587l-82 -46v107l102 67h114v-376h-134v248z" />
    <glyph glyph-name="ordmasculine" unicode="&#xba;" horiz-adv-x="522" 
d="M262 403q35 0 52.5 25.5t17.5 74.5v6q0 49 -17.5 73.5t-52.5 24.5t-53.5 -24t-18.5 -72v-6q0 -50 18 -76t54 -26zM261 287q-49 0 -91 14t-73 41t-49 66.5t-18 90.5v6q0 51 18 91.5t49 68.5t73.5 43t91.5 15q48 0 90 -14.5t73 -41.5q31 -28 49 -67.5t18 -89.5v-6
q0 -51 -18 -91.5t-49 -68.5t-73.5 -42.5t-90.5 -14.5z" />
    <glyph glyph-name="guillemotright" unicode="&#xbb;" horiz-adv-x="480" 
d="M150 261l-120 191h115l125 -191l-125 -191h-115zM330 261l-120 191h115l125 -191l-125 -191h-115z" />
    <glyph glyph-name="onequarter" unicode="&#xbc;" horiz-adv-x="795" 
d="M105 587l-82 -46v107l102 67h114v-376h-134v248zM626 715h94l-560 -715h-94zM596 70h-187v49l156 257h159v-219h48v-87h-48v-70h-128v70zM600 157v132l-77 -132h77z" />
    <glyph glyph-name="onehalf" unicode="&#xbd;" horiz-adv-x="811" 
d="M105 587l-82 -46v107l102 67h114v-376h-134v248zM613 715h94l-560 -715h-94zM455 17l128 133q32 32 50 55.5t18 46.5q0 16 -7.5 24t-23.5 8q-17 0 -27 -13t-13 -39h-120q2 74 46.5 111.5t119.5 37.5q79 0 117 -34.5t38 -85.5q0 -38 -21.5 -69.5t-55.5 -62.5l-35 -34h113
v-95h-327v17z" />
    <glyph glyph-name="threequarters" unicode="&#xbe;" horiz-adv-x="826" 
d="M185 332q-44 0 -75.5 10t-51.5 28t-30 42.5t-11 53.5h116q2 -18 12.5 -30t32.5 -12q20 0 29.5 8.5t9.5 25.5t-11 25.5t-34 8.5h-30v74h30q24 0 34.5 8.5t10.5 25.5q0 13 -8.5 21t-25.5 8t-28 -9.5t-14 -28.5h-116q5 57 44 93t117 36q74 0 115 -27t41 -77q0 -32 -18 -52
t-50 -29q34 -5 55 -26.5t21 -55.5q0 -54 -41 -87.5t-124 -33.5zM670 715h94l-560 -715h-94zM621 70h-187v49l156 257h159v-219h48v-87h-48v-70h-128v70zM625 157v132l-77 -132h77z" />
    <glyph glyph-name="questiondown" unicode="&#xbf;" horiz-adv-x="556" 
d="M391.011 345.016q0 -27.998 -9 -51.9971q-8.99902 -23.998 -22.998 -43.9971q-14 -19.999 -31.498 -37.498l-34.498 -34.498q-25.999 -24.998 -45.4971 -48.4971q-19.499 -23.498 -19.499 -49.4971q0 -29.998 14.999 -44.9971t45.9971 -14.999q31.998 0 52.9971 22.999
q20.998 22.998 25.998 64.9961h173.989q-2 -56.9971 -21.999 -100.494q-19.998 -43.4971 -55.9961 -73.4951q-34.998 -28.999 -82.9951 -43.998t-105.993 -14.999q-115.993 0 -178.489 48.9971t-62.4961 138.992q0 49.9961 21.499 85.4941q21.498 35.498 51.4961 64.4961
q17.999 17.999 36.998 34.998t34.998 32.998q16.999 16.999 28.498 33.998t14.499 34.998v14.999h168.99v-18.999zM306.016 609.999q22.998 0 42.4971 -7.49902q19.499 -7.5 33.498 -21.499q14.999 -12.999 23.499 -30.998q8.49902 -17.999 8.49902 -38.9971
q0 -20.999 -8.49902 -38.998q-8.5 -17.999 -23.499 -31.998q-13.999 -12.999 -33.498 -20.999q-19.499 -7.99902 -42.4971 -7.99902q-21.999 0 -40.998 7.99902q-18.998 8 -33.9971 20.999q-14 13.999 -22.499 31.998q-8.5 17.999 -8.5 38.998q0 20.998 8.5 38.9971
q8.49902 17.999 22.499 30.998q14.999 13.999 33.9971 21.499q18.999 7.49902 40.998 7.49902z" />
    <glyph glyph-name="Agrave" unicode="&#xc0;" horiz-adv-x="747" 
d="M238 715h265l227 -715h-217l-38 133h-237l-38 -133h-191zM278 274h157l-78 275zM208 905h186l49 -146h-135z" />
    <glyph glyph-name="Aacute" unicode="&#xc1;" horiz-adv-x="747" 
d="M242 715h265l227 -715h-217l-38 133h-237l-38 -133h-191zM282 274h157l-78 275zM346 905h187l-103 -146h-135z" />
    <glyph glyph-name="Acircumflex" unicode="&#xc2;" horiz-adv-x="747" 
d="M242 715h265l227 -715h-217l-38 133h-237l-38 -133h-191zM282 274h157l-78 275zM298 905h150l110 -146h-130l-59 49l-58 -49h-127z" />
    <glyph glyph-name="Atilde" unicode="&#xc3;" horiz-adv-x="747" 
d="M242 715h265l227 -715h-217l-38 133h-237l-38 -133h-191zM282 274h157l-78 275zM436 758q-21 0 -38.5 5.5t-31.5 11.5t-26 11.5t-24 5.5t-20.5 -9.5t-10.5 -23.5h-102q3 39 13.5 68t27.5 48q16 19 37 28t44 9q20 0 37 -5t32 -11q14 -7 27 -12t25 -5q14 0 21.5 9t10.5 23
h101q-3 -39 -14 -68t-27 -48q-17 -19 -38.5 -28t-43.5 -9z" />
    <glyph glyph-name="Adieresis" unicode="&#xc4;" horiz-adv-x="747" 
d="M242 715h265l227 -715h-217l-38 133h-237l-38 -133h-191zM282 274h157l-78 275zM259 758q-18 0 -33.5 6.5t-26.5 17.5q-12 11 -18.5 26.5t-6.5 32.5q0 35 25 59.5t60 24.5q36 0 61 -24.5t25 -59.5t-25 -59t-61 -24zM482 758q-36 0 -60.5 24t-24.5 59t24.5 59.5t60.5 24.5
t61 -24.5t25 -59.5t-25 -59t-61 -24z" />
    <glyph glyph-name="Aring" unicode="&#xc5;" horiz-adv-x="747" 
d="M238 715h265l227 -715h-217l-38 133h-237l-38 -133h-191zM278 274h157l-78 275zM367 810q20 0 33 14t13 36q0 23 -13 36.5t-33 13.5q-21 0 -33.5 -13.5t-12.5 -36.5q0 -22 12.5 -36t33.5 -14zM367 744q-25 0 -46.5 9.5t-37.5 25.5q-17 15 -26.5 36t-9.5 45t9.5 45
t26.5 37q16 16 37.5 25t46.5 9t46.5 -9t38.5 -25q16 -16 25.5 -37t9.5 -45t-9.5 -45t-25.5 -36q-17 -16 -38.5 -25.5t-46.5 -9.5z" />
    <glyph glyph-name="AE" unicode="&#xc6;" horiz-adv-x="1002" 
d="M332 715h622v-158h-283v-123h223v-146h-223v-130h299v-158h-504v146h-197l-63 -146h-195zM328 284h138v273h-20z" />
    <glyph glyph-name="Ccedilla" unicode="&#xc7;" horiz-adv-x="759" 
d="M379 -226q-54 0 -87 24t-40 69h84q3 -11 11 -19.5t25 -8.5q15 0 23.5 8.5t8.5 21.5q0 14 -8.5 22.5t-24.5 8.5q-12 0 -19.5 -3.5t-12.5 -7.5l-39 38l42 65q-78 8 -136 37.5t-97 76.5t-58 109.5t-19 137.5v8q0 82 27.5 149.5t76.5 115.5t116 74t145 26q70 0 128 -16.5
t102 -49.5q43 -34 69.5 -86t32.5 -123h-211q-6 55 -36 84t-84 29q-69 0 -109.5 -52t-40.5 -150v-8q0 -97 39.5 -149.5t113.5 -52.5q54 0 89.5 28.5t43.5 88.5h204q-5 -69 -31.5 -121t-68.5 -87q-43 -36 -101 -54t-126 -19l-22 -33q22 2 42 -2t36 -15q15 -10 24 -27.5
t9 -41.5q0 -45 -33 -70t-88 -25z" />
    <glyph glyph-name="Egrave" unicode="&#xc8;" horiz-adv-x="612" 
d="M69 715h494v-158h-290v-123h231v-146h-231v-130h306v-158h-510v715zM164 905h186l49 -146h-135z" />
    <glyph glyph-name="Eacute" unicode="&#xc9;" horiz-adv-x="612" 
d="M69 715h494v-158h-290v-123h231v-146h-231v-130h306v-158h-510v715zM298 905h187l-103 -146h-135z" />
    <glyph glyph-name="Ecircumflex" unicode="&#xca;" horiz-adv-x="612" 
d="M69 715h494v-158h-290v-123h231v-146h-231v-130h306v-158h-510v715zM250 905h150l110 -146h-130l-59 49l-58 -49h-127z" />
    <glyph glyph-name="Edieresis" unicode="&#xcb;" horiz-adv-x="612" 
d="M69 715h494v-158h-290v-123h231v-146h-231v-130h306v-158h-510v715zM211 758q-18 0 -33.5 6.5t-26.5 17.5q-12 11 -18.5 26.5t-6.5 32.5q0 35 25 59.5t60 24.5q36 0 61 -24.5t25 -59.5t-25 -59t-61 -24zM434 758q-36 0 -60.5 24t-24.5 59t24.5 59.5t60.5 24.5t61 -24.5
t25 -59.5t-25 -59t-61 -24z" />
    <glyph glyph-name="Igrave" unicode="&#xcc;" horiz-adv-x="348" 
d="M69 715h207v-715h-207v715zM13 905h186l49 -146h-135z" />
    <glyph glyph-name="Iacute" unicode="&#xcd;" horiz-adv-x="352" 
d="M73 715h207v-715h-207v715zM151 905h187l-103 -146h-135z" />
    <glyph glyph-name="Icircumflex" unicode="&#xce;" horiz-adv-x="352" 
d="M69 715h207v-715h-207v715zM99 905h150l110 -146h-130l-59 49l-58 -49h-127z" />
    <glyph glyph-name="Idieresis" unicode="&#xcf;" horiz-adv-x="352" 
d="M73 715h207v-715h-207v715zM64 758q-18 0 -33.5 6.5t-26.5 17.5q-12 11 -18.5 26.5t-6.5 32.5q0 35 25 59.5t60 24.5q36 0 61 -24.5t25 -59.5t-25 -59t-61 -24zM287 758q-36 0 -60.5 24t-24.5 59t24.5 59.5t60.5 24.5t61 -24.5t25 -59.5t-25 -59t-61 -24z" />
    <glyph glyph-name="Eth" unicode="&#xd0;" horiz-adv-x="774" 
d="M29 428h59v287h259q191 0 287 -91.5t96 -257.5v-8q0 -84 -24.5 -150t-72.5 -112q-48 -47 -120 -71.5t-166 -24.5h-259v290h-59v138zM341 158q91 0 133 48.5t42 148.5v8q0 103 -41.5 148.5t-135.5 45.5h-50v-129h120v-138h-120v-132h52z" />
    <glyph glyph-name="Ntilde" unicode="&#xd1;" horiz-adv-x="777" 
d="M65 715h231l229 -403v403h179v-715h-198l-261 449v-449h-180v715zM467 758q-21 0 -38.5 5.5t-31.5 11.5t-26 11.5t-24 5.5t-20.5 -9.5t-10.5 -23.5h-102q3 39 13.5 68t27.5 48q16 19 37 28t44 9q20 0 37 -5t32 -11q14 -7 27 -12t25 -5q14 0 21.5 9t10.5 23h101
q-3 -39 -14 -68t-27 -48q-17 -19 -38.5 -28t-43.5 -9z" />
    <glyph glyph-name="Ograve" unicode="&#xd2;" horiz-adv-x="819" 
d="M410 149q76 0 120 54.5t44 151.5v8q0 96 -44.5 149t-120.5 53t-120 -52.5t-44 -150.5v-8q0 -98 45 -151.5t120 -53.5zM406 -12q-87 0 -156 27t-118 75t-75 115t-26 148v8q0 82 29 149t80 115t120 74t149 26q82 0 151.5 -25t120.5 -71q50 -47 78.5 -113.5t28.5 -149.5v-8
q0 -83 -27 -151t-77 -116q-50 -49 -120.5 -76t-157.5 -27zM249 905h186l49 -146h-135z" />
    <glyph glyph-name="Oacute" unicode="&#xd3;" horiz-adv-x="819" 
d="M406 149q76 0 120 54.5t44 151.5v8q0 96 -44.5 149t-120.5 53t-120 -52.5t-44 -150.5v-8q0 -98 45 -151.5t120 -53.5zM402 -12q-87 0 -156 27t-118 75t-75 115t-26 148v8q0 82 29 149t80 115t120 74t149 26q82 0 151.5 -25t120.5 -71q50 -47 78.5 -113.5t28.5 -149.5v-8
q0 -83 -27 -151t-77 -116q-50 -49 -120.5 -76t-157.5 -27zM379 905h187l-103 -146h-135z" />
    <glyph glyph-name="Ocircumflex" unicode="&#xd4;" horiz-adv-x="819" 
d="M406 149q76 0 120 54.5t44 151.5v8q0 96 -44.5 149t-120.5 53t-120 -52.5t-44 -150.5v-8q0 -98 45 -151.5t120 -53.5zM402 -12q-87 0 -156 27t-118 75t-75 115t-26 148v8q0 82 29 149t80 115t120 74t149 26q82 0 151.5 -25t120.5 -71q50 -47 78.5 -113.5t28.5 -149.5v-8
q0 -83 -27 -151t-77 -116q-50 -49 -120.5 -76t-157.5 -27zM331 905h150l110 -146h-130l-59 49l-58 -49h-127z" />
    <glyph glyph-name="Otilde" unicode="&#xd5;" horiz-adv-x="819" 
d="M406 149q76 0 120 54.5t44 151.5v8q0 96 -44.5 149t-120.5 53t-120 -52.5t-44 -150.5v-8q0 -98 45 -151.5t120 -53.5zM402 -12q-87 0 -156 27t-118 75t-75 115t-26 148v8q0 82 29 149t80 115t120 74t149 26q82 0 151.5 -25t120.5 -71q50 -47 78.5 -113.5t28.5 -149.5v-8
q0 -83 -27 -151t-77 -116q-50 -49 -120.5 -76t-157.5 -27zM469 758q-21 0 -38.5 5.5t-31.5 11.5t-26 11.5t-24 5.5t-20.5 -9.5t-10.5 -23.5h-102q3 39 13.5 68t27.5 48q16 19 37 28t44 9q20 0 37 -5t32 -11q14 -7 27 -12t25 -5q14 0 21.5 9t10.5 23h101q-3 -39 -14 -68
t-27 -48q-17 -19 -38.5 -28t-43.5 -9z" />
    <glyph glyph-name="Odieresis" unicode="&#xd6;" horiz-adv-x="819" 
d="M406 149q76 0 120 54.5t44 151.5v8q0 96 -44.5 149t-120.5 53t-120 -52.5t-44 -150.5v-8q0 -98 45 -151.5t120 -53.5zM402 -12q-87 0 -156 27t-118 75t-75 115t-26 148v8q0 82 29 149t80 115t120 74t149 26q82 0 151.5 -25t120.5 -71q50 -47 78.5 -113.5t28.5 -149.5v-8
q0 -83 -27 -151t-77 -116q-50 -49 -120.5 -76t-157.5 -27zM292 758q-18 0 -33.5 6.5t-26.5 17.5q-12 11 -18.5 26.5t-6.5 32.5q0 35 25 59.5t60 24.5q36 0 61 -24.5t25 -59.5t-25 -59t-61 -24zM515 758q-36 0 -60.5 24t-24.5 59t24.5 59.5t60.5 24.5t61 -24.5t25 -59.5
t-25 -59t-61 -24z" />
    <glyph glyph-name="multiply" unicode="&#xd7;" horiz-adv-x="571" 
d="M39 184l152 152l-155 154l95 96l154 -156l153 153l94 -95l-153 -152l155 -154l-95 -95l-154 155l-152 -152z" />
    <glyph glyph-name="Oslash" unicode="&#xd8;" horiz-adv-x="819" 
d="M32 26l80 85q-39 47 -60 108.5t-21 133.5v8q0 82 29 149t80 115t120 74t149 26q66 0 123 -16t104 -46l73 77l59 -58l-69 -73q42 -45 65.5 -106.5t23.5 -136.5v-8q0 -83 -27 -151t-77 -116q-50 -49 -120.5 -76t-157.5 -27q-70 0 -128.5 17.5t-104.5 49.5l-82 -87zM410 149
q77 0 121.5 54.5t44.5 151.5v8q0 29 -4 53.5t-12 45.5l-260 -273q22 -20 49.5 -30t60.5 -10zM243 354q0 -27 3.5 -50t9.5 -42l255 270q-20 17 -45.5 25t-56.5 8q-77 0 -121.5 -52.5t-44.5 -150.5v-8z" />
    <glyph glyph-name="Ugrave" unicode="&#xd9;" horiz-adv-x="764" 
d="M377 -12q-152 0 -234.5 75.5t-82.5 226.5v425h205v-416q0 -76 23.5 -113t88.5 -37q64 0 88 36t24 117v413h207v-422q0 -78 -22 -135.5t-63 -94.5q-42 -38 -101 -56.5t-133 -18.5zM217 905h186l49 -146h-135z" />
    <glyph glyph-name="Uacute" unicode="&#xda;" horiz-adv-x="764" 
d="M377 -12q-152 0 -234.5 75.5t-82.5 226.5v425h205v-416q0 -76 23.5 -113t88.5 -37q64 0 88 36t24 117v413h207v-422q0 -78 -22 -135.5t-63 -94.5q-42 -38 -101 -56.5t-133 -18.5zM351 905h187l-103 -146h-135z" />
    <glyph glyph-name="Ucircumflex" unicode="&#xdb;" horiz-adv-x="764" 
d="M377 -12q-152 0 -234.5 75.5t-82.5 226.5v425h205v-416q0 -76 23.5 -113t88.5 -37q64 0 88 36t24 117v413h207v-422q0 -78 -22 -135.5t-63 -94.5q-42 -38 -101 -56.5t-133 -18.5zM303 905h150l110 -146h-130l-59 49l-58 -49h-127z" />
    <glyph glyph-name="Udieresis" unicode="&#xdc;" horiz-adv-x="764" 
d="M377 -12q-152 0 -234.5 75.5t-82.5 226.5v425h205v-416q0 -76 23.5 -113t88.5 -37q64 0 88 36t24 117v413h207v-422q0 -78 -22 -135.5t-63 -94.5q-42 -38 -101 -56.5t-133 -18.5zM264 758q-18 0 -33.5 6.5t-26.5 17.5q-12 11 -18.5 26.5t-6.5 32.5q0 35 25 59.5t60 24.5
q36 0 61 -24.5t25 -59.5t-25 -59t-61 -24zM487 758q-36 0 -60.5 24t-24.5 59t24.5 59.5t60.5 24.5t61 -24.5t25 -59.5t-25 -59t-61 -24z" />
    <glyph glyph-name="Yacute" unicode="&#xdd;" horiz-adv-x="677" 
d="M237 306l-233 409h223l121 -241l121 241h196l-222 -409v-306h-206v306zM316 905h187l-103 -146h-135z" />
    <glyph glyph-name="Thorn" unicode="&#xde;" horiz-adv-x="652" 
d="M69 715h204v-117h68q148 0 217.5 -57t69.5 -173v-4q0 -112 -72 -170.5t-206 -58.5h-77v-135h-204v715zM332 275q51 0 76 22t25 66v4q0 47 -26 66t-74 19h-60v-177h59z" />
    <glyph glyph-name="germandbls" unicode="&#xdf;" horiz-adv-x="636" 
d="M381 -10q-33 0 -57.5 3.5t-38.5 7.5v135q9 -3 21 -6t28 -3q19 0 36 5.5t31 18.5q13 13 21 35.5t8 56.5v6q0 34 -10.5 56.5t-28.5 36.5q-19 13 -44.5 19t-55.5 6v133q25 0 43 6.5t30 17.5q11 11 16.5 25t5.5 29v3q0 34 -19 53t-56 19q-36 0 -57.5 -24.5t-21.5 -69.5v-559
h-179v544q0 60 21.5 103t58.5 71q36 27 85 40t104 13q108 0 171 -46t63 -137v-2q0 -52 -33.5 -89t-85.5 -53q35 -8 67 -24.5t56 -41.5q24 -26 38 -61t14 -80v-7q0 -61 -17.5 -106t-47.5 -75q-31 -30 -73.5 -44.5t-92.5 -14.5z" />
    <glyph glyph-name="agrave" unicode="&#xe0;" horiz-adv-x="578" 
d="M200 -12q-35 0 -67 9t-56 28q-25 19 -39.5 48.5t-14.5 71.5q0 92 73.5 131.5t204.5 39.5h50v12q0 38 -13 60.5t-56 22.5q-37 0 -52.5 -18.5t-18.5 -43.5h-168q3 47 22.5 82.5t52.5 59.5q32 23 76.5 34.5t98.5 11.5t97.5 -11.5t74.5 -35.5t47.5 -61.5t16.5 -89.5v-339
h-174v61q-19 -29 -55.5 -51t-99.5 -22zM262 109q38 0 63.5 20t25.5 54v32h-47q-54 0 -79 -12.5t-25 -44.5q0 -23 15 -36t47 -13zM127 749h180l53 -166h-128z" />
    <glyph glyph-name="aacute" unicode="&#xe1;" horiz-adv-x="578" 
d="M200 -12q-35 0 -67 9t-56 28q-25 19 -39.5 48.5t-14.5 71.5q0 92 73.5 131.5t204.5 39.5h50v12q0 38 -13 60.5t-56 22.5q-37 0 -52.5 -18.5t-18.5 -43.5h-168q3 47 22.5 82.5t52.5 59.5q32 23 76.5 34.5t98.5 11.5t97.5 -11.5t74.5 -35.5t47.5 -61.5t16.5 -89.5v-339
h-174v61q-19 -29 -55.5 -51t-99.5 -22zM262 109q38 0 63.5 20t25.5 54v32h-47q-54 0 -79 -12.5t-25 -44.5q0 -23 15 -36t47 -13zM275 749h180l-105 -166h-128z" />
    <glyph glyph-name="acircumflex" unicode="&#xe2;" horiz-adv-x="578" 
d="M196 -12q-35 0 -67 9t-56 28q-25 19 -39.5 48.5t-14.5 71.5q0 92 73.5 131.5t204.5 39.5h50v12q0 38 -13 60.5t-56 22.5q-37 0 -52.5 -18.5t-18.5 -43.5h-168q3 47 22.5 82.5t52.5 59.5q32 23 76.5 34.5t98.5 11.5t97.5 -11.5t74.5 -35.5t47.5 -61.5t16.5 -89.5v-339
h-174v61q-19 -29 -55.5 -51t-99.5 -22zM258 109q38 0 63.5 20t25.5 54v32h-47q-54 0 -79 -12.5t-25 -44.5q0 -23 15 -36t47 -13zM221 748h128l118 -163h-125l-61 56l-60 -56h-123z" />
    <glyph glyph-name="atilde" unicode="&#xe3;" horiz-adv-x="578" 
d="M200 -12q-35 0 -67 9t-56 28q-25 19 -39.5 48.5t-14.5 71.5q0 92 73.5 131.5t204.5 39.5h50v12q0 38 -13 60.5t-56 22.5q-37 0 -52.5 -18.5t-18.5 -43.5h-168q3 47 22.5 82.5t52.5 59.5q32 23 76.5 34.5t98.5 11.5t97.5 -11.5t74.5 -35.5t47.5 -61.5t16.5 -89.5v-339
h-174v61q-19 -29 -55.5 -51t-99.5 -22zM262 109q38 0 63.5 20t25.5 54v32h-47q-54 0 -79 -12.5t-25 -44.5q0 -23 15 -36t47 -13zM355 587q-21 0 -37.5 5t-30.5 12q-14 6 -25.5 11t-23.5 5t-20.5 -9t-10.5 -23h-97q5 79 36.5 117.5t78.5 38.5q20 0 36.5 -5.5t31.5 -11.5
q14 -6 26.5 -11.5t24.5 -5.5q14 0 21.5 9t10.5 23h97q-6 -78 -39.5 -116.5t-78.5 -38.5z" />
    <glyph glyph-name="adieresis" unicode="&#xe4;" horiz-adv-x="578" 
d="M200 -12q-35 0 -67 9t-56 28q-25 19 -39.5 48.5t-14.5 71.5q0 92 73.5 131.5t204.5 39.5h50v12q0 38 -13 60.5t-56 22.5q-37 0 -52.5 -18.5t-18.5 -43.5h-168q3 47 22.5 82.5t52.5 59.5q32 23 76.5 34.5t98.5 11.5t97.5 -11.5t74.5 -35.5t47.5 -61.5t16.5 -89.5v-339
h-174v61q-19 -29 -55.5 -51t-99.5 -22zM262 109q38 0 63.5 20t25.5 54v32h-47q-54 0 -79 -12.5t-25 -44.5q0 -23 15 -36t47 -13zM184 580q-18 0 -33.5 6.5t-26.5 17.5q-12 11 -18.5 26.5t-6.5 32.5t6.5 32.5t18.5 27.5q11 11 26.5 17.5t33.5 6.5q36 0 61 -24.5t25 -59.5
t-25 -59t-61 -24zM397 580q-36 0 -60.5 24t-24.5 59t24.5 59.5t60.5 24.5t61 -24.5t25 -59.5t-25 -59t-61 -24z" />
    <glyph glyph-name="aring" unicode="&#xe5;" horiz-adv-x="578" 
d="M196 -12q-35 0 -67 9t-56 28q-25 19 -39.5 48.5t-14.5 71.5q0 92 73.5 131.5t204.5 39.5h50v12q0 38 -13 60.5t-56 22.5q-37 0 -52.5 -18.5t-18.5 -43.5h-168q3 47 22.5 82.5t52.5 59.5q32 23 76.5 34.5t98.5 11.5t97.5 -11.5t74.5 -35.5t47.5 -61.5t16.5 -89.5v-339
h-174v61q-19 -29 -55.5 -51t-99.5 -22zM258 109q38 0 63.5 20t25.5 54v32h-47q-54 0 -79 -12.5t-25 -44.5q0 -23 15 -36t47 -13zM287 642q20 0 33 14t13 36q0 23 -13 37t-33 14t-33 -14t-13 -37q0 -22 13 -36t33 -14zM287 578q-24 0 -45.5 9t-37.5 25q-16 15 -25.5 35.5
t-9.5 44.5t9.5 44.5t25.5 36.5t37.5 25t45.5 9t45.5 -9t37.5 -25t25.5 -36.5t9.5 -44.5t-9.5 -44.5t-25.5 -35.5q-16 -16 -37.5 -25t-45.5 -9z" />
    <glyph glyph-name="ae" unicode="&#xe6;" horiz-adv-x="908" 
d="M627 -12q-70 0 -121 23t-82 68q-32 -43 -81 -67t-126 -24q-40 0 -75 9t-61 28q-27 19 -42.5 48.5t-15.5 71.5q0 92 73 133t204 41h53v9q0 38 -14 60.5t-56 22.5q-37 0 -52.5 -17.5t-19.5 -44.5h-168q3 47 22.5 82.5t51.5 59.5q32 23 75 34.5t94 11.5q60 0 102.5 -15.5
t66.5 -46.5q33 31 74.5 46.5t92.5 15.5q53 0 100.5 -15.5t83.5 -48.5t57 -84t21 -122v-46h-360q4 -54 30 -82t74 -28q44 0 64 18t25 44h167q-12 -89 -77 -137t-180 -48zM711 319q-3 50 -25 75t-64 25q-40 0 -66 -26t-31 -74h186zM263 109q42 0 66 20t24 54v35h-50
q-51 0 -77 -11.5t-26 -44.5q0 -26 16 -39.5t47 -13.5z" />
    <glyph glyph-name="ccedilla" unicode="&#xe7;" horiz-adv-x="583" 
d="M281 -226q-54 0 -87 24t-40 69h84q3 -11 11 -19.5t25 -8.5q15 0 23.5 8.5t8.5 21.5q0 14 -8.5 22.5t-24.5 8.5q-12 0 -19.5 -3.5t-12.5 -7.5l-39 38l43 65q-48 7 -88.5 27t-69.5 53t-45.5 79t-16.5 104v8q0 65 22 116t60 86t88.5 53.5t108.5 18.5q48 0 92.5 -11t79.5 -36
q35 -26 57.5 -67t26.5 -101h-168q-6 37 -25.5 56.5t-58.5 19.5q-48 0 -74 -33.5t-26 -99.5v-8q0 -69 26 -103.5t77 -34.5q38 0 62 22t29 65h161q-4 -97 -66 -155.5t-183 -62.5l-23 -33q22 2 42 -2t36 -15q15 -10 24 -27.5t9 -41.5q0 -45 -33 -70t-88 -25z" />
    <glyph glyph-name="egrave" unicode="&#xe8;" horiz-adv-x="598" 
d="M305 -12q-62 0 -114 17.5t-89 51.5q-38 34 -59.5 84t-21.5 114v8q0 63 22 113.5t60 86.5t90 55t111 19q54 0 102 -16t85 -49q36 -33 57.5 -84t21.5 -121v-47h-368q4 -52 32.5 -80.5t76.5 -28.5q45 0 65.5 18t25.5 44h168q-12 -89 -79 -137t-186 -48zM396 321
q-2 48 -25 73t-67 25q-41 0 -67 -25t-33 -73h192zM135 749h180l53 -166h-128z" />
    <glyph glyph-name="eacute" unicode="&#xe9;" horiz-adv-x="598" 
d="M305 -12q-62 0 -114 17.5t-89 51.5q-38 34 -59.5 84t-21.5 114v8q0 63 22 113.5t60 86.5t90 55t111 19q54 0 102 -16t85 -49q36 -33 57.5 -84t21.5 -121v-47h-368q4 -52 32.5 -80.5t76.5 -28.5q45 0 65.5 18t25.5 44h168q-12 -89 -79 -137t-186 -48zM396 321
q-2 48 -25 73t-67 25q-41 0 -67 -25t-33 -73h192zM283 749h180l-105 -166h-128z" />
    <glyph glyph-name="ecircumflex" unicode="&#xea;" horiz-adv-x="598" 
d="M305 -12q-62 0 -114 17.5t-89 51.5q-38 34 -59.5 84t-21.5 114v8q0 63 22 113.5t60 86.5t90 55t111 19q54 0 102 -16t85 -49q36 -33 57.5 -84t21.5 -121v-47h-368q4 -52 32.5 -80.5t76.5 -28.5q45 0 65.5 18t25.5 44h168q-12 -89 -79 -137t-186 -48zM396 321
q-2 48 -25 73t-67 25q-41 0 -67 -25t-33 -73h192zM237 748h128l118 -163h-125l-61 56l-60 -56h-123z" />
    <glyph glyph-name="edieresis" unicode="&#xeb;" horiz-adv-x="598" 
d="M305 -12q-62 0 -114 17.5t-89 51.5q-38 34 -59.5 84t-21.5 114v8q0 63 22 113.5t60 86.5t90 55t111 19q54 0 102 -16t85 -49q36 -33 57.5 -84t21.5 -121v-47h-368q4 -52 32.5 -80.5t76.5 -28.5q45 0 65.5 18t25.5 44h168q-12 -89 -79 -137t-186 -48zM396 321
q-2 48 -25 73t-67 25q-41 0 -67 -25t-33 -73h192zM192 580q-18 0 -33.5 6.5t-26.5 17.5q-12 11 -18.5 26.5t-6.5 32.5t6.5 32.5t18.5 27.5q11 11 26.5 17.5t33.5 6.5q36 0 61 -24.5t25 -59.5t-25 -59t-61 -24zM405 580q-36 0 -60.5 24t-24.5 59t24.5 59.5t60.5 24.5
t61 -24.5t25 -59.5t-25 -59t-61 -24z" />
    <glyph glyph-name="igrave" unicode="&#xec;" horiz-adv-x="295" 
d="M58 523h179v-523h-179v523zM-16 749h180l53 -166h-128z" />
    <glyph glyph-name="iacute" unicode="&#xed;" horiz-adv-x="299" 
d="M58 523h179v-523h-179v523zM132 749h180l-105 -166h-128z" />
    <glyph glyph-name="icircumflex" unicode="&#xee;" horiz-adv-x="295" 
d="M54 523h179v-523h-179v523zM82 748h128l118 -163h-125l-61 56l-60 -56h-123z" />
    <glyph glyph-name="idieresis" unicode="&#xef;" horiz-adv-x="295" 
d="M42 580q-18 0 -33.5 6.5t-27.5 17.5q-11 11 -17.5 26.5t-6.5 32.5t6.5 32.5t17.5 27.5q12 11 27.5 17.5t33.5 6.5q36 0 61 -24.5t25 -59.5t-25 -59t-61 -24zM252 580q-18 0 -33.5 6.5t-26.5 17.5q-12 11 -18.5 26.5t-6.5 32.5t6.5 32.5t18.5 27.5q11 11 26.5 17.5
t33.5 6.5q36 0 61 -24.5t25 -59.5t-25 -59t-61 -24zM58 523h179v-523h-179v523z" />
    <glyph glyph-name="eth" unicode="&#xf0;" horiz-adv-x="623" 
d="M117 618l109 40q-31 27 -61.5 51t-58.5 44h198q14 -9 30 -19.5t33 -22.5l106 39l24 -63l-70 -26q33 -31 63.5 -68.5t54.5 -82.5t38 -96t14 -109v-22q0 -69 -21 -123.5t-59 -92.5t-91 -58.5t-118 -20.5q-60 0 -112 18.5t-90 53.5t-59.5 86.5t-21.5 116.5v11q0 60 20 107.5
t53 80.5q33 32 75 49.5t86 17.5q38 0 61.5 -10t46.5 -34q-15 32 -37.5 62.5t-49.5 59.5l-139 -51zM312 121q51 0 77 35.5t26 101.5v8q0 66 -26 101.5t-77 35.5q-50 0 -77 -34.5t-27 -100.5v-8q0 -68 26 -103.5t78 -35.5z" />
    <glyph glyph-name="ntilde" unicode="&#xf1;" horiz-adv-x="624" 
d="M49 523h179v-84q21 41 63.5 69.5t108.5 28.5q76 0 123.5 -48.5t47.5 -148.5v-340h-179v304q0 45 -18 66.5t-57 21.5q-40 0 -64.5 -24t-24.5 -75v-293h-179v523zM373 587q-21 0 -37.5 5t-30.5 12q-14 6 -25.5 11t-23.5 5t-20.5 -9t-10.5 -23h-97q5 79 36.5 117.5
t78.5 38.5q20 0 36.5 -5.5t31.5 -11.5q14 -6 26.5 -11.5t24.5 -5.5q14 0 21.5 9t10.5 23h97q-6 -78 -39.5 -116.5t-78.5 -38.5z" />
    <glyph glyph-name="ograve" unicode="&#xf2;" horiz-adv-x="622" 
d="M308 121q51 0 77 35.5t26 101.5v8q0 66 -26 101.5t-77 35.5t-77.5 -34.5t-26.5 -100.5v-8q0 -68 26 -103.5t78 -35.5zM307 -12q-60 0 -112.5 18t-90.5 52q-39 34 -61 84t-22 113v8q0 63 22 113.5t61 86.5q38 36 90.5 55t113.5 19q60 0 112.5 -18.5t90.5 -53.5t60 -85
t22 -112v-8q0 -64 -22 -114.5t-60 -85.5q-39 -35 -91.5 -53.5t-112.5 -18.5zM143 749h180l53 -166h-128z" />
    <glyph glyph-name="oacute" unicode="&#xf3;" horiz-adv-x="622" 
d="M308 121q51 0 77 35.5t26 101.5v8q0 66 -26 101.5t-77 35.5t-77.5 -34.5t-26.5 -100.5v-8q0 -68 26 -103.5t78 -35.5zM307 -12q-60 0 -112.5 18t-90.5 52q-39 34 -61 84t-22 113v8q0 63 22 113.5t61 86.5q38 36 90.5 55t113.5 19q60 0 112.5 -18.5t90.5 -53.5t60 -85
t22 -112v-8q0 -64 -22 -114.5t-60 -85.5q-39 -35 -91.5 -53.5t-112.5 -18.5zM291 749h180l-105 -166h-128z" />
    <glyph glyph-name="ocircumflex" unicode="&#xf4;" horiz-adv-x="622" 
d="M308 121q51 0 77 35.5t26 101.5v8q0 66 -26 101.5t-77 35.5t-77.5 -34.5t-26.5 -100.5v-8q0 -68 26 -103.5t78 -35.5zM307 -12q-60 0 -112.5 18t-90.5 52q-39 34 -61 84t-22 113v8q0 63 22 113.5t61 86.5q38 36 90.5 55t113.5 19q60 0 112.5 -18.5t90.5 -53.5t60 -85
t22 -112v-8q0 -64 -22 -114.5t-60 -85.5q-39 -35 -91.5 -53.5t-112.5 -18.5zM245 748h128l118 -163h-125l-61 56l-60 -56h-123z" />
    <glyph glyph-name="otilde" unicode="&#xf5;" horiz-adv-x="622" 
d="M308 121q51 0 77 35.5t26 101.5v8q0 66 -26 101.5t-77 35.5t-77.5 -34.5t-26.5 -100.5v-8q0 -68 26 -103.5t78 -35.5zM307 -12q-60 0 -112.5 18t-90.5 52q-39 34 -61 84t-22 113v8q0 63 22 113.5t61 86.5q38 36 90.5 55t113.5 19q60 0 112.5 -18.5t90.5 -53.5t60 -85
t22 -112v-8q0 -64 -22 -114.5t-60 -85.5q-39 -35 -91.5 -53.5t-112.5 -18.5zM371 587q-21 0 -37.5 5t-30.5 12q-14 6 -25.5 11t-23.5 5t-20.5 -9t-10.5 -23h-97q5 79 36.5 117.5t78.5 38.5q20 0 36.5 -5.5t31.5 -11.5q14 -6 26.5 -11.5t24.5 -5.5q14 0 21.5 9t10.5 23h97
q-6 -78 -39.5 -116.5t-78.5 -38.5z" />
    <glyph glyph-name="odieresis" unicode="&#xf6;" horiz-adv-x="622" 
d="M308 121q51 0 77 35.5t26 101.5v8q0 66 -26 101.5t-77 35.5t-77.5 -34.5t-26.5 -100.5v-8q0 -68 26 -103.5t78 -35.5zM307 -12q-60 0 -112.5 18t-90.5 52q-39 34 -61 84t-22 113v8q0 63 22 113.5t61 86.5q38 36 90.5 55t113.5 19q60 0 112.5 -18.5t90.5 -53.5t60 -85
t22 -112v-8q0 -64 -22 -114.5t-60 -85.5q-39 -35 -91.5 -53.5t-112.5 -18.5zM200 580q-18 0 -33.5 6.5t-26.5 17.5q-12 11 -18.5 26.5t-6.5 32.5t6.5 32.5t18.5 27.5q11 11 26.5 17.5t33.5 6.5q36 0 61 -24.5t25 -59.5t-25 -59t-61 -24zM413 580q-36 0 -60.5 24t-24.5 59
t24.5 59.5t60.5 24.5t61 -24.5t25 -59.5t-25 -59t-61 -24z" />
    <glyph glyph-name="divide" unicode="&#xf7;" horiz-adv-x="572" 
d="M286 43q-39 0 -66.5 26.5t-27.5 65.5q0 19 7.5 36t20.5 30q12 12 29 19.5t37 7.5q19 0 36.5 -7.5t30.5 -19.5q12 -13 19.5 -30t7.5 -36q0 -39 -27.5 -65.5t-66.5 -26.5zM37 402h498v-124h-498v124zM286 452q-20 0 -37 7.5t-29 20.5q-13 12 -20.5 29t-7.5 36
q0 39 27.5 65.5t66.5 26.5t66.5 -26.5t27.5 -65.5q0 -19 -7.5 -36t-19.5 -29q-13 -13 -30.5 -20.5t-36.5 -7.5z" />
    <glyph glyph-name="oslash" unicode="&#xf8;" horiz-adv-x="622" 
d="M21 9l66 70q-29 33 -45.5 77t-16.5 99v8q0 63 22 113.5t61 86.5q38 36 90.5 55t113.5 19q46 0 87 -10.5t76 -32.5l65 69l52 -48l-62 -66q32 -35 49.5 -80t17.5 -101v-8q0 -64 -22 -114.5t-60 -85.5q-39 -35 -91.5 -53.5t-112.5 -18.5q-49 0 -92 11.5t-78 33.5l-68 -72z
M312 120q52 0 78.5 36t26.5 102v8q0 16 -1.5 29.5t-4.5 25.5l-167 -178q13 -11 30 -17t38 -6zM206 260q0 -14 1 -26t3 -23l163 174q-11 10 -26.5 14.5t-34.5 4.5q-51 0 -78.5 -34.5t-27.5 -101.5v-8z" />
    <glyph glyph-name="ugrave" unicode="&#xf9;" horiz-adv-x="623" 
d="M221 -12q-38 0 -70 11.5t-55 35.5q-24 24 -37.5 60.5t-13.5 86.5v341h179v-312q0 -44 18.5 -66t55.5 -22q41 0 65 24t24 75v301h179v-523h-179v81q-21 -41 -60.5 -67t-105.5 -26zM142 749h180l53 -166h-128z" />
    <glyph glyph-name="uacute" unicode="&#xfa;" horiz-adv-x="623" 
d="M221 -12q-38 0 -70 11.5t-55 35.5q-24 24 -37.5 60.5t-13.5 86.5v341h179v-312q0 -44 18.5 -66t55.5 -22q41 0 65 24t24 75v301h179v-523h-179v81q-21 -41 -60.5 -67t-105.5 -26zM290 749h180l-105 -166h-128z" />
    <glyph glyph-name="ucircumflex" unicode="&#xfb;" horiz-adv-x="623" 
d="M221 -12q-38 0 -70 11.5t-55 35.5q-24 24 -37.5 60.5t-13.5 86.5v341h179v-312q0 -44 18.5 -66t55.5 -22q41 0 65 24t24 75v301h179v-523h-179v81q-21 -41 -60.5 -67t-105.5 -26zM244 748h128l118 -163h-125l-61 56l-60 -56h-123z" />
    <glyph glyph-name="udieresis" unicode="&#xfc;" horiz-adv-x="623" 
d="M221 -12q-38 0 -70 11.5t-55 35.5q-24 24 -37.5 60.5t-13.5 86.5v341h179v-312q0 -44 18.5 -66t55.5 -22q41 0 65 24t24 75v301h179v-523h-179v81q-21 -41 -60.5 -67t-105.5 -26zM199 580q-18 0 -33.5 6.5t-26.5 17.5q-12 11 -18.5 26.5t-6.5 32.5t6.5 32.5t18.5 27.5
q11 11 26.5 17.5t33.5 6.5q36 0 61 -24.5t25 -59.5t-25 -59t-61 -24zM412 580q-36 0 -60.5 24t-24.5 59t24.5 59.5t60.5 24.5t61 -24.5t25 -59.5t-25 -59t-61 -24z" />
    <glyph glyph-name="yacute" unicode="&#xfd;" horiz-adv-x="589" 
d="M217 53l-209 470h194l108 -279l100 279h171l-280 -698h-171zM289 749h180l-105 -166h-128z" />
    <glyph glyph-name="thorn" unicode="&#xfe;" horiz-adv-x="643" 
d="M53 753h179v-308q23 38 63 65t100 27q46 0 86 -17t70 -51t47.5 -85t17.5 -118v-8q0 -68 -17.5 -118.5t-47.5 -83.5q-30 -34 -70.5 -51t-86.5 -17q-60 0 -101 25t-61 64v-252h-179v928zM331 125q51 0 77 34t26 99v8q0 69 -27.5 102.5t-75.5 33.5q-49 0 -76.5 -34.5
t-27.5 -100.5v-8q0 -67 27.5 -100.5t76.5 -33.5z" />
    <glyph glyph-name="ydieresis" unicode="&#xff;" horiz-adv-x="589" 
d="M213 53l-209 470h194l108 -279l100 279h171l-280 -698h-171zM194 580q-18 0 -33.5 6.5t-26.5 17.5q-12 11 -18.5 26.5t-6.5 32.5t6.5 32.5t18.5 27.5q11 11 26.5 17.5t33.5 6.5q36 0 61 -24.5t25 -59.5t-25 -59t-61 -24zM407 580q-36 0 -60.5 24t-24.5 59t24.5 59.5
t60.5 24.5t61 -24.5t25 -59.5t-25 -59t-61 -24z" />
    <glyph glyph-name="Amacron" unicode="&#x100;" horiz-adv-x="747" 
d="M242 715h265l227 -715h-217l-38 133h-237l-38 -133h-191zM282 274h157l-78 275zM210 878h322v-107h-322v107z" />
    <glyph glyph-name="amacron" unicode="&#x101;" horiz-adv-x="578" 
d="M196 -12q-35 0 -67 9t-56 28q-25 19 -39.5 48.5t-14.5 71.5q0 92 73.5 131.5t204.5 39.5h50v12q0 38 -13 60.5t-56 22.5q-37 0 -52.5 -18.5t-18.5 -43.5h-168q3 47 22.5 82.5t52.5 59.5q32 23 76.5 34.5t98.5 11.5t97.5 -11.5t74.5 -35.5t47.5 -61.5t16.5 -89.5v-339
h-174v61q-19 -29 -55.5 -51t-99.5 -22zM258 109q38 0 63.5 20t25.5 54v32h-47q-54 0 -79 -12.5t-25 -44.5q0 -23 15 -36t47 -13zM133 712h307v-100h-307v100z" />
    <glyph glyph-name="Abreve" unicode="&#x102;" horiz-adv-x="747" 
d="M238 715h265l227 -715h-217l-38 133h-237l-38 -133h-191zM278 274h157l-78 275zM366 752q-74 0 -117 40.5t-48 112.5h116q2 -21 14.5 -33.5t34.5 -12.5t35.5 12.5t16.5 33.5h115q-6 -72 -50.5 -112.5t-116.5 -40.5z" />
    <glyph glyph-name="abreve" unicode="&#x103;" horiz-adv-x="578" 
d="M200 -12q-35 0 -67 9t-56 28q-25 19 -39.5 48.5t-14.5 71.5q0 92 73.5 131.5t204.5 39.5h50v12q0 38 -13 60.5t-56 22.5q-37 0 -52.5 -18.5t-18.5 -43.5h-168q3 47 22.5 82.5t52.5 59.5q32 23 76.5 34.5t98.5 11.5t97.5 -11.5t74.5 -35.5t47.5 -61.5t16.5 -89.5v-339
h-174v61q-19 -29 -55.5 -51t-99.5 -22zM262 109q38 0 63.5 20t25.5 54v32h-47q-54 0 -79 -12.5t-25 -44.5q0 -23 15 -36t47 -13zM290 587q-72 0 -115.5 41t-47.5 117h111q2 -23 15 -35.5t37 -12.5t38 13t16 35h111q-5 -76 -50 -117t-115 -41z" />
    <glyph glyph-name="Aogonek" unicode="&#x104;" horiz-adv-x="747" 
d="M636 -182q-58 0 -90.5 22t-32.5 59q0 18 7.5 33.5t19.5 27.5t27 22t31 18h-81l-38 133h-237l-38 -133h-191l229 715h265l222 -701q-30 -18 -45.5 -37.5t-15.5 -36.5q0 -13 7.5 -19.5t21.5 -6.5q9 0 16 1.5t14 3.5v-85q-14 -6 -36.5 -11t-54.5 -5zM282 274h157l-78 275z
" />
    <glyph glyph-name="aogonek" unicode="&#x105;" horiz-adv-x="578" 
d="M443 -182q-54 0 -85 21t-31 59q0 19 7.5 34.5t19.5 27.5q12 13 27.5 22.5t31.5 17.5h-58v61q-19 -29 -55.5 -51t-99.5 -22q-35 0 -67 9t-56 28q-25 19 -39.5 48.5t-14.5 71.5q0 92 73.5 131.5t204.5 39.5h50v12q0 38 -13 60.5t-56 22.5q-37 0 -52.5 -18.5t-18.5 -43.5
h-168q3 47 22.5 82.5t52.5 59.5q32 23 76.5 34.5t98.5 11.5t97.5 -11.5t74.5 -35.5t47.5 -61.5t16.5 -89.5v-328q-31 -22 -43.5 -39.5t-12.5 -34.5q0 -14 7.5 -21t22.5 -7q9 0 16 1.5t14 3.5v-80q-14 -6 -35.5 -11t-54.5 -5zM262 109q38 0 63.5 20t25.5 54v32h-47
q-54 0 -79 -12.5t-25 -44.5q0 -23 15 -36t47 -13z" />
    <glyph glyph-name="Cacute" unicode="&#x106;" horiz-adv-x="759" 
d="M401 -12q-94 0 -164 26t-116 74q-47 48 -70 115.5t-23 149.5v8q0 82 27.5 149.5t76.5 115.5t116 74t145 26q70 0 128 -16.5t102 -49.5q43 -34 69.5 -86t32.5 -123h-211q-6 55 -36 84t-84 29q-69 0 -109.5 -52t-40.5 -150v-8q0 -97 39.5 -149.5t113.5 -52.5
q54 0 89.5 28.5t43.5 88.5h204q-5 -69 -32 -122t-70 -88q-44 -35 -103 -53t-128 -18zM366 905h187l-103 -146h-135z" />
    <glyph glyph-name="cacute" unicode="&#x107;" horiz-adv-x="583" 
d="M296 -12q-59 0 -109 17t-87 51q-37 33 -58 83t-21 116v8q0 65 22 116t60 86t88.5 53.5t108.5 18.5q48 0 92.5 -11t79.5 -36q35 -26 57.5 -67t26.5 -101h-168q-6 37 -25.5 56.5t-58.5 19.5q-48 0 -74 -33.5t-26 -99.5v-8q0 -69 26 -103.5t77 -34.5q38 0 62 22t29 65h161
q-4 -99 -70 -158.5t-193 -59.5zM279 749h180l-105 -166h-128z" />
    <glyph glyph-name="Ccircumflex" unicode="&#x108;" horiz-adv-x="759" 
d="M405 -12q-94 0 -164 26t-116 74q-47 48 -70 115.5t-23 149.5v8q0 82 27.5 149.5t76.5 115.5t116 74t145 26q70 0 128 -16.5t102 -49.5q43 -34 69.5 -86t32.5 -123h-211q-6 55 -36 84t-84 29q-69 0 -109.5 -52t-40.5 -150v-8q0 -97 39.5 -149.5t113.5 -52.5
q54 0 89.5 28.5t43.5 88.5h204q-5 -69 -32 -122t-70 -88q-44 -35 -103 -53t-128 -18zM322 905h150l110 -146h-130l-59 49l-58 -49h-127z" />
    <glyph glyph-name="ccircumflex" unicode="&#x109;" horiz-adv-x="583" 
d="M296 -12q-59 0 -109 17t-87 51q-37 33 -58 83t-21 116v8q0 65 22 116t60 86t88.5 53.5t108.5 18.5q48 0 92.5 -11t79.5 -36q35 -26 57.5 -67t26.5 -101h-168q-6 37 -25.5 56.5t-58.5 19.5q-48 0 -74 -33.5t-26 -99.5v-8q0 -69 26 -103.5t77 -34.5q38 0 62 22t29 65h161
q-4 -99 -70 -158.5t-193 -59.5zM233 748h128l118 -163h-125l-61 56l-60 -56h-123z" />
    <glyph glyph-name="Cdotaccent" unicode="&#x10a;" horiz-adv-x="759" 
d="M401 -12q-94 0 -164 26t-116 74q-47 48 -70 115.5t-23 149.5v8q0 82 27.5 149.5t76.5 115.5t116 74t145 26q70 0 128 -16.5t102 -49.5q43 -34 69.5 -86t32.5 -123h-211q-6 55 -36 84t-84 29q-69 0 -109.5 -52t-40.5 -150v-8q0 -97 39.5 -149.5t113.5 -52.5
q54 0 89.5 28.5t43.5 88.5h204q-5 -69 -32 -122t-70 -88q-44 -35 -103 -53t-128 -18zM390 757q-41 0 -68 25.5t-27 64.5q0 38 27 63.5t68 25.5t68 -25.5t27 -63.5q0 -39 -27 -64.5t-68 -25.5z" />
    <glyph glyph-name="cdotaccent" unicode="&#x10b;" horiz-adv-x="583" 
d="M296 -12q-59 0 -109 17t-87 51q-37 33 -58 83t-21 116v8q0 65 22 116t60 86t88.5 53.5t108.5 18.5q48 0 92.5 -11t79.5 -36q35 -26 57.5 -67t26.5 -101h-168q-6 37 -25.5 56.5t-58.5 19.5q-48 0 -74 -33.5t-26 -99.5v-8q0 -69 26 -103.5t77 -34.5q38 0 62 22t29 65h161
q-4 -99 -70 -158.5t-193 -59.5zM298 579q-42 0 -69 25.5t-27 64.5q0 38 27.5 63.5t68.5 25.5t68 -25.5t27 -63.5q0 -39 -27 -64.5t-68 -25.5z" />
    <glyph glyph-name="Ccaron" unicode="&#x10c;" horiz-adv-x="759" 
d="M401 -12q-94 0 -164 26t-116 74q-47 48 -70 115.5t-23 149.5v8q0 82 27.5 149.5t76.5 115.5t116 74t145 26q70 0 128 -16.5t102 -49.5q43 -34 69.5 -86t32.5 -123h-211q-6 55 -36 84t-84 29q-69 0 -109.5 -52t-40.5 -150v-8q0 -97 39.5 -149.5t113.5 -52.5
q54 0 89.5 28.5t43.5 88.5h204q-5 -69 -32 -122t-70 -88q-44 -35 -103 -53t-128 -18zM203 905h130l58 -49l59 49h127l-114 -146h-150z" />
    <glyph glyph-name="ccaron" unicode="&#x10d;" horiz-adv-x="583" 
d="M296 -12q-59 0 -109 17t-87 51q-37 33 -58 83t-21 116v8q0 65 22 116t60 86t88.5 53.5t108.5 18.5q48 0 92.5 -11t79.5 -36q35 -26 57.5 -67t26.5 -101h-168q-6 37 -25.5 56.5t-58.5 19.5q-48 0 -74 -33.5t-26 -99.5v-8q0 -69 26 -103.5t77 -34.5q38 0 62 22t29 65h161
q-4 -99 -70 -158.5t-193 -59.5zM110 748h125l61 -56l61 56h122l-123 -163h-127z" />
    <glyph glyph-name="Dcaron" unicode="&#x10e;" horiz-adv-x="743" 
d="M318 158q92 0 134 48.5t42 148.5v8q0 103 -42 148.5t-136 45.5h-45v-399h47zM65 715h260q190 0 286.5 -91.5t96.5 -257.5v-8q0 -84 -24.5 -150t-72.5 -112q-49 -47 -121 -71.5t-166 -24.5h-259v715zM145 905h130l58 -49l59 49h127l-114 -146h-150z" />
    <glyph glyph-name="dcaron" unicode="&#x10f;" horiz-adv-x="638" 
d="M243 -12q-45 0 -85 16.5t-70 49.5t-47.5 83.5t-17.5 118.5v8q0 67 17 118t47 86q30 34 70.5 51.5t87.5 17.5q62 0 100 -24t61 -64v304h179v-753h-179v85q-20 -41 -61.5 -69t-101.5 -28zM306 125q49 0 77 33.5t28 100.5v8q0 66 -26.5 100.5t-76.5 34.5q-51 0 -77 -34
t-26 -102v-8q0 -66 27 -99.5t74 -33.5zM630 753h133l-49 -174h-93z" />
    <glyph glyph-name="Dcroat" unicode="&#x110;" horiz-adv-x="774" 
d="M29 428h59v287h259q191 0 287 -91.5t96 -257.5v-8q0 -84 -24.5 -150t-72.5 -112q-48 -47 -120 -71.5t-166 -24.5h-259v290h-59v138zM341 158q91 0 133 48.5t42 148.5v8q0 103 -41.5 148.5t-135.5 45.5h-50v-129h120v-138h-120v-132h52z" />
    <glyph glyph-name="dcroat" unicode="&#x111;" horiz-adv-x="642" 
d="M255 683h155v70h179v-70h57v-96h-57v-587h-179v85q-20 -41 -61.5 -69t-101.5 -28q-45 0 -85 16.5t-70 49.5t-47.5 83.5t-17.5 118.5v8q0 67 17 118t47 86q30 34 70.5 51.5t87.5 17.5q62 0 100 -24t61 -64v138h-155v96zM310 125q49 0 77 33.5t28 100.5v8q0 66 -26.5 100.5
t-76.5 34.5q-51 0 -77 -34t-26 -102v-8q0 -66 27 -99.5t74 -33.5z" />
    <glyph glyph-name="Emacron" unicode="&#x112;" horiz-adv-x="612" 
d="M69 715h494v-158h-290v-123h231v-146h-231v-130h306v-158h-510v715zM162 878h322v-107h-322v107z" />
    <glyph glyph-name="emacron" unicode="&#x113;" horiz-adv-x="598" 
d="M305 -12q-62 0 -114 17.5t-89 51.5q-38 34 -59.5 84t-21.5 114v8q0 63 22 113.5t60 86.5t90 55t111 19q54 0 102 -16t85 -49q36 -33 57.5 -84t21.5 -121v-47h-368q4 -52 32.5 -80.5t76.5 -28.5q45 0 65.5 18t25.5 44h168q-12 -89 -79 -137t-186 -48zM396 321
q-2 48 -25 73t-67 25q-41 0 -67 -25t-33 -73h192zM145 712h307v-100h-307v100z" />
    <glyph glyph-name="Ebreve" unicode="&#x114;" horiz-adv-x="612" 
d="M69 715h494v-158h-290v-123h231v-146h-231v-130h306v-158h-510v715zM322 752q-74 0 -117 40.5t-48 112.5h116q2 -21 14.5 -33.5t34.5 -12.5t35.5 12.5t16.5 33.5h115q-6 -72 -50.5 -112.5t-116.5 -40.5z" />
    <glyph glyph-name="ebreve" unicode="&#x115;" horiz-adv-x="598" 
d="M305 -12q-62 0 -114 17.5t-89 51.5q-38 34 -59.5 84t-21.5 114v8q0 63 22 113.5t60 86.5t90 55t111 19q54 0 102 -16t85 -49q36 -33 57.5 -84t21.5 -121v-47h-368q4 -52 32.5 -80.5t76.5 -28.5q45 0 65.5 18t25.5 44h168q-12 -89 -79 -137t-186 -48zM396 321
q-2 48 -25 73t-67 25q-41 0 -67 -25t-33 -73h192zM293 587q-72 0 -115.5 41t-47.5 117h111q2 -23 15 -35.5t37 -12.5t38 13t16 35h111q-5 -76 -50 -117t-115 -41z" />
    <glyph glyph-name="Edotaccent" unicode="&#x116;" horiz-adv-x="612" 
d="M65 715h494v-158h-290v-123h231v-146h-231v-130h306v-158h-510v715zM320 757q-41 0 -68 25.5t-27 64.5q0 38 27 63.5t68 25.5t68 -25.5t27 -63.5q0 -39 -27 -64.5t-68 -25.5z" />
    <glyph glyph-name="edotaccent" unicode="&#x117;" horiz-adv-x="598" 
d="M305 -12q-62 0 -114 17.5t-89 51.5q-38 34 -59.5 84t-21.5 114v8q0 63 22 113.5t60 86.5t90 55t111 19q54 0 102 -16t85 -49q36 -33 57.5 -84t21.5 -121v-47h-368q4 -52 32.5 -80.5t76.5 -28.5q45 0 65.5 18t25.5 44h168q-12 -89 -79 -137t-186 -48zM396 321
q-2 48 -25 73t-67 25q-41 0 -67 -25t-33 -73h192zM300 579q-42 0 -69 25.5t-27 64.5q0 38 27.5 63.5t68.5 25.5t68 -25.5t27 -63.5q0 -39 -27 -64.5t-68 -25.5z" />
    <glyph glyph-name="Eogonek" unicode="&#x118;" horiz-adv-x="612" 
d="M467 -182q-57 0 -89.5 22t-32.5 59q0 18 7.5 33.5t19.5 27.5t27.5 22t31.5 18h-362v715h494v-158h-290v-123h231v-146h-231v-130h306v-158h-38q-20 -17 -30.5 -30t-10.5 -30q0 -13 7.5 -19.5t22.5 -6.5q8 0 15.5 1t13.5 4v-85q-13 -6 -36 -11t-56 -5z" />
    <glyph glyph-name="eogonek" unicode="&#x119;" horiz-adv-x="598" 
d="M405 -182q-54 0 -86 20.5t-32 58.5q0 31 26 54.5t56 40.5q-13 -2 -29.5 -3t-30.5 -1q-62 0 -114 17.5t-89 51.5q-38 34 -59.5 84t-21.5 114v8q0 63 22 113.5t60 86.5t90 55t111 19q54 0 102 -16t85 -49q36 -33 57.5 -84t21.5 -121v-47h-368q4 -52 32.5 -80.5t76.5 -28.5
q45 0 65.5 18t25.5 44h168q-7 -51 -28.5 -82.5t-42.5 -52.5q-32 -32 -51.5 -55t-19.5 -46q0 -14 8 -21t23 -7q9 0 16 1.5t14 3.5v-80q-14 -6 -33.5 -11t-54.5 -5zM400 321q-2 48 -25 73t-67 25q-41 0 -67 -25t-33 -73h192z" />
    <glyph glyph-name="Ecaron" unicode="&#x11a;" horiz-adv-x="612" 
d="M69 715h494v-158h-290v-123h231v-146h-231v-130h306v-158h-510v715zM137 905h130l58 -49l59 49h127l-114 -146h-150z" />
    <glyph glyph-name="ecaron" unicode="&#x11b;" horiz-adv-x="598" 
d="M305 -12q-62 0 -114 17.5t-89 51.5q-38 34 -59.5 84t-21.5 114v8q0 63 22 113.5t60 86.5t90 55t111 19q54 0 102 -16t85 -49q36 -33 57.5 -84t21.5 -121v-47h-368q4 -52 32.5 -80.5t76.5 -28.5q45 0 65.5 18t25.5 44h168q-12 -89 -79 -137t-186 -48zM396 321
q-2 48 -25 73t-67 25q-41 0 -67 -25t-33 -73h192zM114 748h125l61 -56l61 56h122l-123 -163h-127z" />
    <glyph glyph-name="Gcircumflex" unicode="&#x11c;" horiz-adv-x="787" 
d="M402 -12q-91 0 -161 27t-117 76q-48 48 -72.5 115t-24.5 147v8q0 82 28.5 149t78.5 115t118.5 74.5t149.5 26.5q63 0 121 -15t104 -47q45 -32 74 -81.5t34 -119.5h-203q-7 51 -39.5 76.5t-89.5 25.5q-76 0 -119 -55t-43 -152v-8q0 -44 8.5 -81.5t28.5 -64.5
q20 -28 51.5 -44t78.5 -16q37 0 63.5 9t43.5 24t25 34.5t10 40.5h-134v143h336v-88q0 -68 -22 -126.5t-66 -101.5t-109.5 -67t-152.5 -24zM326 905h150l110 -146h-130l-59 49l-58 -49h-127z" />
    <glyph glyph-name="gcircumflex" unicode="&#x11d;" horiz-adv-x="641" 
d="M294 -194q-67 0 -116 13.5t-82 38.5q-34 26 -52.5 61.5t-23.5 80.5h178q6 -29 26.5 -48.5t69.5 -19.5q60 0 85.5 30.5t25.5 79.5v80q-10 -19 -25.5 -36t-35.5 -30q-21 -14 -46.5 -22t-54.5 -8q-46 0 -86.5 16.5t-70.5 48.5t-47.5 79t-17.5 107v8q0 58 17.5 104.5
t47.5 79.5t70.5 50.5t86.5 17.5q63 0 101 -24t61 -64v74h179v-479q0 -118 -74.5 -178t-215.5 -60zM306 158q48 0 76 32t28 88v7q0 54 -26.5 86t-76.5 32q-51 0 -77 -32.5t-26 -86.5v-8q0 -54 27 -86t75 -32zM239 748h128l118 -163h-125l-61 56l-60 -56h-123z" />
    <glyph glyph-name="Gbreve" unicode="&#x11e;" horiz-adv-x="787" 
d="M402 -12q-91 0 -161 27t-117 76q-48 48 -72.5 115t-24.5 147v8q0 82 28.5 149t78.5 115t118.5 74.5t149.5 26.5q63 0 121 -15t104 -47q45 -32 74 -81.5t34 -119.5h-203q-7 51 -39.5 76.5t-89.5 25.5q-76 0 -119 -55t-43 -152v-8q0 -44 8.5 -81.5t28.5 -64.5
q20 -28 51.5 -44t78.5 -16q37 0 63.5 9t43.5 24t25 34.5t10 40.5h-134v143h336v-88q0 -68 -22 -126.5t-66 -101.5t-109.5 -67t-152.5 -24zM398 752q-74 0 -117 40.5t-48 112.5h116q2 -21 14.5 -33.5t34.5 -12.5t35.5 12.5t16.5 33.5h115q-6 -72 -50.5 -112.5t-116.5 -40.5z
" />
    <glyph glyph-name="gbreve" unicode="&#x11f;" horiz-adv-x="641" 
d="M298 -194q-67 0 -116 13.5t-82 38.5q-34 26 -52.5 61.5t-23.5 80.5h178q6 -29 26.5 -48.5t69.5 -19.5q60 0 85.5 30.5t25.5 79.5v80q-10 -19 -25.5 -36t-35.5 -30q-21 -14 -46.5 -22t-54.5 -8q-46 0 -86.5 16.5t-70.5 48.5t-47.5 79t-17.5 107v8q0 58 17.5 104.5
t47.5 79.5t70.5 50.5t86.5 17.5q63 0 101 -24t61 -64v74h179v-479q0 -118 -74.5 -178t-215.5 -60zM310 158q48 0 76 32t28 88v7q0 54 -26.5 86t-76.5 32q-51 0 -77 -32.5t-26 -86.5v-8q0 -54 27 -86t75 -32zM304 587q-72 0 -115.5 41t-47.5 117h111q2 -23 15 -35.5t37 -12.5
t38 13t16 35h111q-5 -76 -50 -117t-115 -41z" />
    <glyph glyph-name="Gdotaccent" unicode="&#x120;" horiz-adv-x="787" 
d="M402 -12q-91 0 -161 27t-117 76q-48 48 -72.5 115t-24.5 147v8q0 82 28.5 149t78.5 115t118.5 74.5t149.5 26.5q63 0 121 -15t104 -47q45 -32 74 -81.5t34 -119.5h-203q-7 51 -39.5 76.5t-89.5 25.5q-76 0 -119 -55t-43 -152v-8q0 -44 8.5 -81.5t28.5 -64.5
q20 -28 51.5 -44t78.5 -16q37 0 63.5 9t43.5 24t25 34.5t10 40.5h-134v143h336v-88q0 -68 -22 -126.5t-66 -101.5t-109.5 -67t-152.5 -24zM400 757q-41 0 -68 25.5t-27 64.5q0 38 27 63.5t68 25.5t68 -25.5t27 -63.5q0 -39 -27 -64.5t-68 -25.5z" />
    <glyph glyph-name="gdotaccent" unicode="&#x121;" horiz-adv-x="641" 
d="M298 -194q-67 0 -116 13.5t-82 38.5q-34 26 -52.5 61.5t-23.5 80.5h178q6 -29 26.5 -48.5t69.5 -19.5q60 0 85.5 30.5t25.5 79.5v80q-10 -19 -25.5 -36t-35.5 -30q-21 -14 -46.5 -22t-54.5 -8q-46 0 -86.5 16.5t-70.5 48.5t-47.5 79t-17.5 107v8q0 58 17.5 104.5
t47.5 79.5t70.5 50.5t86.5 17.5q63 0 101 -24t61 -64v74h179v-479q0 -118 -74.5 -178t-215.5 -60zM310 158q48 0 76 32t28 88v7q0 54 -26.5 86t-76.5 32q-51 0 -77 -32.5t-26 -86.5v-8q0 -54 27 -86t75 -32zM305 579q-42 0 -69 25.5t-27 64.5q0 38 27.5 63.5t68.5 25.5
t68 -25.5t27 -63.5q0 -39 -27 -64.5t-68 -25.5z" />
    <glyph glyph-name="uni0122" unicode="&#x122;" horiz-adv-x="795" 
d="M406 -12q-91 0 -161 27t-117 76q-48 48 -72.5 115t-24.5 147v8q0 82 28.5 149t78.5 115t118.5 74.5t149.5 26.5q63 0 121 -15t104 -47q45 -32 74 -81.5t34 -119.5h-203q-7 51 -39.5 76.5t-89.5 25.5q-76 0 -119 -55t-43 -152v-8q0 -44 8.5 -81.5t28.5 -64.5
q20 -28 51.5 -44t78.5 -16q37 0 63.5 9t43.5 24t25 34.5t10 40.5h-134v143h336v-88q0 -68 -22 -126.5t-66 -101.5t-109.5 -67t-152.5 -24zM291 -205l42 177l158 -19l-99 -185z" />
    <glyph glyph-name="uni0123" unicode="&#x123;" horiz-adv-x="649" 
d="M298 -194q-67 0 -116 13.5t-82 38.5q-34 26 -52.5 61.5t-23.5 80.5h178q6 -29 26.5 -48.5t69.5 -19.5q60 0 85.5 30.5t25.5 79.5v80q-10 -19 -25.5 -36t-35.5 -30q-21 -14 -46.5 -22t-54.5 -8q-46 0 -86.5 16.5t-70.5 48.5t-47.5 79t-17.5 107v8q0 58 17.5 104.5
t47.5 79.5t70.5 50.5t86.5 17.5q63 0 101 -24t61 -64v74h179v-479q0 -118 -74.5 -178t-215.5 -60zM310 158q48 0 76 32t28 88v7q0 54 -26.5 86t-76.5 32q-51 0 -77 -32.5t-26 -86.5v-8q0 -54 27 -86t75 -32zM234 585l99 185l101 -27l-42 -177z" />
    <glyph glyph-name="Hcircumflex" unicode="&#x124;" horiz-adv-x="784" 
d="M65 715h206v-273h235v273h205v-715h-205v282h-235v-282h-206v715zM315 905h150l110 -146h-130l-59 49l-58 -49h-127z" />
    <glyph glyph-name="hcircumflex" unicode="&#x125;" horiz-adv-x="624" 
d="M49 753h179v-314q21 41 63.5 69.5t108.5 28.5q76 0 123.5 -48.5t47.5 -148.5v-340h-179v304q0 45 -18 66.5t-57 21.5q-40 0 -64.5 -24t-24.5 -75v-293h-179v753zM213 938h150l110 -146h-130l-59 49l-58 -49h-127z" />
    <glyph glyph-name="Hbar" unicode="&#x126;" horiz-adv-x="784" 
d="M9 617h60v98h206v-98h235v98h205v-98h60v-96h-60v-521h-205v282h-235v-282h-206v521h-60v96zM510 442v79h-235v-79h235z" />
    <glyph glyph-name="hbar" unicode="&#x127;" horiz-adv-x="624" 
d="M-4 683h57v70h179v-70h155v-96h-155v-148q21 41 63.5 69.5t108.5 28.5q76 0 123.5 -48.5t47.5 -148.5v-340h-179v304q0 45 -18 66.5t-57 21.5q-40 0 -64.5 -24t-24.5 -75v-293h-179v587h-57v96z" />
    <glyph glyph-name="Itilde" unicode="&#x128;" horiz-adv-x="352" 
d="M73 715h207v-715h-207v715zM242 758q-21 0 -38.5 5.5t-31.5 11.5t-26 11.5t-24 5.5t-20.5 -9.5t-10.5 -23.5h-102q3 39 13.5 68t27.5 48q16 19 37 28t44 9q20 0 37 -5t32 -11q14 -7 27 -12t25 -5q14 0 21.5 9t10.5 23h101q-3 -39 -14 -68t-27 -48q-17 -19 -38.5 -28
t-43.5 -9z" />
    <glyph glyph-name="itilde" unicode="&#x129;" horiz-adv-x="295" 
d="M54 523h179v-523h-179v523zM208 587q-21 0 -37.5 5t-30.5 12q-14 6 -25.5 11t-23.5 5t-20.5 -9t-10.5 -23h-97q5 79 36.5 117.5t78.5 38.5q20 0 36.5 -5.5t31.5 -11.5q14 -6 26.5 -11.5t24.5 -5.5q14 0 21.5 9t10.5 23h97q-6 -78 -39.5 -116.5t-78.5 -38.5z" />
    <glyph glyph-name="Imacron" unicode="&#x12a;" horiz-adv-x="352" 
d="M73 715h207v-715h-207v715zM15 878h322v-107h-322v107z" />
    <glyph glyph-name="imacron" unicode="&#x12b;" horiz-adv-x="295" 
d="M25 712h245v-100h-245v100zM58 523h179v-523h-179v523z" />
    <glyph glyph-name="Ibreve" unicode="&#x12c;" horiz-adv-x="352" 
d="M69 715h207v-715h-207v715zM172 752q-74 0 -117 40.5t-48 112.5h116q2 -21 14.5 -33.5t34.5 -12.5t35.5 12.5t16.5 33.5h115q-6 -72 -50.5 -112.5t-116.5 -40.5z" />
    <glyph glyph-name="ibreve" unicode="&#x12d;" horiz-adv-x="295" 
d="M58 523h179v-523h-179v523zM147 587q-72 0 -115.5 41t-47.5 117h111q2 -23 15 -35.5t37 -12.5t38 13t16 35h111q-5 -76 -50 -117t-115 -41z" />
    <glyph glyph-name="Iogonek" unicode="&#x12e;" horiz-adv-x="352" 
d="M193 -182q-57 0 -90 22t-33 59q0 18 7.5 33.5t19.5 27.5t27.5 22t30.5 18h-82v715h207v-703q-26 -18 -40.5 -36.5t-14.5 -35.5q0 -13 7.5 -19.5t22.5 -6.5q8 0 15.5 1t13.5 4v-85q-14 -6 -36.5 -11t-54.5 -5z" />
    <glyph glyph-name="iogonek" unicode="&#x12f;" horiz-adv-x="295" 
d="M154 -182q-54 0 -85 21.5t-31 59.5q0 19 7.5 34.5t19.5 27.5t27.5 21.5t31.5 17.5h-66v523h179v-514q-30 -22 -42 -38.5t-12 -33.5q0 -14 8 -21t23 -7q9 0 16 1.5t14 3.5v-80q-14 -6 -34.5 -11t-55.5 -5zM147 573q-42 0 -70 26t-28 66t28 66.5t70 26.5t70.5 -26.5
t28.5 -66.5t-28.5 -66t-70.5 -26z" />
    <glyph glyph-name="Idotaccent" unicode="&#x130;" horiz-adv-x="352" 
d="M69 715h207v-715h-207v715zM173 757q-41 0 -68 25.5t-27 64.5q0 38 27 63.5t68 25.5t68 -25.5t27 -63.5q0 -39 -27 -64.5t-68 -25.5z" />
    <glyph glyph-name="dotlessi" unicode="&#x131;" horiz-adv-x="295" 
d="M58 523h179v-523h-179v523z" />
    <glyph glyph-name="IJ" unicode="&#x132;" horiz-adv-x="808" 
d="M73 715h207v-715h-207v715zM488 -9q-51 0 -79.5 6.5t-50.5 17.5v153q18 -6 37 -10t50 -4q42 0 67.5 21.5t25.5 77.5v462h206v-464q0 -130 -64.5 -195t-191.5 -65z" />
    <glyph glyph-name="ij" unicode="&#x133;" horiz-adv-x="586" 
d="M54 523h179v-523h-179v523zM143 573q-42 0 -70 26t-28 66t28 66.5t70 26.5t70.5 -26.5t28.5 -66.5t-28.5 -66t-70.5 -26zM285 -54q33 2 48.5 16.5t15.5 45.5v515h178v-519q0 -42 -11 -77t-39 -60q-28 -24 -74.5 -37.5t-117.5 -13.5v130zM438 573q-42 0 -70 26t-28 66
t28 66.5t70 26.5t70.5 -26.5t28.5 -66.5t-28.5 -66t-70.5 -26z" />
    <glyph glyph-name="Jcircumflex" unicode="&#x134;" horiz-adv-x="478" 
d="M159 -9q-51 0 -79.5 6.5t-50.5 17.5v153q18 -6 37 -10t50 -4q42 0 67.5 21.5t25.5 77.5v462h206v-464q0 -130 -64.5 -195t-191.5 -65zM238 905h150l110 -146h-130l-59 49l-58 -49h-127z" />
    <glyph glyph-name="jcircumflex" unicode="&#x135;" horiz-adv-x="295" 
d="M-6 -54q33 2 48.5 16.5t15.5 45.5v515h178v-519q0 -42 -11 -77t-39 -60q-28 -24 -74.5 -37.5t-117.5 -13.5v130zM85 748h128l118 -163h-125l-61 56l-60 -56h-123z" />
    <glyph glyph-name="uni0136" unicode="&#x136;" horiz-adv-x="734" 
d="M69 715h206v-283l215 283h214l-262 -332l276 -383h-237l-206 299v-299h-206v715zM261 -205l42 177l158 -19l-99 -185z" />
    <glyph glyph-name="uni0137" unicode="&#x137;" horiz-adv-x="585" 
d="M53 753h179v-437l141 207h186l-171 -235l185 -288h-200l-141 229v-229h-179v753zM189 -205l42 177l158 -19l-99 -185z" />
    <glyph glyph-name="Lacute" unicode="&#x139;" horiz-adv-x="575" 
d="M65 715h206v-556h270v-159h-476v715zM146 905h187l-103 -146h-135z" />
    <glyph glyph-name="lacute" unicode="&#x13a;" horiz-adv-x="300" 
d="M54 753h178v-753h-178v753zM127 938h187l-103 -146h-135z" />
    <glyph glyph-name="uni013B" unicode="&#x13b;" horiz-adv-x="583" 
d="M69 715h206v-556h270v-159h-476v715zM192 -205l42 177l158 -19l-99 -185z" />
    <glyph glyph-name="uni013C" unicode="&#x13c;" horiz-adv-x="302" 
d="M58 753h178v-753h-178v753zM36 -205l42 177l158 -19l-99 -185z" />
    <glyph glyph-name="Lcaron" unicode="&#x13d;" horiz-adv-x="575" 
d="M360 715h148l-61 -176h-103zM69 715h206v-556h270v-159h-476v715z" />
    <glyph glyph-name="lcaron" unicode="&#x13e;" horiz-adv-x="294" 
d="M58 753h178v-753h-178v753zM281 753h133l-49 -174h-93z" />
    <glyph glyph-name="Ldot" unicode="&#x13f;" horiz-adv-x="601" 
d="M65 715h206v-556h270v-159h-476v715zM470 299q-22 0 -41 8t-32 22q-14 13 -21.5 31.5t-7.5 39.5t7.5 39.5t21.5 32.5q13 13 32 21t41 8t41.5 -8t33.5 -21q14 -14 22 -32.5t8 -39.5t-8 -39.5t-22 -31.5q-14 -14 -33.5 -22t-41.5 -8z" />
    <glyph glyph-name="ldot" unicode="&#x140;" horiz-adv-x="459" 
d="M58 753h178v-753h-178v753zM372 258q-22 0 -41 8t-32 22q-14 13 -21.5 31.5t-7.5 39.5t7.5 39.5t21.5 32.5q13 13 32 21t41 8t41.5 -8t33.5 -21q14 -14 22 -32.5t8 -39.5t-8 -39.5t-22 -31.5q-14 -14 -33.5 -22t-41.5 -8z" />
    <glyph glyph-name="Lslash" unicode="&#x141;" horiz-adv-x="593" 
d="M25 337l63 22v356h205v-285l180 63v-109l-180 -62v-163h271v-159h-476v251l-63 -22v108z" />
    <glyph glyph-name="lslash" unicode="&#x142;" horiz-adv-x="333" 
d="M17 376l61 29v348h178v-261l64 31v-116l-64 -31v-376h-178v290l-61 -29v115z" />
    <glyph glyph-name="Nacute" unicode="&#x143;" horiz-adv-x="777" 
d="M69 715h231l229 -403v403h179v-715h-198l-261 449v-449h-180v715zM381 905h187l-103 -146h-135z" />
    <glyph glyph-name="nacute" unicode="&#x144;" horiz-adv-x="624" 
d="M53 523h179v-84q21 41 63.5 69.5t108.5 28.5q76 0 123.5 -48.5t47.5 -148.5v-340h-179v304q0 45 -18 66.5t-57 21.5q-40 0 -64.5 -24t-24.5 -75v-293h-179v523zM297 749h180l-105 -166h-128z" />
    <glyph glyph-name="uni0145" unicode="&#x145;" horiz-adv-x="785" 
d="M69 715h231l229 -403v403h179v-715h-198l-261 449v-449h-180v715zM272 -205l42 177l158 -19l-99 -185z" />
    <glyph glyph-name="uni0146" unicode="&#x146;" horiz-adv-x="632" 
d="M53 523h179v-84q21 41 63.5 69.5t108.5 28.5q76 0 123.5 -48.5t47.5 -148.5v-340h-179v304q0 45 -18 66.5t-57 21.5q-40 0 -64.5 -24t-24.5 -75v-293h-179v523zM201 -205l42 177l158 -19l-99 -185z" />
    <glyph glyph-name="Ncaron" unicode="&#x147;" horiz-adv-x="777" 
d="M65 715h231l229 -403v403h179v-715h-198l-261 449v-449h-180v715zM214 905h130l58 -49l59 49h127l-114 -146h-150z" />
    <glyph glyph-name="ncaron" unicode="&#x148;" horiz-adv-x="624" 
d="M53 523h179v-84q21 41 63.5 69.5t108.5 28.5q76 0 123.5 -48.5t47.5 -148.5v-340h-179v304q0 45 -18 66.5t-57 21.5q-40 0 -64.5 -24t-24.5 -75v-293h-179v523zM128 748h125l61 -56l61 56h122l-123 -163h-127z" />
    <glyph glyph-name="napostrophe" unicode="&#x149;" horiz-adv-x="747" 
d="M171 523h179v-84q21 41 63.5 69.5t108.5 28.5q76 0 123.5 -48.5t47.5 -148.5v-340h-179v304q0 45 -18 66.5t-57 21.5q-40 0 -64.5 -24t-24.5 -75v-293h-179v523zM-31 467l80 261l158 -53l-137 -247z" />
    <glyph glyph-name="Eng" unicode="&#x14a;" horiz-adv-x="777" 
d="M467 -192q-47 0 -74 6t-49 17v145q17 -6 33.5 -10t44.5 -4q32 0 54 13t27 41l-249 450v-466h-185v715h234l221 -412v412h184v-692q0 -49 -15.5 -88.5t-45.5 -67.5t-75 -43.5t-105 -15.5z" />
    <glyph glyph-name="eng" unicode="&#x14b;" horiz-adv-x="624" 
d="M333 -54q33 2 48 16.5t15 45.5v296q0 45 -18 66.5t-57 21.5q-40 0 -64.5 -24t-24.5 -75v-293h-179v523h179v-84q21 41 63.5 69.5t108.5 28.5q76 0 123.5 -48.5t47.5 -148.5v-336q0 -42 -11 -77t-39 -60q-28 -24 -74.5 -37.5t-117.5 -13.5v130z" />
    <glyph glyph-name="Omacron" unicode="&#x14c;" horiz-adv-x="819" 
d="M410 149q76 0 120 54.5t44 151.5v8q0 96 -44.5 149t-120.5 53t-120 -52.5t-44 -150.5v-8q0 -98 45 -151.5t120 -53.5zM406 -12q-87 0 -156 27t-118 75t-75 115t-26 148v8q0 82 29 149t80 115t120 74t149 26q82 0 151.5 -25t120.5 -71q50 -47 78.5 -113.5t28.5 -149.5v-8
q0 -83 -27 -151t-77 -116q-50 -49 -120.5 -76t-157.5 -27zM247 878h322v-107h-322v107z" />
    <glyph glyph-name="omacron" unicode="&#x14d;" horiz-adv-x="622" 
d="M308 121q51 0 77 35.5t26 101.5v8q0 66 -26 101.5t-77 35.5t-77.5 -34.5t-26.5 -100.5v-8q0 -68 26 -103.5t78 -35.5zM307 -12q-60 0 -112.5 18t-90.5 52q-39 34 -61 84t-22 113v8q0 63 22 113.5t61 86.5q38 36 90.5 55t113.5 19q60 0 112.5 -18.5t90.5 -53.5t60 -85
t22 -112v-8q0 -64 -22 -114.5t-60 -85.5q-39 -35 -91.5 -53.5t-112.5 -18.5zM153 712h307v-100h-307v100z" />
    <glyph glyph-name="Obreve" unicode="&#x14e;" horiz-adv-x="819" 
d="M406 149q76 0 120 54.5t44 151.5v8q0 96 -44.5 149t-120.5 53t-120 -52.5t-44 -150.5v-8q0 -98 45 -151.5t120 -53.5zM402 -12q-87 0 -156 27t-118 75t-75 115t-26 148v8q0 82 29 149t80 115t120 74t149 26q82 0 151.5 -25t120.5 -71q50 -47 78.5 -113.5t28.5 -149.5v-8
q0 -83 -27 -151t-77 -116q-50 -49 -120.5 -76t-157.5 -27zM403 752q-74 0 -117 40.5t-48 112.5h116q2 -21 14.5 -33.5t34.5 -12.5t35.5 12.5t16.5 33.5h115q-6 -72 -50.5 -112.5t-116.5 -40.5z" />
    <glyph glyph-name="obreve" unicode="&#x14f;" horiz-adv-x="622" 
d="M308 121q51 0 77 35.5t26 101.5v8q0 66 -26 101.5t-77 35.5t-77.5 -34.5t-26.5 -100.5v-8q0 -68 26 -103.5t78 -35.5zM307 -12q-60 0 -112.5 18t-90.5 52q-39 34 -61 84t-22 113v8q0 63 22 113.5t61 86.5q38 36 90.5 55t113.5 19q60 0 112.5 -18.5t90.5 -53.5t60 -85
t22 -112v-8q0 -64 -22 -114.5t-60 -85.5q-39 -35 -91.5 -53.5t-112.5 -18.5zM306 587q-72 0 -115.5 41t-47.5 117h111q2 -23 15 -35.5t37 -12.5t38 13t16 35h111q-5 -76 -50 -117t-115 -41z" />
    <glyph glyph-name="Ohungarumlaut" unicode="&#x150;" horiz-adv-x="819" 
d="M410 149q76 0 120 54.5t44 151.5v8q0 96 -44.5 149t-120.5 53t-120 -52.5t-44 -150.5v-8q0 -98 45 -151.5t120 -53.5zM406 -12q-87 0 -156 27t-118 75t-75 115t-26 148v8q0 82 29 149t80 115t120 74t149 26q82 0 151.5 -25t120.5 -71q50 -47 78.5 -113.5t28.5 -149.5v-8
q0 -83 -27 -151t-77 -116q-50 -49 -120.5 -76t-157.5 -27zM280 905h153l-74 -146h-120zM474 905h154l-75 -146h-120z" />
    <glyph glyph-name="ohungarumlaut" unicode="&#x151;" horiz-adv-x="622" 
d="M308 121q51 0 77 35.5t26 101.5v8q0 66 -26 101.5t-77 35.5t-77.5 -34.5t-26.5 -100.5v-8q0 -68 26 -103.5t78 -35.5zM307 -12q-60 0 -112.5 18t-90.5 52q-39 34 -61 84t-22 113v8q0 63 22 113.5t61 86.5q38 36 90.5 55t113.5 19q60 0 112.5 -18.5t90.5 -53.5t60 -85
t22 -112v-8q0 -64 -22 -114.5t-60 -85.5q-39 -35 -91.5 -53.5t-112.5 -18.5zM197 749h140l-77 -166h-107zM374 749h140l-77 -166h-106z" />
    <glyph glyph-name="OE" unicode="&#x152;" horiz-adv-x="979" 
d="M31 357q0 84 24.5 150t73.5 113q48 46 119.5 70.5t164.5 24.5h517v-158h-275v-123h216v-146h-216v-130h291v-158h-533q-189 0 -285.5 91t-96.5 258v8zM420 557q-92 0 -133.5 -48.5t-41.5 -148.5v-8q0 -102 42 -148t134 -46h31v399h-32z" />
    <glyph glyph-name="oe" unicode="&#x153;" horiz-adv-x="985" 
d="M311 -12q-60 0 -112.5 18t-90.5 52q-39 34 -61 84t-22 113v8q0 63 22 113.5t61 86.5q38 36 90.5 55t113.5 19t109.5 -20.5t83.5 -58.5q35 38 83 58.5t107 20.5q54 0 102 -16t85 -49q36 -33 57.5 -84t21.5 -121v-47h-368q4 -52 32.5 -80.5t76.5 -28.5q45 0 65.5 18
t25.5 44h168q-12 -89 -79 -137t-186 -48q-62 0 -111 19t-84 57q-34 -37 -82 -56.5t-108 -19.5zM312 121q51 0 77 35.5t26 101.5v8q0 66 -26 101.5t-77 35.5t-77.5 -34.5t-26.5 -100.5v-8q0 -68 26 -103.5t78 -35.5zM787 321q-2 48 -25 73t-67 25q-41 0 -67 -25t-33 -73h192z
" />
    <glyph glyph-name="Racute" unicode="&#x154;" horiz-adv-x="697" 
d="M69 715h280q141 0 216 -56.5t75 -170.5v-4q0 -77 -36.5 -121.5t-92.5 -66.5l171 -296h-216l-145 256h-48v-256h-204v715zM339 389q52 0 77.5 22t25.5 65v4q0 44 -26 62.5t-76 18.5h-67v-172h66zM312 905h187l-103 -146h-135z" />
    <glyph glyph-name="racute" unicode="&#x155;" horiz-adv-x="429" 
d="M53 523h179v-104q25 59 66.5 85.5t102.5 25.5v-167q-82 2 -125.5 -25t-43.5 -90v-248h-179v523zM218 749h180l-105 -166h-128z" />
    <glyph glyph-name="uni0156" unicode="&#x156;" horiz-adv-x="705" 
d="M69 715h280q141 0 216 -56.5t75 -170.5v-4q0 -77 -36.5 -121.5t-92.5 -66.5l171 -296h-216l-145 256h-48v-256h-204v715zM339 389q52 0 77.5 22t25.5 65v4q0 44 -26 62.5t-76 18.5h-67v-172h66zM254 -205l42 177l158 -19l-99 -185z" />
    <glyph glyph-name="uni0157" unicode="&#x157;" horiz-adv-x="436" 
d="M53 523h179v-104q25 59 66.5 85.5t102.5 25.5v-167q-82 2 -125.5 -25t-43.5 -90v-248h-179v523zM34 -205l42 177l158 -19l-99 -185z" />
    <glyph glyph-name="Rcaron" unicode="&#x158;" horiz-adv-x="697" 
d="M65 715h280q141 0 216 -56.5t75 -170.5v-4q0 -77 -36.5 -121.5t-92.5 -66.5l171 -296h-216l-145 256h-48v-256h-204v715zM335 389q52 0 77.5 22t25.5 65v4q0 44 -26 62.5t-76 18.5h-67v-172h66zM145 905h130l58 -49l59 49h127l-114 -146h-150z" />
    <glyph glyph-name="rcaron" unicode="&#x159;" horiz-adv-x="428" 
d="M49 523h179v-104q25 59 66.5 85.5t102.5 25.5v-167q-82 2 -125.5 -25t-43.5 -90v-248h-179v523zM45 748h125l61 -56l61 56h122l-123 -163h-127z" />
    <glyph glyph-name="Sacute" unicode="&#x15a;" horiz-adv-x="647" 
d="M327 -12q-151 0 -227 61t-81 178h195q2 -19 8 -36t19 -29q12 -13 33 -20.5t53 -7.5q45 0 68.5 19.5t23.5 51.5q0 16 -5.5 27.5t-18.5 19.5q-13 7 -35 12t-54 10q-76 9 -127.5 25.5t-82.5 43.5q-32 27 -46 66t-14 93q0 48 19 89t55 71t87.5 46.5t115.5 16.5
q130 0 201 -54.5t81 -168.5h-190q-5 38 -27.5 57.5t-64.5 19.5t-62.5 -17t-20.5 -44q0 -15 5 -26t18 -19q12 -9 33.5 -15t54.5 -10q68 -8 119 -21.5t86 -38.5q34 -26 51.5 -65t17.5 -97q0 -49 -19 -92.5t-56 -75.5t-90.5 -51t-122.5 -19zM292 905h187l-103 -146h-135z" />
    <glyph glyph-name="sacute" unicode="&#x15b;" horiz-adv-x="515" 
d="M254 -12q-112 0 -174.5 45t-65.5 133h165q5 -29 20.5 -44t53.5 -15q33 0 48.5 11.5t15.5 31.5q0 19 -21.5 29t-75.5 18q-53 7 -90.5 18.5t-61.5 31.5q-24 19 -35.5 48t-11.5 70q0 43 18 75.5t49 54.5q30 21 71 31.5t86 10.5q48 0 88.5 -9t70.5 -29t48.5 -52t23.5 -79
h-162q-5 26 -20.5 39t-46.5 13q-29 0 -44 -11.5t-15 -29.5q0 -19 20 -28t68 -15q54 -7 94.5 -18t67.5 -30q27 -20 40 -49t13 -71q0 -93 -64 -136.5t-173 -43.5zM236 749h180l-105 -166h-128z" />
    <glyph glyph-name="Scircumflex" unicode="&#x15c;" horiz-adv-x="647" 
d="M331 -12q-151 0 -227 61t-81 178h195q2 -19 8 -36t19 -29q12 -13 33 -20.5t53 -7.5q45 0 68.5 19.5t23.5 51.5q0 16 -5.5 27.5t-18.5 19.5q-13 7 -35 12t-54 10q-76 9 -127.5 25.5t-82.5 43.5q-32 27 -46 66t-14 93q0 48 19 89t55 71t87.5 46.5t115.5 16.5
q130 0 201 -54.5t81 -168.5h-190q-5 38 -27.5 57.5t-64.5 19.5t-62.5 -17t-20.5 -44q0 -15 5 -26t18 -19q12 -9 33.5 -15t54.5 -10q68 -8 119 -21.5t86 -38.5q34 -26 51.5 -65t17.5 -97q0 -49 -19 -92.5t-56 -75.5t-90.5 -51t-122.5 -19zM248 905h150l110 -146h-130l-59 49
l-58 -49h-127z" />
    <glyph glyph-name="scircumflex" unicode="&#x15d;" horiz-adv-x="515" 
d="M258 -12q-112 0 -174.5 45t-65.5 133h165q5 -29 20.5 -44t53.5 -15q33 0 48.5 11.5t15.5 31.5q0 19 -21.5 29t-75.5 18q-53 7 -90.5 18.5t-61.5 31.5q-24 19 -35.5 48t-11.5 70q0 43 18 75.5t49 54.5q30 21 71 31.5t86 10.5q48 0 88.5 -9t70.5 -29t48.5 -52t23.5 -79
h-162q-5 26 -20.5 39t-46.5 13q-29 0 -44 -11.5t-15 -29.5q0 -19 20 -28t68 -15q54 -7 94.5 -18t67.5 -30q27 -20 40 -49t13 -71q0 -93 -64 -136.5t-173 -43.5zM192 748h128l118 -163h-125l-61 56l-60 -56h-123z" />
    <glyph glyph-name="uni015E" unicode="&#x15e;" horiz-adv-x="655" 
d="M309 -226q-54 0 -87 24t-40 69h84q3 -11 11 -19.5t25 -8.5q15 0 23.5 8.5t8.5 21.5q0 14 -8.5 22.5t-24.5 8.5q-12 0 -19.5 -3.5t-12.5 -7.5l-39 38l42 64q-120 12 -180.5 72t-64.5 164h195q2 -19 8 -36t19 -29q12 -13 33 -20.5t53 -7.5q45 0 68.5 19.5t23.5 51.5
q0 16 -5.5 27.5t-18.5 19.5q-13 7 -35 12t-54 10q-76 9 -127.5 25.5t-82.5 43.5q-32 27 -46 66t-14 93q0 48 19 89t55 71t87.5 46.5t115.5 16.5q130 0 201 -54.5t81 -168.5h-190q-5 38 -27.5 57.5t-64.5 19.5t-62.5 -17t-20.5 -44q0 -15 5 -26t18 -19q12 -9 33.5 -15
t54.5 -10q68 -8 119 -21.5t86 -38.5q34 -26 51.5 -65t17.5 -97q0 -49 -19 -91.5t-55 -74.5q-36 -33 -88.5 -52t-119.5 -20l-22 -33q22 2 42 -2t36 -15q15 -10 24 -27.5t9 -41.5q0 -45 -33 -70t-88 -25z" />
    <glyph glyph-name="uni015F" unicode="&#x15f;" horiz-adv-x="523" 
d="M244 -226q-54 0 -87 24t-40 69h84q3 -11 11 -19.5t25 -8.5q15 0 23.5 8.5t8.5 21.5q0 14 -8.5 22.5t-24.5 8.5q-12 0 -19.5 -3.5t-12.5 -7.5l-39 38l42 64q-88 11 -135.5 55t-49.5 120h165q5 -29 20.5 -44t53.5 -15q33 0 48.5 11.5t15.5 31.5q0 19 -21.5 29t-75.5 18
q-53 7 -90.5 18.5t-61.5 31.5q-24 19 -35.5 48t-11.5 70q0 43 18 75.5t49 54.5q30 21 71 31.5t86 10.5q48 0 88.5 -9t70.5 -29t48.5 -52t23.5 -79h-162q-5 26 -20.5 39t-46.5 13q-29 0 -44 -11.5t-15 -29.5q0 -19 20 -28t68 -15q54 -7 94.5 -18t67.5 -30q27 -20 40 -49
t13 -71q0 -90 -60 -133.5t-162 -46.5l-23 -33q22 2 42 -2t36 -15q15 -10 24 -27.5t9 -41.5q0 -45 -33 -70t-88 -25z" />
    <glyph glyph-name="Scaron" unicode="&#x160;" horiz-adv-x="647" 
d="M327 -12q-151 0 -227 61t-81 178h195q2 -19 8 -36t19 -29q12 -13 33 -20.5t53 -7.5q45 0 68.5 19.5t23.5 51.5q0 16 -5.5 27.5t-18.5 19.5q-13 7 -35 12t-54 10q-76 9 -127.5 25.5t-82.5 43.5q-32 27 -46 66t-14 93q0 48 19 89t55 71t87.5 46.5t115.5 16.5
q130 0 201 -54.5t81 -168.5h-190q-5 38 -27.5 57.5t-64.5 19.5t-62.5 -17t-20.5 -44q0 -15 5 -26t18 -19q12 -9 33.5 -15t54.5 -10q68 -8 119 -21.5t86 -38.5q34 -26 51.5 -65t17.5 -97q0 -49 -19 -92.5t-56 -75.5t-90.5 -51t-122.5 -19zM129 905h130l58 -49l59 49h127
l-114 -146h-150z" />
    <glyph glyph-name="scaron" unicode="&#x161;" horiz-adv-x="515" 
d="M254 -12q-112 0 -174.5 45t-65.5 133h165q5 -29 20.5 -44t53.5 -15q33 0 48.5 11.5t15.5 31.5q0 19 -21.5 29t-75.5 18q-53 7 -90.5 18.5t-61.5 31.5q-24 19 -35.5 48t-11.5 70q0 43 18 75.5t49 54.5q30 21 71 31.5t86 10.5q48 0 88.5 -9t70.5 -29t48.5 -52t23.5 -79
h-162q-5 26 -20.5 39t-46.5 13q-29 0 -44 -11.5t-15 -29.5q0 -19 20 -28t68 -15q54 -7 94.5 -18t67.5 -30q27 -20 40 -49t13 -71q0 -93 -64 -136.5t-173 -43.5zM62 748h125l61 -56l61 56h122l-123 -163h-127z" />
    <glyph glyph-name="Tcommaaccent" unicode="&#x162;" horiz-adv-x="618" 
d="M202 557h-185v158h576v-158h-185v-557h-206v557zM192 -205l42 177l158 -19l-99 -185z" />
    <glyph glyph-name="tcommaaccent" unicode="&#x163;" horiz-adv-x="389" 
d="M257 -12q-89 0 -136.5 43.5t-47.5 136.5v233h-63v122h63v109h179v-109h103v-122h-103v-216q0 -27 13.5 -41t39.5 -14q15 0 27 2t24 7v-136q-17 -5 -42 -10t-57 -5zM94 -205l42 177l158 -19l-99 -185z" />
    <glyph glyph-name="Tcaron" unicode="&#x164;" horiz-adv-x="618" 
d="M202 557h-185v158h576v-158h-185v-557h-206v557zM116 905h130l58 -49l59 49h127l-114 -146h-150z" />
    <glyph glyph-name="tcaron" unicode="&#x165;" horiz-adv-x="385" 
d="M257 -12q-89 0 -136.5 43.5t-47.5 136.5v233h-63v122h63v109h179v-109h103v-122h-103v-216q0 -27 13.5 -41t39.5 -14q15 0 27 2t24 7v-136q-17 -5 -42 -10t-57 -5zM306 753h133l-49 -174h-93z" />
    <glyph glyph-name="Tbar" unicode="&#x166;" horiz-adv-x="618" 
d="M80 407h126v150h-185v158h576v-158h-185v-150h126v-128h-126v-279h-206v279h-126v128z" />
    <glyph glyph-name="tbar" unicode="&#x167;" horiz-adv-x="389" 
d="M14 332h63v69h-63v122h63v109h179v-109h103v-122h-103v-69h103v-99h-103v-48q0 -27 13.5 -41t39.5 -14q15 0 27 2t24 7v-136q-17 -5 -42 -10t-57 -5q-89 0 -136.5 43.5t-47.5 136.5v65h-63v99z" />
    <glyph glyph-name="Utilde" unicode="&#x168;" horiz-adv-x="764" 
d="M377 -12q-152 0 -234.5 75.5t-82.5 226.5v425h205v-416q0 -76 23.5 -113t88.5 -37q64 0 88 36t24 117v413h207v-422q0 -78 -22 -135.5t-63 -94.5q-42 -38 -101 -56.5t-133 -18.5zM441 758q-21 0 -38.5 5.5t-31.5 11.5t-26 11.5t-24 5.5t-20.5 -9.5t-10.5 -23.5h-102
q3 39 13.5 68t27.5 48q16 19 37 28t44 9q20 0 37 -5t32 -11q14 -7 27 -12t25 -5q14 0 21.5 9t10.5 23h101q-3 -39 -14 -68t-27 -48q-17 -19 -38.5 -28t-43.5 -9z" />
    <glyph glyph-name="utilde" unicode="&#x169;" horiz-adv-x="623" 
d="M221 -12q-38 0 -70 11.5t-55 35.5q-24 24 -37.5 60.5t-13.5 86.5v341h179v-312q0 -44 18.5 -66t55.5 -22q41 0 65 24t24 75v301h179v-523h-179v81q-21 -41 -60.5 -67t-105.5 -26zM370 587q-21 0 -37.5 5t-30.5 12q-14 6 -25.5 11t-23.5 5t-20.5 -9t-10.5 -23h-97
q5 79 36.5 117.5t78.5 38.5q20 0 36.5 -5.5t31.5 -11.5q14 -6 26.5 -11.5t24.5 -5.5q14 0 21.5 9t10.5 23h97q-6 -78 -39.5 -116.5t-78.5 -38.5z" />
    <glyph glyph-name="Umacron" unicode="&#x16a;" horiz-adv-x="764" 
d="M381 -12q-152 0 -234.5 75.5t-82.5 226.5v425h205v-416q0 -76 23.5 -113t88.5 -37q64 0 88 36t24 117v413h207v-422q0 -78 -22 -135.5t-63 -94.5q-42 -38 -101 -56.5t-133 -18.5zM219 878h322v-107h-322v107z" />
    <glyph glyph-name="umacron" unicode="&#x16b;" horiz-adv-x="623" 
d="M221 -12q-38 0 -70 11.5t-55 35.5q-24 24 -37.5 60.5t-13.5 86.5v341h179v-312q0 -44 18.5 -66t55.5 -22q41 0 65 24t24 75v301h179v-523h-179v81q-21 -41 -60.5 -67t-105.5 -26zM152 712h307v-100h-307v100z" />
    <glyph glyph-name="Ubreve" unicode="&#x16c;" horiz-adv-x="764" 
d="M377 -12q-152 0 -234.5 75.5t-82.5 226.5v425h205v-416q0 -76 23.5 -113t88.5 -37q64 0 88 36t24 117v413h207v-422q0 -78 -22 -135.5t-63 -94.5q-42 -38 -101 -56.5t-133 -18.5zM375 752q-74 0 -117 40.5t-48 112.5h116q2 -21 14.5 -33.5t34.5 -12.5t35.5 12.5
t16.5 33.5h115q-6 -72 -50.5 -112.5t-116.5 -40.5z" />
    <glyph glyph-name="ubreve" unicode="&#x16d;" horiz-adv-x="623" 
d="M221 -12q-38 0 -70 11.5t-55 35.5q-24 24 -37.5 60.5t-13.5 86.5v341h179v-312q0 -44 18.5 -66t55.5 -22q41 0 65 24t24 75v301h179v-523h-179v81q-21 -41 -60.5 -67t-105.5 -26zM305 587q-72 0 -115.5 41t-47.5 117h111q2 -23 15 -35.5t37 -12.5t38 13t16 35h111
q-5 -76 -50 -117t-115 -41z" />
    <glyph glyph-name="Uring" unicode="&#x16e;" horiz-adv-x="764" 
d="M377 -12q-152 0 -234.5 75.5t-82.5 226.5v425h205v-416q0 -76 23.5 -113t88.5 -37q64 0 88 36t24 117v413h207v-422q0 -78 -22 -135.5t-63 -94.5q-42 -38 -101 -56.5t-133 -18.5zM376 790q20 0 33 14t13 36q0 23 -13 36.5t-33 13.5q-21 0 -33.5 -13.5t-12.5 -36.5
q0 -22 12.5 -36t33.5 -14zM376 724q-25 0 -46.5 9.5t-37.5 25.5q-17 15 -26.5 36t-9.5 45t9.5 45t26.5 37q16 16 37.5 25t46.5 9t46.5 -9t38.5 -25q16 -16 25.5 -37t9.5 -45t-9.5 -45t-25.5 -36q-17 -16 -38.5 -25.5t-46.5 -9.5z" />
    <glyph glyph-name="uring" unicode="&#x16f;" horiz-adv-x="623" 
d="M221 -12q-38 0 -70 11.5t-55 35.5q-24 24 -37.5 60.5t-13.5 86.5v341h179v-312q0 -44 18.5 -66t55.5 -22q41 0 65 24t24 75v301h179v-523h-179v81q-21 -41 -60.5 -67t-105.5 -26zM305 619q20 0 33 14t13 36q0 23 -13 37t-33 14t-33 -14t-13 -37q0 -22 13 -36t33 -14z
M305 555q-24 0 -45.5 9t-37.5 25q-16 15 -25.5 35.5t-9.5 44.5t9.5 44.5t25.5 36.5t37.5 25t45.5 9t45.5 -9t37.5 -25t25.5 -36.5t9.5 -44.5t-9.5 -44.5t-25.5 -35.5q-16 -16 -37.5 -25t-45.5 -9z" />
    <glyph glyph-name="Uhungarumlaut" unicode="&#x170;" horiz-adv-x="764" 
d="M377 -12q-152 0 -234.5 75.5t-82.5 226.5v425h205v-416q0 -76 23.5 -113t88.5 -37q64 0 88 36t24 117v413h207v-422q0 -78 -22 -135.5t-63 -94.5q-42 -38 -101 -56.5t-133 -18.5zM248 905h153l-74 -146h-120zM442 905h154l-75 -146h-120z" />
    <glyph glyph-name="uhungarumlaut" unicode="&#x171;" horiz-adv-x="623" 
d="M221 -12q-38 0 -70 11.5t-55 35.5q-24 24 -37.5 60.5t-13.5 86.5v341h179v-312q0 -44 18.5 -66t55.5 -22q41 0 65 24t24 75v301h179v-523h-179v81q-21 -41 -60.5 -67t-105.5 -26zM196 749h140l-77 -166h-107zM373 749h140l-77 -166h-106z" />
    <glyph glyph-name="Uogonek" unicode="&#x172;" horiz-adv-x="764" 
d="M420 -182q-56 0 -88 21.5t-32 58.5q0 31 19.5 53t44.5 37q-145 5 -222.5 80t-77.5 222v425h205v-416q0 -76 23.5 -113t88.5 -37q64 0 88 36t24 117v413h207v-422q0 -108 -41 -175.5t-113 -100.5q-18 -8 -35 -16t-30 -17q-13 -8 -20.5 -18.5t-7.5 -24.5t8 -20.5t23 -6.5
q9 0 16 1.5t14 3.5v-85q-14 -6 -37 -11t-57 -5z" />
    <glyph glyph-name="uogonek" unicode="&#x173;" horiz-adv-x="623" 
d="M485 -182q-54 0 -85 21.5t-31 59.5q0 19 7.5 34.5t19.5 27.5t27.5 21.5t31.5 17.5h-64v81q-21 -41 -60.5 -67t-105.5 -26q-38 0 -70 11.5t-55 35.5q-24 24 -37.5 60.5t-13.5 86.5v341h179v-312q0 -44 18.5 -66t55.5 -22q41 0 65 24t24 75v301h179v-511q-31 -23 -43 -40.5
t-12 -34.5q0 -14 8 -21t22 -7q9 0 16 1.5t14 3.5v-80q-14 -6 -35.5 -11t-54.5 -5z" />
    <glyph glyph-name="Wcircumflex" unicode="&#x174;" horiz-adv-x="996" 
d="M14 715h207l92 -446l96 446h182l104 -450l97 450h190l-167 -715h-214l-110 454l-111 -454h-200zM426 905h150l110 -146h-130l-59 49l-58 -49h-127z" />
    <glyph glyph-name="wcircumflex" unicode="&#x175;" horiz-adv-x="845" 
d="M9 523h187l76 -313l88 313h144l78 -313l85 313h170l-166 -523h-171l-78 292l-81 -292h-174zM360 748h128l118 -163h-125l-61 56l-60 -56h-123z" />
    <glyph glyph-name="Ycircumflex" unicode="&#x176;" horiz-adv-x="677" 
d="M237 306l-233 409h223l121 -241l121 241h196l-222 -409v-306h-206v306zM268 905h150l110 -146h-130l-59 49l-58 -49h-127z" />
    <glyph glyph-name="ycircumflex" unicode="&#x177;" horiz-adv-x="589" 
d="M213 53l-209 470h194l108 -279l100 279h171l-280 -698h-171zM236 748h128l118 -163h-125l-61 56l-60 -56h-123z" />
    <glyph glyph-name="Ydieresis" unicode="&#x178;" horiz-adv-x="677" 
d="M237 306l-233 409h223l121 -241l121 241h196l-222 -409v-306h-206v306zM229 758q-18 0 -33.5 6.5t-26.5 17.5q-12 11 -18.5 26.5t-6.5 32.5q0 35 25 59.5t60 24.5q36 0 61 -24.5t25 -59.5t-25 -59t-61 -24zM452 758q-36 0 -60.5 24t-24.5 59t24.5 59.5t60.5 24.5
t61 -24.5t25 -59.5t-25 -59t-61 -24z" />
    <glyph glyph-name="Zacute" unicode="&#x179;" horiz-adv-x="627" 
d="M9 23l304 535h-265v157h556v-22l-300 -535h285v-158h-580v23zM292 905h187l-103 -146h-135z" />
    <glyph glyph-name="zacute" unicode="&#x17a;" horiz-adv-x="508" 
d="M6 18l229 370h-205v135h461v-19l-235 -369h223v-135h-473v18zM240 749h180l-105 -166h-128z" />
    <glyph glyph-name="Zdotaccent" unicode="&#x17b;" horiz-adv-x="627" 
d="M13 23l304 535h-265v157h556v-22l-300 -535h285v-158h-580v23zM322 757q-41 0 -68 25.5t-27 64.5q0 38 27 63.5t68 25.5t68 -25.5t27 -63.5q0 -39 -27 -64.5t-68 -25.5z" />
    <glyph glyph-name="zdotaccent" unicode="&#x17c;" horiz-adv-x="508" 
d="M6 18l229 370h-205v135h461v-19l-235 -369h223v-135h-473v18zM257 579q-42 0 -69 25.5t-27 64.5q0 38 27.5 63.5t68.5 25.5t68 -25.5t27 -63.5q0 -39 -27 -64.5t-68 -25.5z" />
    <glyph glyph-name="Zcaron" unicode="&#x17d;" horiz-adv-x="627" 
d="M9 23l304 535h-265v157h556v-22l-300 -535h285v-158h-580v23zM129 905h130l58 -49l59 49h127l-114 -146h-150z" />
    <glyph glyph-name="zcaron" unicode="&#x17e;" horiz-adv-x="508" 
d="M6 18l229 370h-205v135h461v-19l-235 -369h223v-135h-473v18zM71 748h125l61 -56l61 56h122l-123 -163h-127z" />
    <glyph glyph-name="uni0192" unicode="&#x192;" horiz-adv-x="455" 
d="M27 414h90l18 125q7 50 25.5 85t47.5 58q28 22 65.5 32.5t82.5 10.5q25 0 42 -3t36 -8v-134q-11 3 -22.5 5t-28.5 2q-31 0 -48.5 -15.5t-22.5 -47.5l-16 -110h113v-121h-130l-68 -475h-178l67 475h-73v121z" />
    <glyph glyph-name="Aringacute" unicode="&#x1fa;" horiz-adv-x="747" 
d="M242 715h265l227 -715h-217l-38 133h-237l-38 -133h-191zM282 274h157l-78 275zM375 807q20 0 33 14t13 36q0 23 -13 36.5t-33 13.5q-21 0 -33.5 -13.5t-12.5 -36.5q0 -22 12.5 -36t33.5 -14zM375 741q-25 0 -46.5 9.5t-37.5 25.5q-17 15 -26.5 36t-9.5 45t9.5 45
t26.5 37q16 16 37.5 25t46.5 9t46.5 -9t38.5 -25q16 -16 25.5 -37t9.5 -45t-9.5 -45t-25.5 -36q-17 -16 -38.5 -25.5t-46.5 -9.5zM357 1137h187l-103 -146h-135z" />
    <glyph glyph-name="aringacute" unicode="&#x1fb;" horiz-adv-x="578" 
d="M200 -12q-35 0 -67 9t-56 28q-25 19 -39.5 48.5t-14.5 71.5q0 92 73.5 131.5t204.5 39.5h50v12q0 38 -13 60.5t-56 22.5q-37 0 -52.5 -18.5t-18.5 -43.5h-168q3 47 22.5 82.5t52.5 59.5q32 23 76.5 34.5t98.5 11.5t97.5 -11.5t74.5 -35.5t47.5 -61.5t16.5 -89.5v-339
h-174v61q-19 -29 -55.5 -51t-99.5 -22zM262 109q38 0 63.5 20t25.5 54v32h-47q-54 0 -79 -12.5t-25 -44.5q0 -23 15 -36t47 -13zM292 636q20 0 33 14t13 36q0 23 -13 37t-33 14t-33 -14t-13 -37q0 -22 13 -36t33 -14zM292 572q-24 0 -45.5 9t-37.5 25q-16 15 -25.5 35.5
t-9.5 44.5t9.5 44.5t25.5 36.5t37.5 25t45.5 9t45.5 -9t37.5 -25t25.5 -36.5t9.5 -44.5t-9.5 -44.5t-25.5 -35.5q-16 -16 -37.5 -25t-45.5 -9zM280 975h187l-103 -146h-135z" />
    <glyph glyph-name="AEacute" unicode="&#x1fc;" horiz-adv-x="1002" 
d="M328 715h622v-158h-283v-123h223v-146h-223v-130h299v-158h-504v146h-197l-63 -146h-195zM324 284h138v273h-20zM584 905h187l-103 -146h-135z" />
    <glyph glyph-name="aeacute" unicode="&#x1fd;" horiz-adv-x="908" 
d="M623 -12q-70 0 -121 23t-82 68q-32 -43 -81 -67t-126 -24q-40 0 -75 9t-61 28q-27 19 -42.5 48.5t-15.5 71.5q0 92 73 133t204 41h53v9q0 38 -14 60.5t-56 22.5q-37 0 -52.5 -17.5t-19.5 -44.5h-168q3 47 22.5 82.5t51.5 59.5q32 23 75 34.5t94 11.5q60 0 102.5 -15.5
t66.5 -46.5q33 31 74.5 46.5t92.5 15.5q53 0 100.5 -15.5t83.5 -48.5t57 -84t21 -122v-46h-360q4 -54 30 -82t74 -28q44 0 64 18t25 44h167q-12 -89 -77 -137t-180 -48zM707 319q-3 50 -25 75t-64 25q-40 0 -66 -26t-31 -74h186zM259 109q42 0 66 20t24 54v35h-50
q-51 0 -77 -11.5t-26 -44.5q0 -26 16 -39.5t47 -13.5zM450 749h180l-105 -166h-128z" />
    <glyph glyph-name="Oslashacute" unicode="&#x1fe;" horiz-adv-x="819" 
d="M28 26l80 85q-39 47 -60 108.5t-21 133.5v8q0 82 29 149t80 115t120 74t149 26q66 0 123 -16t104 -46l73 77l59 -58l-69 -73q42 -45 65.5 -106.5t23.5 -136.5v-8q0 -83 -27 -151t-77 -116q-50 -49 -120.5 -76t-157.5 -27q-70 0 -128.5 17.5t-104.5 49.5l-82 -87zM406 149
q77 0 121.5 54.5t44.5 151.5v8q0 29 -4 53.5t-12 45.5l-260 -273q22 -20 49.5 -30t60.5 -10zM239 354q0 -27 3.5 -50t9.5 -42l255 270q-20 17 -45.5 25t-56.5 8q-77 0 -121.5 -52.5t-44.5 -150.5v-8zM380 905h187l-103 -146h-135z" />
    <glyph glyph-name="oslashacute" unicode="&#x1ff;" horiz-adv-x="622" 
d="M17 9l66 70q-29 33 -45.5 77t-16.5 99v8q0 63 22 113.5t61 86.5q38 36 90.5 55t113.5 19q46 0 87 -10.5t76 -32.5l65 69l52 -48l-62 -66q32 -35 49.5 -80t17.5 -101v-8q0 -64 -22 -114.5t-60 -85.5q-39 -35 -91.5 -53.5t-112.5 -18.5q-49 0 -92 11.5t-78 33.5l-68 -72z
M308 120q52 0 78.5 36t26.5 102v8q0 16 -1.5 29.5t-4.5 25.5l-167 -178q13 -11 30 -17t38 -6zM202 260q0 -14 1 -26t3 -23l163 174q-11 10 -26.5 14.5t-34.5 4.5q-51 0 -78.5 -34.5t-27.5 -101.5v-8zM290 749h180l-105 -166h-128z" />
    <glyph glyph-name="uni0218" unicode="&#x218;" horiz-adv-x="659" 
d="M331 -12q-151 0 -227 61t-81 178h195q2 -19 8 -36t19 -29q12 -13 33 -20.5t53 -7.5q45 0 68.5 19.5t23.5 51.5q0 16 -5.5 27.5t-18.5 19.5q-13 7 -35 12t-54 10q-76 9 -127.5 25.5t-82.5 43.5q-32 27 -46 66t-14 93q0 48 19 89t55 71t87.5 46.5t115.5 16.5
q130 0 201 -54.5t81 -168.5h-190q-5 38 -27.5 57.5t-64.5 19.5t-62.5 -17t-20.5 -44q0 -15 5 -26t18 -19q12 -9 33.5 -15t54.5 -10q68 -8 119 -21.5t86 -38.5q34 -26 51.5 -65t17.5 -97q0 -49 -19 -92.5t-56 -75.5t-90.5 -51t-122.5 -19zM209 -205l42 177l158 -19l-99 -185z
" />
    <glyph glyph-name="uni0219" unicode="&#x219;" horiz-adv-x="523" 
d="M257 -12q-112 0 -174.5 45t-65.5 133h165q5 -29 20.5 -44t53.5 -15q33 0 48.5 11.5t15.5 31.5q0 19 -21.5 29t-75.5 18q-53 7 -90.5 18.5t-61.5 31.5q-24 19 -35.5 48t-11.5 70q0 43 18 75.5t49 54.5q30 21 71 31.5t86 10.5q48 0 88.5 -9t70.5 -29t48.5 -52t23.5 -79
h-162q-5 26 -20.5 39t-46.5 13q-29 0 -44 -11.5t-15 -29.5q0 -19 20 -28t68 -15q54 -7 94.5 -18t67.5 -30q27 -20 40 -49t13 -71q0 -93 -64 -136.5t-173 -43.5zM142 -205l42 177l158 -19l-99 -185z" />
    <glyph glyph-name="uni021A" unicode="&#x21a;" horiz-adv-x="618" 
d="M206 557h-185v158h576v-158h-185v-557h-206v557zM196 -205l42 177l158 -19l-99 -185z" />
    <glyph glyph-name="uni021B" unicode="&#x21b;" horiz-adv-x="389" 
d="M261 -12q-89 0 -136.5 43.5t-47.5 136.5v233h-63v122h63v109h179v-109h103v-122h-103v-216q0 -27 13.5 -41t39.5 -14q15 0 27 2t24 7v-136q-17 -5 -42 -10t-57 -5zM98 -205l42 177l158 -19l-99 -185z" />
    <glyph glyph-name="uni0237" unicode="&#x237;" horiz-adv-x="295" 
d="M-6 -54q33 2 48.5 16.5t15.5 45.5v515h178v-519q0 -42 -11 -77t-39 -60q-28 -24 -74.5 -37.5t-117.5 -13.5v130z" />
    <glyph glyph-name="circumflex" unicode="&#x2c6;" horiz-adv-x="400" 
d="M138 748h128l118 -163h-125l-61 56l-60 -56h-123z" />
    <glyph glyph-name="caron" unicode="&#x2c7;" horiz-adv-x="400" 
d="M15 748h125l61 -56l61 56h122l-123 -163h-127z" />
    <glyph glyph-name="breve" unicode="&#x2d8;" horiz-adv-x="400" 
d="M199 587q-72 0 -115.5 41t-47.5 117h111q2 -23 15 -35.5t37 -12.5t38 13t16 35h111q-5 -76 -50 -117t-115 -41z" />
    <glyph glyph-name="dotaccent" unicode="&#x2d9;" horiz-adv-x="400" 
d="M200 579q-42 0 -69 25.5t-27 64.5q0 38 27.5 63.5t68.5 25.5t68 -25.5t27 -63.5q0 -39 -27 -64.5t-68 -25.5z" />
    <glyph glyph-name="ring" unicode="&#x2da;" horiz-adv-x="400" 
d="M200 642q20 0 33 14t13 36q0 23 -13 37t-33 14t-33 -14t-13 -37q0 -22 13 -36t33 -14zM200 578q-24 0 -45.5 9t-37.5 25q-16 15 -25.5 35.5t-9.5 44.5t9.5 44.5t25.5 36.5t37.5 25t45.5 9t45.5 -9t37.5 -25t25.5 -36.5t9.5 -44.5t-9.5 -44.5t-25.5 -35.5
q-16 -16 -37.5 -25t-45.5 -9z" />
    <glyph glyph-name="ogonek" unicode="&#x2db;" horiz-adv-x="400" 
d="M199 -182q-49 0 -83 20.5t-34 58.5q0 19 7.5 34.5t19.5 27.5q12 13 27.5 23t31.5 18h102q-21 -17 -31.5 -31.5t-10.5 -31.5q0 -14 8 -21t22 -7q9 0 16.5 1t13.5 4v-80q-14 -6 -37 -11t-52 -5z" />
    <glyph glyph-name="tilde" unicode="&#x2dc;" horiz-adv-x="400" 
d="M264 587q-21 0 -37.5 5t-30.5 12q-14 6 -25.5 11t-23.5 5t-20.5 -9t-10.5 -23h-97q5 79 36.5 117.5t78.5 38.5q20 0 36.5 -5.5t31.5 -11.5q14 -6 26.5 -11.5t24.5 -5.5q14 0 21.5 9t10.5 23h97q-6 -78 -39.5 -116.5t-78.5 -38.5z" />
    <glyph glyph-name="hungarumlaut" unicode="&#x2dd;" horiz-adv-x="400" 
d="M98 749h140l-77 -166h-107zM275 749h140l-77 -166h-106z" />
    <glyph glyph-name="Wgrave" unicode="&#x1e80;" horiz-adv-x="996" 
d="M14 715h207l92 -446l96 446h182l104 -450l97 450h190l-167 -715h-214l-110 454l-111 -454h-200zM342 905h186l49 -146h-135z" />
    <glyph glyph-name="wgrave" unicode="&#x1e81;" horiz-adv-x="845" 
d="M9 523h187l76 -313l88 313h144l78 -313l85 313h170l-166 -523h-171l-78 292l-81 -292h-174zM267 749h180l53 -166h-128z" />
    <glyph glyph-name="Wacute" unicode="&#x1e82;" horiz-adv-x="996" 
d="M14 715h207l92 -446l96 446h182l104 -450l97 450h190l-167 -715h-214l-110 454l-111 -454h-200zM481 905h187l-103 -146h-135z" />
    <glyph glyph-name="wacute" unicode="&#x1e83;" horiz-adv-x="845" 
d="M9 523h187l76 -313l88 313h144l78 -313l85 313h170l-166 -523h-171l-78 292l-81 -292h-174zM421 749h180l-105 -166h-128z" />
    <glyph glyph-name="Wdieresis" unicode="&#x1e84;" horiz-adv-x="996" 
d="M14 715h207l92 -446l96 446h182l104 -450l97 450h190l-167 -715h-214l-110 454l-111 -454h-200zM389 758q-18 0 -33.5 6.5t-26.5 17.5q-12 11 -18.5 26.5t-6.5 32.5q0 35 25 59.5t60 24.5q36 0 61 -24.5t25 -59.5t-25 -59t-61 -24zM612 758q-36 0 -60.5 24t-24.5 59
t24.5 59.5t60.5 24.5t61 -24.5t25 -59.5t-25 -59t-61 -24z" />
    <glyph glyph-name="wdieresis" unicode="&#x1e85;" horiz-adv-x="845" 
d="M9 523h187l76 -313l88 313h144l78 -313l85 313h170l-166 -523h-171l-78 292l-81 -292h-174zM324 580q-18 0 -33.5 6.5t-26.5 17.5q-12 11 -18.5 26.5t-6.5 32.5t6.5 32.5t18.5 27.5q11 11 26.5 17.5t33.5 6.5q36 0 61 -24.5t25 -59.5t-25 -59t-61 -24zM537 580
q-36 0 -60.5 24t-24.5 59t24.5 59.5t60.5 24.5t61 -24.5t25 -59.5t-25 -59t-61 -24z" />
    <glyph glyph-name="Ygrave" unicode="&#x1ef2;" horiz-adv-x="677" 
d="M237 306l-233 409h223l121 -241l121 241h196l-222 -409v-306h-206v306zM184 905h186l49 -146h-135z" />
    <glyph glyph-name="ygrave" unicode="&#x1ef3;" horiz-adv-x="589" 
d="M213 53l-209 470h194l108 -279l100 279h171l-280 -698h-171zM136 749h180l53 -166h-128z" />
    <glyph glyph-name="uni2009" unicode="&#x2009;" horiz-adv-x="87" 
 />
    <glyph glyph-name="endash" unicode="&#x2013;" horiz-adv-x="541" 
d="M46 345h449v-105h-449v105z" />
    <glyph glyph-name="emdash" unicode="&#x2014;" horiz-adv-x="946" 
d="M46 345h855v-105h-855v105z" />
    <glyph glyph-name="quoteleft" unicode="&#x2018;" horiz-adv-x="310" 
d="M30 481l137 247l101 -39l-80 -261z" />
    <glyph glyph-name="quoteright" unicode="&#x2019;" horiz-adv-x="310" 
d="M42 467l80 261l158 -53l-137 -247z" />
    <glyph glyph-name="quotesinglbase" unicode="&#x201a;" horiz-adv-x="309" 
d="M39 -67l80 261l157 -53l-136 -247z" />
    <glyph glyph-name="quotedblleft" unicode="&#x201c;" horiz-adv-x="536" 
d="M30 481l137 247l101 -39l-80 -261zM257 481l137 247l101 -39l-80 -261z" />
    <glyph glyph-name="quotedblright" unicode="&#x201d;" horiz-adv-x="536" 
d="M42 467l80 261l158 -53l-137 -247zM269 467l80 261l158 -53l-138 -247z" />
    <glyph glyph-name="quotedblbase" unicode="&#x201e;" horiz-adv-x="535" 
d="M39 -67l80 261l157 -53l-136 -247zM266 -67l80 261l157 -53l-136 -247z" />
    <glyph glyph-name="dagger" unicode="&#x2020;" horiz-adv-x="405" 
d="M130 472h-107v126h107v117h145v-117h107v-126h-107v-259h-145v259z" />
    <glyph glyph-name="daggerdbl" unicode="&#x2021;" horiz-adv-x="405" 
d="M130 501h-107v114h107v100h145v-100h107v-114h-107v-74h107v-114h-107v-100h-145v100h-107v114h107v74z" />
    <glyph glyph-name="bullet" unicode="&#x2022;" horiz-adv-x="372" 
d="M186 156q-31 0 -58 11.5t-46 31.5q-20 20 -31.5 47t-11.5 57t11.5 57t31.5 47q19 19 46 30.5t58 11.5q32 0 58.5 -11.5t46.5 -30.5q19 -20 30 -47t11 -57t-11 -57t-30 -47q-20 -20 -46.5 -31.5t-58.5 -11.5z" />
    <glyph glyph-name="ellipsis" unicode="&#x2026;" horiz-adv-x="893" 
d="M148 -11q-22 0 -41 8t-32 22q-14 13 -21.5 31.5t-7.5 39.5t7.5 39.5t21.5 32.5q13 13 32 21t41 8t41.5 -8t33.5 -21q14 -14 22 -32.5t8 -39.5t-8 -39.5t-22 -31.5q-14 -14 -33.5 -22t-41.5 -8zM445 -11q-22 0 -41 8t-32 22q-14 13 -21.5 31.5t-7.5 39.5t7.5 39.5
t21.5 32.5q13 13 32 21t41 8t41.5 -8t33.5 -21q14 -14 22 -32.5t8 -39.5t-8 -39.5t-22 -31.5q-14 -14 -33.5 -22t-41.5 -8zM742 -11q-22 0 -41 8t-32 22q-14 13 -21.5 31.5t-7.5 39.5t7.5 39.5t21.5 32.5q13 13 32 21t41 8t41.5 -8t33.5 -21q14 -14 22 -32.5t8 -39.5
t-8 -39.5t-22 -31.5q-14 -14 -33.5 -22t-41.5 -8z" />
    <glyph glyph-name="perthousand" unicode="&#x2030;" horiz-adv-x="1222" 
d="M213 472q27 0 41.5 20t14.5 55t-14.5 54.5t-41.5 19.5t-42 -19.5t-15 -53.5q0 -36 15 -56t42 -20zM212 368q-44 0 -78.5 13.5t-58.5 37.5t-37 57t-13 71q0 37 14.5 69.5t39.5 56.5q25 23 59.5 36.5t74.5 13.5t74 -13t59 -36t39.5 -54.5t14.5 -69.5q0 -39 -13 -72t-37 -57
q-25 -25 -60 -39t-78 -14zM611 715h98l-496 -715h-98zM606 92q27 0 41.5 20.5t14.5 55.5q0 34 -14.5 53.5t-41.5 19.5t-42 -19.5t-15 -53.5q0 -36 15 -56t42 -20zM605 -12q-44 0 -78.5 13.5t-58.5 37.5t-37 57t-13 71q0 37 14.5 69.5t39.5 56.5q25 23 59.5 36.5t74.5 13.5
t74 -13t59 -36t39.5 -54.5t14.5 -69.5q0 -39 -13 -72t-37 -57q-25 -25 -60 -39t-78 -14zM1010 92q28 0 42.5 20.5t14.5 55.5q0 34 -14.5 53.5t-42.5 19.5q-26 0 -41.5 -19.5t-15.5 -53.5q0 -36 15.5 -56t41.5 -20zM1010 -12q-44 0 -79 13.5t-59 37.5t-37 57t-13 71
q0 37 14.5 69.5t39.5 56.5q25 23 59.5 36.5t74.5 13.5t74.5 -13t59.5 -36t39.5 -54.5t14.5 -69.5q0 -39 -13.5 -72t-37.5 -57q-25 -25 -59.5 -39t-77.5 -14z" />
    <glyph glyph-name="uni2032" unicode="&#x2032;" horiz-adv-x="250" 
d="M55 715h169l-63 -275h-126z" />
    <glyph glyph-name="uni2033" unicode="&#x2033;" horiz-adv-x="462" 
d="M55 715h169l-63 -275h-126zM268 715h168l-62 -275h-127z" />
    <glyph glyph-name="guilsinglleft" unicode="&#x2039;" horiz-adv-x="307" 
d="M31 261l124 191h122l-120 -191l120 -191h-122z" />
    <glyph glyph-name="guilsinglright" unicode="&#x203a;" horiz-adv-x="307" 
d="M150 261l-120 191h121l125 -191l-125 -191h-121z" />
    <glyph glyph-name="fraction" unicode="&#x2044;" horiz-adv-x="168" 
d="M317 715h94l-560 -715h-94z" />
    <glyph glyph-name="zero.sup" unicode="&#x2070;" horiz-adv-x="422" 
d="M207 491q28 0 41.5 23t13.5 68v8q0 48 -13.5 68.5t-42.5 20.5t-41 -21t-12 -69v-7q0 -47 12.5 -69t41.5 -22zM204 390q-89 0 -137 49.5t-48 141.5v8q0 45 14 80.5t40 59.5q25 24 59 36.5t75 12.5q39 0 73.5 -11t60.5 -34q25 -23 39.5 -58t14.5 -83v-7q0 -92 -51 -143.5
t-140 -51.5z" />
    <glyph glyph-name="four.sup" unicode="&#x2074;" horiz-adv-x="395" 
d="M195 467h-187v49l156 257h159v-219h48v-87h-48v-70h-128v70zM199 554v132l-77 -132h77z" />
    <glyph glyph-name="five.sup" unicode="&#x2075;" horiz-adv-x="367" 
d="M179 390q-41 0 -71 9.5t-49 26.5q-20 17 -29.5 40t-10.5 50h120q2 -13 10 -21t28 -8q17 0 26 11t9 30q0 20 -9.5 30t-28.5 10q-17 0 -26.5 -7t-14.5 -17h-102l11 229h281v-93h-190l-3 -80q12 18 34 33t64 15q53 0 85 -30t32 -88q0 -65 -43 -102.5t-123 -37.5z" />
    <glyph glyph-name="six.sup" unicode="&#x2076;" horiz-adv-x="392" 
d="M205 390q-48 0 -82.5 14t-56.5 39q-22 24 -32.5 58.5t-10.5 76.5v11q0 44 14 79t39 60q24 24 58 37t74 13q72 0 111 -30.5t44 -87.5h-121q-2 10 -8.5 17.5t-23.5 7.5q-27 0 -39.5 -23.5t-14.5 -62.5q12 18 32 29.5t56 11.5q26 0 49 -6.5t41 -20.5q17 -14 27 -35.5
t10 -52.5q0 -61 -44 -98t-122 -37zM203 478q19 0 30 12.5t11 32.5q0 19 -11.5 31t-29.5 12q-19 0 -29.5 -13t-10.5 -30q0 -20 10.5 -32.5t29.5 -12.5z" />
    <glyph glyph-name="seven.sup" unicode="&#x2077;" horiz-adv-x="344" 
d="M163 669h-148v104h314v-13l-136 -363h-132z" />
    <glyph glyph-name="eight.sup" unicode="&#x2078;" horiz-adv-x="381" 
d="M186 390q-83 0 -127 29t-44 84q0 30 17 55t52 36q-24 10 -38.5 28.5t-14.5 47.5q0 26 12.5 46.5t33.5 34.5q21 13 49.5 20t60.5 7q68 0 112 -27.5t44 -79.5q0 -30 -14.5 -48t-38.5 -28q35 -11 51 -34.5t16 -53.5q0 -55 -44 -86t-127 -31zM187 479q17 0 29 10.5t12 27.5
t-11.5 28t-29.5 11t-30 -10.5t-12 -28.5t12 -28t30 -10zM187 624q16 0 26.5 9.5t10.5 25.5t-10.5 25t-26.5 9q-14 0 -25.5 -9.5t-11.5 -24.5q0 -16 11.5 -25.5t25.5 -9.5z" />
    <glyph glyph-name="nine.sup" unicode="&#x2079;" horiz-adv-x="392" 
d="M182 390q-72 0 -113.5 31t-46.5 88h122q2 -11 9.5 -18t25.5 -7q29 0 40.5 22.5t12.5 61.5q-13 -17 -30.5 -28t-52.5 -11q-28 0 -52 6.5t-42 20.5q-18 13 -28 35t-10 54q0 60 44 97t121 37q47 0 81.5 -14t57.5 -39q22 -25 33 -59.5t11 -75.5v-10q0 -91 -46.5 -141
t-136.5 -50zM182 603q20 0 30.5 12t10.5 30q0 20 -10.5 33t-30.5 13q-18 0 -29 -12.5t-11 -32.5q0 -18 10.5 -30.5t29.5 -12.5z" />
    <glyph glyph-name="plus.sup" unicode="&#x207a;" horiz-adv-x="357" 
d="M131 544h-96v93h96v99h95v-99h96v-93h-96v-98h-95v98z" />
    <glyph glyph-name="minus.sup" unicode="&#x207b;" horiz-adv-x="357" 
d="M35 637h287v-93h-287v93z" />
    <glyph glyph-name="zero.sub" unicode="&#x2080;" horiz-adv-x="422" 
d="M207 -26q28 0 41.5 23t13.5 68v8q0 48 -13.5 68.5t-42.5 20.5t-41 -21t-12 -69v-7q0 -47 12.5 -69t41.5 -22zM204 -127q-89 0 -137 49.5t-48 141.5v8q0 45 14 80.5t40 59.5q25 24 59 36.5t75 12.5q39 0 73.5 -11t60.5 -34q25 -23 39.5 -58t14.5 -83v-7q0 -92 -51 -143.5
t-140 -51.5z" />
    <glyph glyph-name="one.sub" unicode="&#x2081;" horiz-adv-x="287" 
d="M102 128l-82 -46v107l102 67h114v-376h-134v248z" />
    <glyph glyph-name="two.sub" unicode="&#x2082;" horiz-adv-x="354" 
d="M5 -103l128 133q32 32 50 55.5t18 46.5q0 16 -7.5 24t-23.5 8q-17 0 -27 -13t-13 -39h-120q2 74 46.5 111.5t119.5 37.5q79 0 117 -34.5t38 -85.5q0 -38 -21.5 -69.5t-55.5 -62.5l-35 -34h113v-95h-327v17z" />
    <glyph glyph-name="three.sub" unicode="&#x2083;" horiz-adv-x="374" 
d="M182 -127q-44 0 -75.5 10t-51.5 28t-30 42.5t-11 53.5h116q2 -18 12.5 -30t32.5 -12q20 0 29.5 8.5t9.5 25.5t-11 25.5t-34 8.5h-30v74h30q24 0 34.5 8.5t10.5 25.5q0 13 -8.5 21t-25.5 8t-28 -9.5t-14 -28.5h-116q5 57 44 93t117 36q74 0 115 -27t41 -77q0 -32 -18 -52
t-50 -29q34 -5 55 -26.5t21 -55.5q0 -54 -41 -87.5t-124 -33.5z" />
    <glyph glyph-name="four.sub" unicode="&#x2084;" horiz-adv-x="395" 
d="M195 -50h-187v49l156 257h159v-219h48v-87h-48v-70h-128v70zM199 37v132l-77 -132h77z" />
    <glyph glyph-name="five.sub" unicode="&#x2085;" horiz-adv-x="367" 
d="M179 -127q-41 0 -71 9.5t-49 26.5q-20 17 -29.5 40t-10.5 50h120q2 -13 10 -21t28 -8q17 0 26 11t9 30q0 20 -9.5 30t-28.5 10q-17 0 -26.5 -7t-14.5 -17h-102l11 229h281v-93h-190l-3 -80q12 18 34 33t64 15q53 0 85 -30t32 -88q0 -65 -43 -102.5t-123 -37.5z" />
    <glyph glyph-name="six.sub" unicode="&#x2086;" horiz-adv-x="392" 
d="M205 -127q-48 0 -82.5 14t-56.5 39q-22 24 -32.5 58.5t-10.5 76.5v11q0 44 14 79t39 60q24 24 58 37t74 13q72 0 111 -30.5t44 -87.5h-121q-2 10 -8.5 17.5t-23.5 7.5q-27 0 -39.5 -23.5t-14.5 -62.5q12 18 32 29.5t56 11.5q26 0 49 -6.5t41 -20.5q17 -14 27 -35.5
t10 -52.5q0 -61 -44 -98t-122 -37zM203 -39q19 0 30 12.5t11 32.5q0 19 -11.5 31t-29.5 12q-19 0 -29.5 -13t-10.5 -30q0 -20 10.5 -32.5t29.5 -12.5z" />
    <glyph glyph-name="seven.sub" unicode="&#x2087;" horiz-adv-x="344" 
d="M163 152h-148v104h314v-13l-136 -363h-132z" />
    <glyph glyph-name="eight.sub" unicode="&#x2088;" horiz-adv-x="381" 
d="M186 -127q-83 0 -127 29t-44 84q0 30 17 55t52 36q-24 10 -38.5 28.5t-14.5 47.5q0 26 12.5 46.5t33.5 34.5q21 13 49.5 20t60.5 7q68 0 112 -27.5t44 -79.5q0 -30 -14.5 -48t-38.5 -28q35 -11 51 -34.5t16 -53.5q0 -55 -44 -86t-127 -31zM187 -38q17 0 29 10.5t12 27.5
t-11.5 28t-29.5 11t-30 -10.5t-12 -28.5t12 -28t30 -10zM187 107q16 0 26.5 9.5t10.5 25.5t-10.5 25t-26.5 9q-14 0 -25.5 -9.5t-11.5 -24.5q0 -16 11.5 -25.5t25.5 -9.5z" />
    <glyph glyph-name="nine.sub" unicode="&#x2089;" horiz-adv-x="392" 
d="M182 -127q-72 0 -113.5 31t-46.5 88h122q2 -11 9.5 -18t25.5 -7q29 0 40.5 22.5t12.5 61.5q-13 -17 -30.5 -28t-52.5 -11q-28 0 -52 6.5t-42 20.5q-18 13 -28 35t-10 54q0 60 44 97t121 37q47 0 81.5 -14t57.5 -39q22 -25 33 -59.5t11 -75.5v-10q0 -91 -46.5 -141
t-136.5 -50zM182 86q20 0 30.5 12t10.5 30q0 20 -10.5 33t-30.5 13q-18 0 -29 -12.5t-11 -32.5q0 -18 10.5 -30.5t29.5 -12.5z" />
    <glyph glyph-name="plus.sub" unicode="&#x208a;" horiz-adv-x="357" 
d="M131 27h-96v93h96v99h95v-99h96v-93h-96v-98h-95v98z" />
    <glyph glyph-name="minus.sub" unicode="&#x208b;" horiz-adv-x="357" 
d="M35 120h287v-93h-287v93z" />
    <glyph glyph-name="Euro" unicode="&#x20ac;" horiz-adv-x="720" 
d="M23 452h63q9 60 35 110.5t66 86.5t93 56t117 20q130 0 204.5 -65t85.5 -193h-189q-7 52 -32.5 78t-70.5 26q-49 0 -75.5 -32t-35.5 -87h155l-12 -71h-147v-52h138l-12 -71h-122q8 -54 34.5 -83t77.5 -29t76 29t32 87h188q-15 -130 -88.5 -202t-212.5 -72q-68 0 -121 20
t-91 56q-39 36 -62.5 85.5t-31.5 108.5h-62v71h58v52h-58v71z" />
    <glyph glyph-name="trademark" unicode="&#x2122;" horiz-adv-x="760" 
d="M341 715h128l59 -158l60 158h131v-321h-109v183l-72 -183h-33l-71 183v-183h-93v321zM112 631h-83v84h273v-84h-83v-237h-107v237z" />
    <glyph glyph-name="onethird" unicode="&#x2153;" horiz-adv-x="813" 
d="M105 587l-82 -46v107l102 67h114v-376h-134v248zM619 715h94l-560 -715h-94zM621 -7q-44 0 -75.5 10t-51.5 28t-30 42.5t-11 53.5h116q2 -18 12.5 -30t32.5 -12q20 0 29.5 8.5t9.5 25.5t-11 25.5t-34 8.5h-30v74h30q24 0 34.5 8.5t10.5 25.5q0 13 -8.5 21t-25.5 8
t-28 -9.5t-14 -28.5h-116q5 57 44 93t117 36q74 0 115 -27t41 -77q0 -32 -18 -52t-50 -29q34 -5 55 -26.5t21 -55.5q0 -54 -41 -87.5t-124 -33.5z" />
    <glyph glyph-name="twothirds" unicode="&#x2154;" horiz-adv-x="860" 
d="M4 356l128 133q32 32 50 55.5t18 46.5q0 16 -7.5 24t-23.5 8q-17 0 -27 -13t-13 -39h-120q2 74 46.5 111.5t119.5 37.5q79 0 117 -34.5t38 -85.5q0 -38 -21.5 -69.5t-55.5 -62.5l-35 -34h113v-95h-327v17zM678 715h94l-560 -715h-94zM665 -7q-44 0 -75.5 10t-51.5 28
t-30 42.5t-11 53.5h116q2 -18 12.5 -30t32.5 -12q20 0 29.5 8.5t9.5 25.5t-11 25.5t-34 8.5h-30v74h30q24 0 34.5 8.5t10.5 25.5q0 13 -8.5 21t-25.5 8t-28 -9.5t-14 -28.5h-116q5 57 44 93t117 36q74 0 115 -27t41 -77q0 -32 -18 -52t-50 -29q34 -5 55 -26.5t21 -55.5
q0 -54 -41 -87.5t-124 -33.5z" />
    <glyph glyph-name="oneeighth" unicode="&#x215b;" horiz-adv-x="811" 
d="M105 587l-82 -46v107l102 67h114v-376h-134v248zM609 715h94l-560 -715h-94zM613 -7q-83 0 -127 29t-44 84q0 30 17 55t52 36q-24 10 -38.5 28.5t-14.5 47.5q0 26 12.5 46.5t33.5 34.5q21 13 49.5 20t60.5 7q68 0 112 -27.5t44 -79.5q0 -30 -14.5 -48t-38.5 -28
q35 -11 51 -34.5t16 -53.5q0 -55 -44 -86t-127 -31zM614 82q17 0 29 10.5t12 27.5t-11.5 28t-29.5 11t-30 -10.5t-12 -28.5t12 -28t30 -10zM614 227q16 0 26.5 9.5t10.5 25.5t-10.5 25t-26.5 9q-14 0 -25.5 -9.5t-11.5 -24.5q0 -16 11.5 -25.5t25.5 -9.5z" />
    <glyph glyph-name="threeeighths" unicode="&#x215c;" horiz-adv-x="851" 
d="M189 332q-44 0 -75.5 10t-51.5 28t-30 42.5t-11 53.5h116q2 -18 12.5 -30t32.5 -12q20 0 29.5 8.5t9.5 25.5t-11 25.5t-34 8.5h-30v74h30q24 0 34.5 8.5t10.5 25.5q0 13 -8.5 21t-25.5 8t-28 -9.5t-14 -28.5h-116q5 57 44 93t117 36q74 0 115 -27t41 -77q0 -32 -18 -52
t-50 -29q34 -5 55 -26.5t21 -55.5q0 -54 -41 -87.5t-124 -33.5zM661 715h94l-560 -715h-94zM653 -7q-83 0 -127 29t-44 84q0 30 17 55t52 36q-24 10 -38.5 28.5t-14.5 47.5q0 26 12.5 46.5t33.5 34.5q21 13 49.5 20t60.5 7q68 0 112 -27.5t44 -79.5q0 -30 -14.5 -48
t-38.5 -28q35 -11 51 -34.5t16 -53.5q0 -55 -44 -86t-127 -31zM654 82q17 0 29 10.5t12 27.5t-11.5 28t-29.5 11t-30 -10.5t-12 -28.5t12 -28t30 -10zM654 227q16 0 26.5 9.5t10.5 25.5t-10.5 25t-26.5 9q-14 0 -25.5 -9.5t-11.5 -24.5q0 -16 11.5 -25.5t25.5 -9.5z" />
    <glyph glyph-name="fiveeighths" unicode="&#x215d;" horiz-adv-x="837" 
d="M182 332q-41 0 -71 9.5t-49 26.5q-20 17 -29.5 40t-10.5 50h120q2 -13 10 -21t28 -8q17 0 26 11t9 30q0 20 -9.5 30t-28.5 10q-17 0 -26.5 -7t-14.5 -17h-102l11 229h281v-93h-190l-3 -80q12 18 34 33t64 15q53 0 85 -30t32 -88q0 -65 -43 -102.5t-123 -37.5zM646 715h94
l-560 -715h-94zM639 -7q-83 0 -127 29t-44 84q0 30 17 55t52 36q-24 10 -38.5 28.5t-14.5 47.5q0 26 12.5 46.5t33.5 34.5q21 13 49.5 20t60.5 7q68 0 112 -27.5t44 -79.5q0 -30 -14.5 -48t-38.5 -28q35 -11 51 -34.5t16 -53.5q0 -55 -44 -86t-127 -31zM640 82q17 0 29 10.5
t12 27.5t-11.5 28t-29.5 11t-30 -10.5t-12 -28.5t12 -28t30 -10zM640 227q16 0 26.5 9.5t10.5 25.5t-10.5 25t-26.5 9q-14 0 -25.5 -9.5t-11.5 -24.5q0 -16 11.5 -25.5t25.5 -9.5z" />
    <glyph glyph-name="seveneighths" unicode="&#x215e;" horiz-adv-x="806" 
d="M170 611h-148v104h314v-13l-136 -363h-132zM596 715h94l-560 -715h-94zM608 -7q-83 0 -127 29t-44 84q0 30 17 55t52 36q-24 10 -38.5 28.5t-14.5 47.5q0 26 12.5 46.5t33.5 34.5q21 13 49.5 20t60.5 7q68 0 112 -27.5t44 -79.5q0 -30 -14.5 -48t-38.5 -28
q35 -11 51 -34.5t16 -53.5q0 -55 -44 -86t-127 -31zM609 82q17 0 29 10.5t12 27.5t-11.5 28t-29.5 11t-30 -10.5t-12 -28.5t12 -28t30 -10zM609 227q16 0 26.5 9.5t10.5 25.5t-10.5 25t-26.5 9q-14 0 -25.5 -9.5t-11.5 -24.5q0 -16 11.5 -25.5t25.5 -9.5z" />
    <glyph glyph-name="minus" unicode="&#x2212;" horiz-adv-x="572" 
d="M37 409h498v-138h-498v138z" />
    <glyph glyph-name="approxequal" unicode="&#x2248;" horiz-adv-x="579" 
d="M37 121q3 47 15.5 81t31.5 56q19 21 43.5 31t50.5 10q30 0 60.5 -6.5t58.5 -13.5q28 -8 53 -14t43 -6q20 0 31 11t14 33h103q-2 -45 -14 -78.5t-31 -55.5t-43.5 -33t-50.5 -11q-31 0 -61.5 6t-58.5 14q-29 7 -53.5 13.5t-42.5 6.5q-19 0 -30.5 -11t-14.5 -33h-104z
M37 342q3 47 15.5 80.5t31.5 55.5q19 21 43.5 31t50.5 10q30 0 60.5 -6.5t58.5 -13.5q28 -8 53 -14t43 -6q20 0 31 11t14 33h103q-2 -45 -14 -78.5t-31 -54.5q-19 -22 -43.5 -33t-50.5 -11q-31 0 -61.5 6t-58.5 14q-29 7 -53.5 13.5t-42.5 6.5q-19 0 -30.5 -12t-14.5 -32
h-104z" />
    <glyph glyph-name="notequal" unicode="&#x2260;" horiz-adv-x="557" 
d="M39 486h244l37 96h116l-38 -96h120v-123h-167l-29 -74h196v-122h-243l-37 -96h-115l37 96h-121v122h168l28 74h-196v123z" />
    <glyph glyph-name="lessequal" unicode="&#x2264;" horiz-adv-x="513" 
d="M42 368v34l421 226v-160l-166 -82l166 -82v-161zM42 118h421v-118h-421v118z" />
    <glyph glyph-name="greaterequal" unicode="&#x2265;" horiz-adv-x="513" 
d="M49 304l166 82l-166 82v160l422 -226v-34l-422 -225v161zM49 118h422v-118h-422v118z" />
    <glyph glyph-name="uni24C5" unicode="&#x24c5;" horiz-adv-x="843" 
d="M279 561h159q87 0 126 -36.5t39 -100.5v-3q0 -64 -40 -97.5t-118 -33.5h-41v-132h-125v403zM431 375q27 0 40.5 11.5t13.5 34.5v3q0 22 -13 32.5t-40 10.5h-28v-92h27zM420 31q66 0 125 23.5t103 67.5q44 43 69.5 103t25.5 134q0 72 -25 132t-68 103q-44 43 -102.5 66.5
t-125.5 23.5q-68 0 -126.5 -24t-101.5 -67q-44 -43 -69 -103t-25 -133q0 -74 25.5 -134t69.5 -102q43 -43 101.5 -66.5t123.5 -23.5zM420 -20q-80 0 -149.5 29t-121.5 80q-52 50 -82 119t-30 149q0 79 30 148t82 120t122 80.5t151 29.5q82 0 152 -29t122 -80
q51 -51 80.5 -119.5t29.5 -147.5q0 -81 -30 -150t-82 -120t-122.5 -80t-151.5 -29z" />
    <glyph glyph-name="zero.den" unicode="&#xe402;" horiz-adv-x="422" 
d="M207 94q28 0 41.5 23t13.5 68v8q0 48 -13.5 68.5t-42.5 20.5t-41 -21t-12 -69v-7q0 -47 12.5 -69t41.5 -22zM204 -7q-89 0 -137 49.5t-48 141.5v8q0 45 14 80.5t40 59.5q25 24 59 36.5t75 12.5q39 0 73.5 -11t60.5 -34q25 -23 39.5 -58t14.5 -83v-7q0 -92 -51 -143.5
t-140 -51.5z" />
    <glyph glyph-name="one.den" unicode="&#xe403;" horiz-adv-x="287" 
d="M102 248l-82 -46v107l102 67h114v-376h-134v248z" />
    <glyph glyph-name="two.den" unicode="&#xe404;" horiz-adv-x="354" 
d="M1 17l128 133q32 32 50 55.5t18 46.5q0 16 -7.5 24t-23.5 8q-17 0 -27 -13t-13 -39h-120q2 74 46.5 111.5t119.5 37.5q79 0 117 -34.5t38 -85.5q0 -38 -21.5 -69.5t-55.5 -62.5l-35 -34h113v-95h-327v17z" />
    <glyph glyph-name="three.den" unicode="&#xe405;" horiz-adv-x="374" 
d="M186 -7q-44 0 -75.5 10t-51.5 28t-30 42.5t-11 53.5h116q2 -18 12.5 -30t32.5 -12q20 0 29.5 8.5t9.5 25.5t-11 25.5t-34 8.5h-30v74h30q24 0 34.5 8.5t10.5 25.5q0 13 -8.5 21t-25.5 8t-28 -9.5t-14 -28.5h-116q5 57 44 93t117 36q74 0 115 -27t41 -77q0 -32 -18 -52
t-50 -29q34 -5 55 -26.5t21 -55.5q0 -54 -41 -87.5t-124 -33.5z" />
    <glyph glyph-name="four.den" unicode="&#xe406;" horiz-adv-x="395" 
d="M195 70h-187v49l156 257h159v-219h48v-87h-48v-70h-128v70zM199 157v132l-77 -132h77z" />
    <glyph glyph-name="five.den" unicode="&#xe407;" horiz-adv-x="367" 
d="M179 -7q-41 0 -71 9.5t-49 26.5q-20 17 -29.5 40t-10.5 50h120q2 -13 10 -21t28 -8q17 0 26 11t9 30q0 20 -9.5 30t-28.5 10q-17 0 -26.5 -7t-14.5 -17h-102l11 229h281v-93h-190l-3 -80q12 18 34 33t64 15q53 0 85 -30t32 -88q0 -65 -43 -102.5t-123 -37.5z" />
    <glyph glyph-name="six.den" unicode="&#xe408;" horiz-adv-x="392" 
d="M205 -7q-48 0 -82.5 14t-56.5 39q-22 24 -32.5 58.5t-10.5 76.5v11q0 44 14 79t39 60q24 24 58 37t74 13q72 0 111 -30.5t44 -87.5h-121q-2 10 -8.5 17.5t-23.5 7.5q-27 0 -39.5 -23.5t-14.5 -62.5q12 18 32 29.5t56 11.5q26 0 49 -6.5t41 -20.5q17 -14 27 -35.5
t10 -52.5q0 -61 -44 -98t-122 -37zM203 81q19 0 30 12.5t11 32.5q0 19 -11.5 31t-29.5 12q-19 0 -29.5 -13t-10.5 -30q0 -20 10.5 -32.5t29.5 -12.5z" />
    <glyph glyph-name="seven.den" unicode="&#xe409;" horiz-adv-x="344" 
d="M163 272h-148v104h314v-13l-136 -363h-132z" />
    <glyph glyph-name="eight.den" unicode="&#xe40a;" horiz-adv-x="381" 
d="M186 -7q-83 0 -127 29t-44 84q0 30 17 55t52 36q-24 10 -38.5 28.5t-14.5 47.5q0 26 12.5 46.5t33.5 34.5q21 13 49.5 20t60.5 7q68 0 112 -27.5t44 -79.5q0 -30 -14.5 -48t-38.5 -28q35 -11 51 -34.5t16 -53.5q0 -55 -44 -86t-127 -31zM187 82q17 0 29 10.5t12 27.5
t-11.5 28t-29.5 11t-30 -10.5t-12 -28.5t12 -28t30 -10zM187 227q16 0 26.5 9.5t10.5 25.5t-10.5 25t-26.5 9q-14 0 -25.5 -9.5t-11.5 -24.5q0 -16 11.5 -25.5t25.5 -9.5z" />
    <glyph glyph-name="nine.den" unicode="&#xe40b;" horiz-adv-x="392" 
d="M182 -8q-72 0 -113.5 31t-46.5 88h122q2 -11 9.5 -18t25.5 -7q29 0 40.5 22.5t12.5 61.5q-13 -17 -30.5 -28t-52.5 -11q-28 0 -52 6.5t-42 20.5q-18 13 -28 35t-10 54q0 60 44 97t121 37q47 0 81.5 -14t57.5 -39q22 -25 33 -59.5t11 -75.5v-10q0 -91 -46.5 -141
t-136.5 -50zM182 205q20 0 30.5 12t10.5 30q0 20 -10.5 33t-30.5 13q-18 0 -29 -12.5t-11 -32.5q0 -18 10.5 -30.5t29.5 -12.5z" />
    <glyph glyph-name="zero.num" unicode="&#xe416;" horiz-adv-x="422" 
d="M211 433q28 0 41.5 23t13.5 68v8q0 48 -13.5 68.5t-42.5 20.5t-41 -21t-12 -69v-7q0 -47 12.5 -69t41.5 -22zM208 332q-89 0 -137 49.5t-48 141.5v8q0 45 14 80.5t40 59.5q25 24 59 36.5t75 12.5q39 0 73.5 -11t60.5 -34q25 -23 39.5 -58t14.5 -83v-7q0 -92 -51 -143.5
t-140 -51.5z" />
    <glyph glyph-name="one.num" unicode="&#xe417;" horiz-adv-x="286" 
d="M102 587l-82 -46v107l102 67h114v-376h-134v248z" />
    <glyph glyph-name="two.num" unicode="&#xe418;" horiz-adv-x="353" 
d="M5 356l128 133q32 32 50 55.5t18 46.5q0 16 -7.5 24t-23.5 8q-17 0 -27 -13t-13 -39h-120q2 74 46.5 111.5t119.5 37.5q79 0 117 -34.5t38 -85.5q0 -38 -21.5 -69.5t-55.5 -62.5l-35 -34h113v-95h-327v17z" />
    <glyph glyph-name="three.num" unicode="&#xe419;" horiz-adv-x="374" 
d="M186 332q-44 0 -75.5 10t-51.5 28t-30 42.5t-11 53.5h116q2 -18 12.5 -30t32.5 -12q20 0 29.5 8.5t9.5 25.5t-11 25.5t-34 8.5h-30v74h30q24 0 34.5 8.5t10.5 25.5q0 13 -8.5 21t-25.5 8t-28 -9.5t-14 -28.5h-116q5 57 44 93t117 36q74 0 115 -27t41 -77q0 -32 -18 -52
t-50 -29q34 -5 55 -26.5t21 -55.5q0 -54 -41 -87.5t-124 -33.5z" />
    <glyph glyph-name="four.num" unicode="&#xe41a;" horiz-adv-x="394" 
d="M199 409h-187v49l156 257h159v-219h48v-87h-48v-70h-128v70zM203 496v132l-77 -132h77z" />
    <glyph glyph-name="five.num" unicode="&#xe41b;" horiz-adv-x="367" 
d="M179 332q-41 0 -71 9.5t-49 26.5q-20 17 -29.5 40t-10.5 50h120q2 -13 10 -21t28 -8q17 0 26 11t9 30q0 20 -9.5 30t-28.5 10q-17 0 -26.5 -7t-14.5 -17h-102l11 229h281v-93h-190l-3 -80q12 18 34 33t64 15q53 0 85 -30t32 -88q0 -65 -43 -102.5t-123 -37.5z" />
    <glyph glyph-name="six.num" unicode="&#xe41c;" horiz-adv-x="391" 
d="M205 332q-48 0 -82.5 14t-56.5 39q-22 24 -32.5 58.5t-10.5 76.5v11q0 44 14 79t39 60q24 24 58 37t74 13q72 0 111 -30.5t44 -87.5h-121q-2 10 -8.5 17.5t-23.5 7.5q-27 0 -39.5 -23.5t-14.5 -62.5q12 18 32 29.5t56 11.5q26 0 49 -6.5t41 -20.5q17 -14 27 -35.5
t10 -52.5q0 -61 -44 -98t-122 -37zM203 420q19 0 30 12.5t11 32.5q0 19 -11.5 31t-29.5 12q-19 0 -29.5 -13t-10.5 -30q0 -20 10.5 -32.5t29.5 -12.5z" />
    <glyph glyph-name="seven.num" unicode="&#xe41d;" horiz-adv-x="343" 
d="M167 611h-148v104h314v-13l-136 -363h-132z" />
    <glyph glyph-name="eight.num" unicode="&#xe41e;" horiz-adv-x="380" 
d="M190 332q-83 0 -127 29t-44 84q0 30 17 55t52 36q-24 10 -38.5 28.5t-14.5 47.5q0 26 12.5 46.5t33.5 34.5q21 13 49.5 20t60.5 7q68 0 112 -27.5t44 -79.5q0 -30 -14.5 -48t-38.5 -28q35 -11 51 -34.5t16 -53.5q0 -55 -44 -86t-127 -31zM191 421q17 0 29 10.5t12 27.5
t-11.5 28t-29.5 11t-30 -10.5t-12 -28.5t12 -28t30 -10zM191 566q16 0 26.5 9.5t10.5 25.5t-10.5 25t-26.5 9q-14 0 -25.5 -9.5t-11.5 -24.5q0 -16 11.5 -25.5t25.5 -9.5z" />
    <glyph glyph-name="nine.num" unicode="&#xe41f;" horiz-adv-x="391" 
d="M186 332q-72 0 -113.5 31t-46.5 88h122q2 -11 9.5 -18t25.5 -7q29 0 40.5 22.5t12.5 61.5q-13 -17 -30.5 -28t-52.5 -11q-28 0 -52 6.5t-42 20.5q-18 13 -28 35t-10 54q0 60 44 97t121 37q47 0 81.5 -14t57.5 -39q22 -25 33 -59.5t11 -75.5v-10q0 -91 -46.5 -141
t-136.5 -50zM186 545q20 0 30.5 12t10.5 30q0 20 -10.5 33t-30.5 13q-18 0 -29 -12.5t-11 -32.5q0 -18 10.5 -30.5t29.5 -12.5z" />
    <glyph glyph-name="f_i" unicode="&#xfb01;" horiz-adv-x="675" 
d="M76 401h-66v122h66v46q0 49 14.5 85t41.5 60t64.5 35.5t83.5 11.5q25 0 44 -2.5t36 -7.5v-131q-10 3 -21 4.5t-26 1.5q-31 0 -45 -15.5t-14 -41.5v-46h106v-122h-106v-401h-178v401zM433 523h179v-523h-179v523zM522 573q-42 0 -70 26t-28 66t28 66.5t70 26.5t70.5 -26.5
t28.5 -66.5t-28.5 -66t-70.5 -26z" />
    <glyph glyph-name="f_l" unicode="&#xfb02;" horiz-adv-x="669" 
d="M76 401h-66v122h66v46q0 49 14.5 85t41.5 60t64.5 35.5t83.5 11.5q25 0 44 -2.5t36 -7.5v-131q-10 3 -21 4.5t-26 1.5q-31 0 -45 -15.5t-14 -41.5v-46h106v-122h-106v-401h-178v401zM433 753h178v-753h-178v753z" />
    <glyph glyph-name="idotaccent" horiz-adv-x="295" 
d="M147 573q-42 0 -70 26t-28 66t28 66.5t70 26.5t70.5 -26.5t28.5 -66.5t-28.5 -66t-70.5 -26zM58 523h179v-523h-179v523z" />
    <glyph glyph-name="space_uni0326" horiz-adv-x="408" 
d="M100 -205l42 177l158 -19l-99 -185z" />
    <glyph glyph-name="dollar.old" horiz-adv-x="640" 
d="M278 -10q-62 4 -108.5 22.5t-77.5 48.5q-32 30 -48.5 70t-19.5 88h180q4 -33 20 -57.5t54 -32.5v141q-63 9 -108 25.5t-74 43.5q-29 26 -42.5 63.5t-13.5 87.5q0 43 16.5 80.5t47.5 65.5q31 27 75 44.5t99 21.5v87h78v-88q106 -9 166.5 -59t69.5 -150h-176
q-5 27 -18 45.5t-42 26.5v-133q55 -8 100.5 -22.5t77.5 -39.5t49.5 -61.5t17.5 -89.5q0 -44 -14.5 -84t-44.5 -70q-31 -31 -77 -51t-109 -24v-120h-78v121zM421 197q0 24 -13 37.5t-52 22.5v-129q33 7 49 24.5t16 44.5zM214 504q0 -25 13 -39t51 -22v123q-32 -6 -48 -22.5
t-16 -39.5z" />
    <glyph glyph-name="Euro.old" horiz-adv-x="698" 
d="M22 438h62q9 58 34 107t64 84q38 35 89.5 54.5t113.5 19.5q126 0 198 -62.5t83 -186.5h-183q-6 50 -31 74.5t-69 24.5q-48 0 -74 -31t-34 -84h152l-13 -69h-143v-49h134l-11 -69h-119q8 -53 34 -81.5t75 -28.5t73.5 28t31.5 85h182q-14 -125 -85.5 -195.5t-206.5 -70.5
q-66 0 -117.5 19.5t-88.5 54.5t-59.5 83t-30.5 106h-61v69h57v49h-57v69z" />
    <glyph glyph-name="sterling.old" horiz-adv-x="651" 
d="M33 395h50q-5 20 -8.5 41t-3.5 45q0 54 20.5 95t56.5 70q36 28 84.5 42.5t105.5 14.5q67 0 116 -16.5t82 -47.5q32 -31 48.5 -74t18.5 -96h-181q-6 45 -24.5 64.5t-53.5 19.5t-55.5 -22t-20.5 -61q0 -19 2 -37.5t5 -37.5h171v-117h-152q2 -14 3 -27t1 -27
q0 -17 -2.5 -30.5t-7.5 -26.5q26 -8 47.5 -15t40.5 -7q29 0 44.5 14.5t16.5 43.5h179q-2 -46 -15.5 -84.5t-38.5 -66.5q-26 -29 -62.5 -45t-84.5 -16q-37 0 -66.5 8t-54.5 18q-25 9 -45 17t-38 8q-23 0 -34 -12.5t-13 -29.5h-147q4 56 29 103t74 68q4 11 6 24.5t2 28.5
q0 13 -2 26.5t-6 27.5h-87v117z" />
    <glyph glyph-name="yen.old" horiz-adv-x="627" 
d="M62 355h133l-185 339h216l100 -227l100 227h190l-175 -339h134v-69h-156v-51h156v-69h-156v-166h-200v166h-157v69h157v51h-157v69z" />
    <glyph glyph-name="zero.old" horiz-adv-x="674" 
d="M338 134q59 0 86 42t27 124v22q0 81 -27.5 122.5t-86.5 41.5q-57 0 -85.5 -40.5t-28.5 -122.5v-23q0 -83 29 -124.5t86 -41.5zM335 -12q-68 0 -124 20.5t-96 60.5q-41 39 -63 96.5t-22 131.5v23q0 74 23.5 132t64.5 98q41 39 97 60t122 21t122 -20t97 -58
q41 -39 64.5 -96t23.5 -132v-23q0 -74 -22.5 -132.5t-63.5 -98.5q-41 -41 -98 -62t-125 -21z" />
    <glyph glyph-name="one.old" horiz-adv-x="435" 
d="M165 430l-133 -81v161l158 109h165v-619h-190v430z" />
    <glyph glyph-name="two.old" horiz-adv-x="586" 
d="M11 27l227 218q54 52 86.5 92t32.5 82q0 30 -18 49t-54 19q-37 0 -60 -26t-29 -78h-172q3 58 22.5 104t54.5 78t84.5 49t111.5 17q60 0 106.5 -14.5t79.5 -40.5q32 -26 48.5 -62.5t16.5 -79.5q0 -32 -10 -60.5t-28 -55.5q-19 -27 -44 -53.5t-55 -54.5l-77 -71h220v-139
h-543v27z" />
    <glyph glyph-name="three.old" horiz-adv-x="620" 
d="M313 -104q-73 0 -126.5 17t-88.5 49q-36 32 -54 76.5t-21 100.5h174q4 -46 28 -73.5t78 -27.5q49 0 73 23.5t24 64.5q0 43 -25.5 64t-76.5 21h-58v121h54q53 0 75.5 22.5t22.5 60.5q0 35 -20.5 56t-58.5 21q-42 0 -68 -25.5t-31 -70.5h-173q3 50 21.5 93t53.5 75
q34 31 85 49t118 18q121 0 187.5 -53.5t66.5 -141.5q0 -60 -31 -98t-87 -58q63 -15 99 -54.5t36 -111.5q0 -48 -17.5 -88t-52.5 -69t-86.5 -45t-120.5 -16z" />
    <glyph glyph-name="four.old" horiz-adv-x="669" 
d="M365 40h-351v65l302 514h239v-451h93v-128h-93v-132h-190v132zM370 168v306l-170 -306h170z" />
    <glyph glyph-name="five.old" horiz-adv-x="613" 
d="M300 -104q-69 0 -120 17.5t-85 47.5q-35 31 -52.5 73t-19.5 91h178q3 -18 8.5 -33.5t16.5 -26.5q11 -12 28.5 -18.5t43.5 -6.5q45 0 69.5 30t24.5 75q0 48 -28 74.5t-75 26.5q-44 0 -72.5 -15t-45.5 -37h-118l15 425h472v-148h-331l-5 -167q23 31 63.5 52t103.5 21
q46 0 85 -15t68 -44q28 -30 43.5 -73t15.5 -99q0 -57 -19 -103t-55 -79q-37 -33 -89.5 -50.5t-119.5 -17.5z" />
    <glyph glyph-name="six.old" horiz-adv-x="651" 
d="M336 -12q-82 0 -139.5 25.5t-93.5 70.5t-52.5 107.5t-16.5 136.5v34q0 87 23.5 154.5t65.5 114.5q41 46 98.5 70t125.5 24q116 0 182.5 -52.5t77.5 -155.5h-181q-5 28 -23 45.5t-56 17.5q-57 0 -87 -51.5t-33 -158.5q22 35 61 60.5t102 25.5q48 0 90 -14.5t74 -42.5
q31 -28 49 -70t18 -97t-19.5 -100t-56.5 -77t-90 -49.5t-119 -17.5zM335 127q45 0 71.5 29t26.5 74t-26 74t-71 29q-46 0 -73 -29t-27 -72q0 -47 27 -76t72 -29z" />
    <glyph glyph-name="seven.old" horiz-adv-x="571" 
d="M311 462h-290v157h540v-22l-260 -689h-204z" />
    <glyph glyph-name="eight.old" horiz-adv-x="639" 
d="M319 -12q-65 0 -118.5 14t-91.5 41t-59 66.5t-21 91.5q0 62 36 106.5t99 67.5q-46 20 -76 56.5t-30 92.5q0 49 21 86.5t57 63.5q36 25 83.5 38t101.5 13q55 0 103 -13t83 -38q35 -26 55.5 -63.5t20.5 -85.5q0 -56 -30.5 -92.5t-75.5 -56.5q62 -22 97.5 -65.5t35.5 -104.5
q0 -51 -20.5 -91.5t-58.5 -68.5q-39 -28 -92.5 -43t-119.5 -15zM320 127q44 0 71.5 25t27.5 68q0 42 -27 67t-72 25q-43 0 -71 -24t-28 -68t28 -68.5t71 -24.5zM321 429q37 0 61.5 22t24.5 60q0 37 -25 59t-61 22q-35 0 -60.5 -22t-25.5 -59q0 -38 25.5 -60t60.5 -22z" />
    <glyph glyph-name="nine.old" horiz-adv-x="651" 
d="M305 -106q-121 0 -189.5 57t-78.5 158h180q6 -27 26.5 -48.5t62.5 -21.5q31 0 52.5 11.5t35.5 36.5t21 65t9 97q-23 -35 -61.5 -60t-102.5 -25q-48 0 -90 14t-73 42q-32 28 -50 69t-18 94q0 56 19.5 102t56.5 79q37 32 90 49.5t120 17.5q82 0 139.5 -25t93.5 -71
t52.5 -109.5t16.5 -140.5v-31q0 -84 -20.5 -151t-59.5 -114q-40 -46 -98 -70.5t-134 -24.5zM315 286q45 0 72 29.5t27 72.5q0 46 -27 75t-72 29t-71 -29t-26 -74t26 -74t71 -29z" />
    <glyph glyph-name="space.tab" horiz-adv-x="300" 
 />
    <glyph glyph-name="dollar.tab" 
d="M264 -10q-122 9 -184 73t-66 163h176q3 -35 19 -60t55 -33v145q-62 9 -106.5 26.5t-72.5 44.5q-29 27 -42.5 65.5t-13.5 90.5q0 45 16.5 83.5t47.5 67.5q30 28 73.5 46t97.5 22v89h76v-90q103 -9 162 -61t68 -155h-172q-5 28 -17 47t-41 27v-137q54 -8 98.5 -23t75.5 -40
q31 -26 48 -64t17 -92q0 -46 -14.5 -86.5t-43.5 -71.5q-29 -32 -74.5 -52.5t-106.5 -24.5v-125h-76v125zM200 520q0 -26 13 -41t51 -23v128q-32 -6 -48 -23t-16 -41zM402 203q0 25 -12.5 39t-49.5 23v-133q31 8 46.5 26.5t15.5 44.5z" />
    <glyph glyph-name="cent.tab" 
d="M277 -10q-54 5 -100 24t-79 53q-33 33 -52 80t-19 108v8q0 59 19 106.5t53 82.5q34 34 79.5 55t98.5 27v95h78v-94q44 -4 82.5 -18.5t68.5 -40.5q29 -27 47.5 -65t22.5 -89h-164q-4 30 -19 50t-38 28v-284q28 8 46 30.5t21 59.5h157q-5 -91 -63 -148.5t-161 -67.5v-125
h-78v125zM204 257q0 -57 19 -91.5t54 -47.5v281q-34 -12 -53.5 -45.5t-19.5 -88.5v-8z" />
    <glyph glyph-name="Euro.tab" 
d="M12 453h47q3 65 23.5 116t55.5 86q35 34 82 52t103 18q54 0 97.5 -14t75.5 -43q31 -29 49 -74.5t21 -109.5h-166q-5 50 -21.5 71.5t-54.5 21.5q-42 0 -63 -29.5t-23 -94.5h145l-12 -71h-133v-51h124l-13 -72h-111q2 -63 22 -92t65 -29q39 0 58.5 22.5t23.5 78.5h163
q-5 -131 -69 -191t-183 -60q-116 0 -184.5 69.5t-74.5 201.5h-47v72h47v51h-47v71z" />
    <glyph glyph-name="sterling.tab" 
d="M31 401h45q-5 21 -8 44.5t-3 50.5q0 57 19.5 99.5t53.5 71.5q33 29 79 43.5t99 14.5q126 0 184.5 -60.5t62.5 -177.5h-165q-5 48 -22.5 66t-51.5 18q-35 0 -54.5 -20.5t-19.5 -65.5q0 -21 2 -42t5 -42h161v-108h-144q2 -16 3 -31.5t1 -31.5q0 -14 -2.5 -28.5t-7.5 -28.5
q24 -8 45 -14.5t39 -6.5q26 0 42.5 13t18.5 44h165q-3 -101 -51.5 -159.5t-137.5 -58.5q-35 0 -62 8t-49 18t-40.5 18t-35.5 8q-21 0 -31.5 -12t-12.5 -31h-142q4 56 25.5 102.5t64.5 69.5q4 12 6 26.5t2 32.5q0 15 -2 30.5t-6 31.5h-75v108z" />
    <glyph glyph-name="yen.tab" 
d="M55 365h139l-174 350h205l88 -213l88 213h179l-170 -350h145v-71h-153v-51h153v-72h-153v-171h-199v171h-148v72h148v51h-148v71z" />
    <glyph glyph-name="florin.tab" 
d="M87 414h103l18 125q14 100 72 143t149 43q25 0 42 -3t36 -8v-134q-11 3 -22.5 5t-28.5 2q-30 0 -48 -15.5t-24 -47.5l-16 -110h124v-121h-141l-67 -475h-178l67 475h-86v121z" />
    <glyph glyph-name="zero.tab" 
d="M303 145q44 0 59.5 31t15.5 105v154q0 72 -17 104t-60 32q-44 0 -61.5 -32t-17.5 -105v-153q0 -75 18.5 -105.5t62.5 -30.5zM297 -12q-125 0 -195 74.5t-70 217.5v153q0 72 20 126.5t56 91.5q35 37 84 55.5t108 18.5q58 0 107 -17t85 -52q36 -36 56 -90t20 -128v-153
q0 -144 -72.5 -220.5t-198.5 -76.5z" />
    <glyph glyph-name="one.tab" 
d="M253 513l-172 -116v171l197 147h180v-715h-205v513z" />
    <glyph glyph-name="two.tab" 
d="M23 30l222 263q53 65 83 112.5t30 94.5q0 35 -15.5 54t-46.5 19q-35 0 -52 -26t-21 -92h-187q2 61 18 111t49 86q32 35 81.5 54t119.5 19q128 0 192 -58.5t64 -154.5q0 -37 -11 -71t-30 -66q-20 -33 -46 -64.5t-56 -63.5l-87 -90h229v-157h-536v30z" />
    <glyph glyph-name="three.tab" 
d="M304 -12q-142 0 -210 64t-73 184h179q3 -47 23 -73t70 -26q44 0 63.5 22t19.5 59q0 41 -20 61.5t-65 20.5h-57v129h55q44 0 65 20t21 57q0 32 -17.5 51t-55.5 19t-60.5 -22.5t-26.5 -68.5h-176q5 111 73.5 175.5t193.5 64.5q119 0 185 -52.5t66 -143.5q0 -60 -30.5 -98.5
t-83.5 -55.5q58 -13 94 -54.5t36 -106.5q0 -103 -68.5 -164.5t-200.5 -61.5z" />
    <glyph glyph-name="four.tab" 
d="M321 137h-302v70l256 508h227v-443h72v-135h-72v-137h-181v137zM325 272v287l-142 -287h142z" />
    <glyph glyph-name="five.tab" 
d="M293 -12q-133 0 -195.5 61.5t-66.5 177.5h176q3 -41 21 -61t64 -20q41 0 59.5 27.5t18.5 74.5q0 45 -23.5 70.5t-67.5 25.5q-40 0 -65.5 -15t-41.5 -37h-118l14 423h453v-151h-310l-5 -161q20 30 57.5 53.5t96.5 23.5q98 0 151 -61.5t53 -170.5q0 -60 -18 -108t-52 -82
q-35 -34 -85.5 -52t-115.5 -18z" />
    <glyph glyph-name="six.tab" 
d="M313 -12q-74 0 -127 23t-87 65q-35 42 -51.5 102t-16.5 134v65q0 84 21.5 149t60.5 110q39 44 93 66.5t120 22.5q53 0 96 -12.5t74 -37.5q31 -26 48.5 -66t20.5 -95h-171q-5 30 -19.5 48t-48.5 18q-54 0 -82 -47.5t-29 -150.5q20 33 55 57.5t94 24.5q44 0 82 -14t67 -41
q28 -28 44.5 -70.5t16.5 -99.5t-17.5 -103t-51.5 -79t-82.5 -51t-109.5 -18zM309 138q39 0 64 27t25 70q0 46 -24.5 72t-65.5 26q-40 0 -66 -25t-26 -69q0 -48 26 -74.5t67 -26.5z" />
    <glyph glyph-name="seven.tab" 
d="M318 553h-279v162h531v-21l-254 -694h-205z" />
    <glyph glyph-name="eight.tab" 
d="M300 -12q-62 0 -112.5 14t-85.5 41q-36 27 -55.5 67t-19.5 92q0 61 30.5 106.5t89.5 68.5q-43 21 -68 57t-25 90q0 48 20 85.5t54 63.5q33 25 78 38.5t96 13.5q52 0 97.5 -13.5t78.5 -38.5q33 -26 52 -63t19 -85q0 -55 -25.5 -91t-67.5 -56q59 -22 88.5 -66t29.5 -105
q0 -52 -19.5 -92.5t-54.5 -68.5q-36 -28 -86.5 -43t-113.5 -15zM301 137q39 0 64.5 22.5t25.5 64.5t-24.5 65t-64.5 23q-39 0 -65 -23t-26 -65t26 -64.5t64 -22.5zM303 430q32 0 55 21t23 56t-23 56t-56 21q-32 0 -55 -20.5t-23 -55.5q0 -36 23.5 -57t55.5 -21z" />
    <glyph glyph-name="nine.tab" 
d="M283 -11q-116 0 -180.5 52.5t-71.5 161.5h172q5 -30 22 -49.5t54 -19.5q58 0 82 47t25 150q-20 -33 -55.5 -57t-94.5 -24q-43 0 -81.5 13.5t-66.5 41.5q-29 27 -45.5 69t-16.5 99t18 103.5t52 79.5q33 33 81.5 51.5t110.5 18.5q141 0 211 -83.5t70 -238.5v-73
q0 -165 -74.5 -253.5t-211.5 -88.5zM292 383q40 0 66 24.5t26 68.5q0 48 -26 75t-67 27q-39 0 -64 -26.5t-25 -70.5q0 -46 24.5 -72t65.5 -26z" />
    <glyph glyph-name="percent.tab" horiz-adv-x="800" 
d="M212 482q26 0 39.5 19t13.5 54q0 33 -13.5 52.5t-39.5 19.5q-25 0 -39.5 -19t-14.5 -53q0 -35 14.5 -54t39.5 -19zM211 383q-41 0 -74 13t-56 36t-35.5 54.5t-12.5 67.5t13.5 67t37.5 54q24 22 57 35t71 13t70.5 -12.5t56.5 -34.5t37.5 -52.5t13.5 -66.5q0 -37 -12.5 -69
t-35.5 -55q-24 -23 -57 -36.5t-74 -13.5zM595 715h97l-483 -715h-98zM589 87q26 0 39.5 19t13.5 54q0 33 -13.5 52.5t-39.5 19.5q-25 0 -39.5 -19t-14.5 -53q0 -35 14.5 -54t39.5 -19zM588 -12q-42 0 -75 13t-56 36t-35 54.5t-12 67.5t13.5 67t37.5 54q24 22 57 35t71 13
t70.5 -12.5t56.5 -34.5t37.5 -52.5t13.5 -66.5q0 -37 -12.5 -69t-35.5 -55q-24 -23 -57 -36.5t-74 -13.5z" />
    <glyph glyph-name="perthousand.tab" horiz-adv-x="1000" 
d="M177 479q20 0 29.5 18t9.5 60t-9.5 59.5t-29.5 17.5t-30 -17.5t-10 -59.5q0 -44 10 -61t30 -17zM176 387q-72 0 -113 46t-41 123q0 38 12 69t33 53q20 21 48.5 33t61.5 12t61 -11t49 -32q20 -21 32 -51.5t12 -69.5t-11 -71t-31 -54q-21 -23 -49.5 -35t-63.5 -12zM530 715
h95l-483 -715h-95zM490 80q20 0 29.5 18t9.5 60t-9.5 59.5t-29.5 17.5t-30 -17.5t-10 -59.5q0 -44 10 -61t30 -17zM490 -12q-72 0 -113.5 46t-41.5 123q0 38 12 69t33 53q21 21 49 33t61 12t61 -11t49 -32q20 -21 32 -51.5t12 -69.5q0 -78 -42 -125t-112 -47zM824 80
q20 0 29.5 18t9.5 60t-9.5 59.5t-29.5 17.5t-30 -17.5t-10 -59.5q0 -44 10 -61t30 -17zM823 -12q-72 0 -113 46t-41 123q0 38 12 69t33 53q20 21 48.5 33t61.5 12t61 -11t49 -32q20 -21 32 -51.5t12 -69.5q0 -78 -42 -125t-113 -47z" />
    <glyph glyph-name="plus.tab" 
d="M228 275h-169v130h169v185h144v-185h169v-130h-169v-185h-144v185z" />
    <glyph glyph-name="minus.tab" 
d="M58 409h484v-138h-484v138z" />
    <glyph glyph-name="plusminus.tab" 
d="M228 341h-175v131h175v164h144v-164h176v-131h-176v-165h-144v165zM53 118h497v-118h-497v118z" />
    <glyph glyph-name="multiply.tab" horiz-adv-x="599" 
d="M50 184l152 152l-155 154l95 96l154 -156l153 153l94 -95l-153 -152l155 -154l-95 -95l-154 155l-152 -152z" />
    <glyph glyph-name="divide.tab" 
d="M300 43q-39 0 -66.5 26.5t-27.5 65.5q0 19 7.5 36t20.5 30q12 12 29 19.5t37 7.5q19 0 36.5 -7.5t30.5 -19.5q12 -13 19.5 -30t7.5 -36q0 -39 -27.5 -65.5t-66.5 -26.5zM51 402h498v-124h-498v124zM300 452q-20 0 -37 7.5t-29 20.5q-13 12 -20.5 29t-7.5 36
q0 39 27.5 65.5t66.5 26.5t66.5 -26.5t27.5 -65.5q0 -19 -7.5 -36t-19.5 -29q-13 -13 -30.5 -20.5t-36.5 -7.5z" />
    <glyph glyph-name="equal.tab" 
d="M67 289h466v-122h-466v122zM67 486h466v-123h-466v123z" />
    <glyph glyph-name="notequal.tab" 
d="M60 486h244l38 96h115l-37 -96h120v-123h-168l-28 -74h196v-122h-243l-37 -96h-116l37 96h-121v122h168l29 74h-197v123z" />
    <glyph glyph-name="approxequal.tab" 
d="M51 121q3 47 15 81t31 56q19 21 43.5 31t50.5 10q30 0 60 -6.5t57 -13.5q27 -8 51 -14t42 -6q20 0 31 11t14 33h103q-2 -45 -14 -78.5t-31 -55.5t-43 -33t-50 -11q-31 0 -61 6t-57 14q-28 7 -51.5 13.5t-42.5 6.5t-30.5 -11t-14.5 -33h-103zM51 342q3 47 15 80.5t31 55.5
q19 21 43.5 31t50.5 10q30 0 60 -6.5t57 -13.5q27 -8 51 -14t42 -6q20 0 31 11t14 33h103q-2 -45 -14 -78.5t-31 -54.5q-19 -22 -43 -33t-50 -11q-31 0 -61 6t-57 14q-28 7 -51.5 13.5t-42.5 6.5t-30.5 -12t-14.5 -32h-103z" />
    <glyph glyph-name="less.tab" 
d="M79 305v34l442 246v-162l-204 -100l204 -106v-158z" />
    <glyph glyph-name="greater.tab" 
d="M80 223l204 99l-204 106v158l441 -246v-34l-441 -246v163z" />
    <glyph glyph-name="lessequal.tab" 
d="M86 368v34l421 226v-160l-166 -82l166 -82v-161zM86 118h421v-118h-421v118z" />
    <glyph glyph-name="greaterequal.tab" 
d="M93 304l166 82l-166 82v160l421 -226v-34l-421 -225v161zM93 118h421v-118h-421v118z" />
    <glyph glyph-name="period.tab" horiz-adv-x="300" 
d="M149 -11q-22 0 -41 8t-32 22q-14 13 -22 31.5t-8 39.5t8 39.5t22 32.5q13 13 32 21t41 8t41.5 -8t33.5 -21q14 -14 22 -32.5t8 -39.5t-8 -39.5t-22 -31.5q-14 -14 -33.5 -22t-41.5 -8z" />
    <glyph glyph-name="comma.tab" horiz-adv-x="300" 
d="M10 -81l84 263l166 -59l-144 -245z" />
    <glyph glyph-name="colon.tab" horiz-adv-x="300" 
d="M149 -11q-22 0 -41 8t-32 22q-14 13 -22 31.5t-8 39.5t8 39.5t22 32.5q13 13 32 21t41 8t41.5 -8t33.5 -21q14 -14 22 -32.5t8 -39.5t-8 -39.5t-22 -31.5q-14 -14 -33.5 -22t-41.5 -8zM149 275q-45 0 -74 29t-29 72q0 21 8 39.5t22 32.5q13 13 32 21t41 8t41.5 -8
t33.5 -21q14 -14 22 -32.5t8 -39.5q0 -43 -30 -72t-75 -29z" />
    <glyph glyph-name="semicolon.tab" horiz-adv-x="300" 
d="M-7 -81l84 263l166 -59l-144 -245zM152 275q-45 0 -74 29t-29 72q0 21 8 39.5t22 32.5q13 13 32 21t41 8t41.5 -8t33.5 -21q14 -14 22 -32.5t8 -39.5q0 -43 -30 -72t-75 -29z" />
    <glyph glyph-name="parenleft.tab" horiz-adv-x="300" 
d="M178 -148q-24 35 -49.5 80t-46.5 102t-34.5 126.5t-13.5 152.5q0 84 13.5 153.5t34.5 126.5t46.5 102t49.5 80h127q-21 -38 -41 -86t-36 -105q-16 -58 -26 -125.5t-10 -145.5t10 -145.5t26 -124.5q16 -58 36 -105.5t41 -85.5h-127z" />
    <glyph glyph-name="parenright.tab" horiz-adv-x="300" 
d="M-5 -148q21 38 41 85.5t36 105.5q16 57 26 124.5t10 145.5t-10 145.5t-26 125.5q-16 57 -36 105t-41 86h127q24 -35 49.5 -80t46.5 -102t34.5 -126.5t13.5 -153.5q0 -83 -13.5 -152.5t-34.5 -126.5t-46.5 -102t-49.5 -80h-127z" />
    <glyph glyph-name="bracketleft.tab" horiz-adv-x="300" 
d="M46 776h238v-117h-78v-690h78v-117h-238v924z" />
    <glyph glyph-name="bracketright.tab" horiz-adv-x="300" 
d="M16 -31h78v690h-78v117h238v-924h-238v117z" />
    <glyph glyph-name="braceleft.tab" horiz-adv-x="300" 
d="M284 -148q-141 0 -193.5 57.5t-26.5 177.5l18 88q8 35 -5.5 57t-61.5 27v112q48 5 61.5 27t5.5 57l-18 87q-27 125 26 180t194 55v-117q-48 -3 -62 -23.5t-5 -72.5l18 -98q11 -57 -13 -93t-87 -56q63 -20 87 -56t13 -94l-18 -98q-10 -54 4.5 -75.5t62.5 -24.5v-117z" />
    <glyph glyph-name="braceright.tab" horiz-adv-x="300" 
d="M16 -31q48 3 62.5 24.5t4.5 75.5l-18 98q-11 58 13 94t87 56q-63 20 -87 56t-13 93l18 98q9 52 -5 72.5t-62 23.5v117q141 0 194 -55t26 -180l-18 -87q-8 -35 5.5 -57t61.5 -27v-112q-48 -5 -61.5 -27t-5.5 -57l18 -88q25 -120 -27 -177.5t-193 -57.5v117z" />
    <glyph glyph-name="dollar.oldtab" 
d="M265 -10q-121 9 -181.5 71t-64.5 158h174q4 -33 19 -57.5t53 -32.5v141q-61 9 -105 25.5t-72 43.5q-28 26 -41 63.5t-13 87.5q0 43 16 80.5t46 65.5q30 27 73 44.5t96 21.5v87h76v-88q103 -9 161.5 -59t67.5 -150h-171q-5 27 -17 45.5t-41 26.5v-133q54 -8 98 -22.5
t75 -38.5q30 -25 47 -62t17 -90q0 -44 -14 -84t-43 -70q-30 -31 -74.5 -51t-105.5 -24v-120h-76v121zM404 197q0 24 -12.5 37.5t-50.5 22.5v-129q32 7 47.5 25t15.5 44zM203 504q0 -25 12.5 -39t49.5 -22v123q-31 -6 -46.5 -22.5t-15.5 -39.5z" />
    <glyph glyph-name="Euro.oldtab" 
d="M24 439h46q3 63 23 112.5t54 83.5q33 33 79 50.5t100 17.5q105 0 167.5 -55t68.5 -178h-161q-4 48 -21 68.5t-54 20.5q-40 0 -60 -28.5t-22 -91.5h141l-13 -68h-128v-50h119l-12 -70h-107q2 -62 21.5 -89.5t62.5 -27.5q38 0 57 22t23 76h158q-5 -127 -67.5 -185.5
t-177.5 -58.5q-112 0 -178.5 67.5t-72.5 195.5h-46v70h46v50h-46v68z" />
    <glyph glyph-name="sterling.oldtab" 
d="M25 396h43q-5 20 -7.5 40.5t-2.5 43.5q0 55 21 97t57 70q35 28 82 42t98 14q121 0 182.5 -59.5t65.5 -172.5h-177q-5 46 -18 64t-46 18q-34 0 -51 -19.5t-17 -63.5q0 -19 1.5 -37.5t3.5 -36.5h149v-119h-133q2 -13 2.5 -26.5t0.5 -26.5q0 -16 -2 -30t-7 -27
q22 -7 40 -13.5t35 -6.5q26 0 41 13t17 43h174q-4 -98 -56.5 -155t-139.5 -57q-33 0 -59 8t-46 18q-21 9 -38 17t-33 8q-21 0 -31 -12t-12 -30h-151q3 49 26.5 91.5t62.5 67.5q5 13 7.5 29t2.5 36q0 13 -2 26t-5 27h-78v119z" />
    <glyph glyph-name="yen.oldtab" 
d="M63 368h134l-170 326h199l88 -204l85 204h174l-166 -326h142v-69h-150v-51h150v-69h-150v-179h-192v179h-144v69h144v51h-144v69z" />
    <glyph glyph-name="zero.oldtab" 
d="M302 140q45 0 62.5 32.5t17.5 98.5v80q0 66 -18.5 98.5t-63.5 32.5t-63.5 -32t-18.5 -98v-82q0 -66 19.5 -98t64.5 -32zM297 -12q-125 0 -194 74.5t-69 207.5v82q0 66 20 118t55 88q35 35 84 54t107 19t106.5 -17.5t84.5 -51.5q35 -35 55 -87t20 -120v-81
q0 -67 -18.5 -120t-53.5 -90t-84.5 -56.5t-112.5 -19.5z" />
    <glyph glyph-name="one.oldtab" 
d="M262 430l-175 -114v161l201 142h165v-619h-191v430z" />
    <glyph glyph-name="two.oldtab" 
d="M25 27l227 218q54 52 81 91.5t27 80.5q0 32 -16 51t-51 19t-56 -26t-27 -78h-172q7 116 76.5 182t191.5 66q59 0 104.5 -14.5t77.5 -40.5q31 -26 47.5 -62.5t16.5 -79.5q0 -32 -9.5 -60.5t-27.5 -55.5t-42.5 -53.5t-54.5 -54.5l-77 -71h215v-139h-531v27z" />
    <glyph glyph-name="three.oldtab" 
d="M297 -105q-70 0 -121.5 17.5t-84.5 49.5q-34 32 -51.5 77t-18.5 100h173q3 -47 25.5 -74.5t73.5 -27.5q45 0 67 23.5t22 63.5q0 42 -22.5 64.5t-69.5 22.5h-55v121h52q46 0 68 23t22 61q0 33 -19 54.5t-57 21.5q-40 0 -63.5 -24t-27.5 -72h-171q3 50 22 93t53 75
q34 31 82.5 49t110.5 18q118 0 181.5 -52.5t63.5 -142.5q0 -61 -29.5 -99.5t-82.5 -55.5q58 -13 94 -54t36 -107q0 -51 -18 -92.5t-53 -71.5q-35 -29 -85.5 -45t-116.5 -16z" />
    <glyph glyph-name="four.oldtab" 
d="M319 40h-302v63l255 516h227v-452h75v-127h-75v-132h-180v132zM323 167v299l-147 -299h147z" />
    <glyph glyph-name="five.oldtab" 
d="M294 -104q-65 0 -113 16t-80 45q-32 30 -48.5 72.5t-17.5 95.5h170q4 -39 22.5 -62.5t65.5 -23.5q43 0 64 29t21 78t-24.5 75.5t-69.5 26.5q-38 0 -65 -14.5t-44 -38.5h-113l13 424h444v-146h-305l-5 -169q20 29 56.5 52.5t96.5 23.5q94 0 146.5 -61t52.5 -165
q0 -60 -18 -107.5t-52 -81.5q-34 -33 -83.5 -51t-113.5 -18z" />
    <glyph glyph-name="six.oldtab" 
d="M315 -12q-72 0 -124 22.5t-86 64.5q-35 41 -51.5 100t-16.5 132v74q0 82 21 146.5t59 108.5q38 43 91 66t118 23q104 0 167.5 -50t69.5 -158h-166q-5 31 -21 49t-51 18q-54 0 -81 -51t-28 -161q10 16 24 31t33 27q18 11 41.5 18t52.5 7q44 0 81.5 -13t65.5 -40t43.5 -68
t15.5 -97t-18 -102t-51 -78q-33 -33 -81 -51t-108 -18zM314 128q40 0 66.5 28t26.5 74q0 48 -26 75.5t-67 27.5t-68.5 -26.5t-27.5 -72.5q0 -50 27.5 -78t68.5 -28z" />
    <glyph glyph-name="seven.oldtab" 
d="M315 462h-277v157h528v-22l-258 -689h-204z" />
    <glyph glyph-name="eight.oldtab" 
d="M300 -12q-61 0 -110.5 14t-84.5 41q-36 27 -55 66.5t-19 91.5q0 62 33 106.5t92 67.5q-46 20 -72 56.5t-26 92.5q0 49 19.5 86.5t52.5 63.5q33 25 77.5 38t94.5 13q51 0 95.5 -13t77.5 -38q32 -26 50.5 -63.5t18.5 -85.5q0 -56 -26 -92.5t-71 -56.5q59 -22 90.5 -65.5
t31.5 -104.5q0 -51 -19 -91.5t-54 -68.5t-85 -43t-111 -15zM301 127q41 0 66.5 24.5t25.5 67.5q0 42 -24.5 67t-66.5 25q-40 0 -66.5 -24t-26.5 -68q0 -43 25.5 -67.5t66.5 -24.5zM303 429q34 0 56.5 22t22.5 60q0 37 -23 59t-57 22q-32 0 -55.5 -21.5t-23.5 -59.5t23.5 -60
t56.5 -22z" />
    <glyph glyph-name="nine.oldtab" 
d="M282 -106q-114 0 -178 54t-70 161h164q5 -32 24 -52.5t60 -20.5q57 0 79 49t24 155q-20 -33 -55.5 -54.5t-92.5 -21.5q-43 0 -81.5 13t-66.5 40q-29 26 -45.5 67t-16.5 97t18.5 102t52.5 79q33 33 81.5 51t108.5 18q70 0 122 -22t86 -63q34 -42 50.5 -101t16.5 -132v-76
q0 -165 -72 -254t-209 -89zM289 288q41 0 68 26.5t27 72.5q0 50 -27 78t-68 28q-40 0 -66.5 -28t-26.5 -74q0 -48 26 -75.5t67 -27.5z" />
    <glyph glyph-name="one.sup" horiz-adv-x="287" 
d="M102 645l-82 -46v107l102 67h114v-376h-134v248z" />
    <glyph glyph-name="two.sup" horiz-adv-x="354" 
d="M5 414l128 133q32 32 50 55.5t18 46.5q0 16 -7.5 24t-23.5 8q-17 0 -27 -13t-13 -39h-120q2 74 46.5 111.5t119.5 37.5q79 0 117 -34.5t38 -85.5q0 -38 -21.5 -69.5t-55.5 -62.5l-35 -34h113v-95h-327v17z" />
    <glyph glyph-name="three.sup" horiz-adv-x="374" 
d="M182 390q-44 0 -75.5 10t-51.5 28t-30 42.5t-11 53.5h116q2 -18 12.5 -30t32.5 -12q20 0 29.5 8.5t9.5 25.5t-11 25.5t-34 8.5h-30v74h30q24 0 34.5 8.5t10.5 25.5q0 13 -8.5 21t-25.5 8t-28 -9.5t-14 -28.5h-116q5 57 44 93t117 36q74 0 115 -27t41 -77q0 -32 -18 -52
t-50 -29q34 -5 55 -26.5t21 -55.5q0 -54 -41 -87.5t-124 -33.5z" />
    <glyph glyph-name="a.alt" horiz-adv-x="634" 
d="M245 -12q-44 0 -83.5 16.5t-69.5 49.5t-47.5 83.5t-17.5 118.5v8q0 67 18 118t48 86q30 34 69.5 51.5t83.5 17.5q60 0 96.5 -23.5t59.5 -63.5v73h179v-523h-179v84q-20 -40 -60 -68t-97 -28zM306 125q45 0 73 33.5t28 100.5v8q0 69 -26.5 102t-71.5 33q-48 0 -74 -33.5
t-26 -102.5v-8q0 -66 26 -99.5t71 -33.5z" />
    <glyph glyph-name="t.alt" horiz-adv-x="379" 
d="M86 401h-72v122h72v109h179v-109h96v-122h-96v-401h-179v401z" />
    <glyph glyph-name="aacute.alt" horiz-adv-x="634" 
d="M241 -12q-44 0 -83.5 16.5t-69.5 49.5t-47.5 83.5t-17.5 118.5v8q0 67 18 118t48 86q30 34 69.5 51.5t83.5 17.5q60 0 96.5 -23.5t59.5 -63.5v73h179v-523h-179v84q-20 -40 -60 -68t-97 -28zM302 125q45 0 73 33.5t28 100.5v8q0 69 -26.5 102t-71.5 33q-48 0 -74 -33.5
t-26 -102.5v-8q0 -66 26 -99.5t71 -33.5zM301 749h180l-105 -166h-128z" />
    <glyph glyph-name="abreve.alt" horiz-adv-x="634" 
d="M245 -12q-44 0 -83.5 16.5t-69.5 49.5t-47.5 83.5t-17.5 118.5v8q0 67 18 118t48 86q30 34 69.5 51.5t83.5 17.5q60 0 96.5 -23.5t59.5 -63.5v73h179v-523h-179v84q-20 -40 -60 -68t-97 -28zM306 125q45 0 73 33.5t28 100.5v8q0 69 -26.5 102t-71.5 33q-48 0 -74 -33.5
t-26 -102.5v-8q0 -66 26 -99.5t71 -33.5zM321 587q-72 0 -115.5 41t-47.5 117h111q2 -23 15 -35.5t37 -12.5t38 13t16 35h111q-5 -76 -50 -117t-115 -41z" />
    <glyph glyph-name="acircumflex.alt" horiz-adv-x="634" 
d="M241 -12q-44 0 -83.5 16.5t-69.5 49.5t-47.5 83.5t-17.5 118.5v8q0 67 18 118t48 86q30 34 69.5 51.5t83.5 17.5q60 0 96.5 -23.5t59.5 -63.5v73h179v-523h-179v84q-20 -40 -60 -68t-97 -28zM302 125q45 0 73 33.5t28 100.5v8q0 69 -26.5 102t-71.5 33q-48 0 -74 -33.5
t-26 -102.5v-8q0 -66 26 -99.5t71 -33.5zM256 748h128l118 -163h-125l-61 56l-60 -56h-123z" />
    <glyph glyph-name="adieresis.alt" horiz-adv-x="634" 
d="M241 -12q-44 0 -83.5 16.5t-69.5 49.5t-47.5 83.5t-17.5 118.5v8q0 67 18 118t48 86q30 34 69.5 51.5t83.5 17.5q60 0 96.5 -23.5t59.5 -63.5v73h179v-523h-179v84q-20 -40 -60 -68t-97 -28zM302 125q45 0 73 33.5t28 100.5v8q0 69 -26.5 102t-71.5 33q-48 0 -74 -33.5
t-26 -102.5v-8q0 -66 26 -99.5t71 -33.5zM212 580q-18 0 -33.5 6.5t-26.5 17.5q-12 11 -18.5 26.5t-6.5 32.5t6.5 32.5t18.5 27.5q11 11 26.5 17.5t33.5 6.5q36 0 61 -24.5t25 -59.5t-25 -59t-61 -24zM425 580q-36 0 -60.5 24t-24.5 59t24.5 59.5t60.5 24.5t61 -24.5
t25 -59.5t-25 -59t-61 -24z" />
    <glyph glyph-name="agrave.alt" horiz-adv-x="634" 
d="M245 -12q-44 0 -83.5 16.5t-69.5 49.5t-47.5 83.5t-17.5 118.5v8q0 67 18 118t48 86q30 34 69.5 51.5t83.5 17.5q60 0 96.5 -23.5t59.5 -63.5v73h179v-523h-179v84q-20 -40 -60 -68t-97 -28zM306 125q45 0 73 33.5t28 100.5v8q0 69 -26.5 102t-71.5 33q-48 0 -74 -33.5
t-26 -102.5v-8q0 -66 26 -99.5t71 -33.5zM158 749h180l53 -166h-128z" />
    <glyph glyph-name="amacron.alt" horiz-adv-x="634" 
d="M245 -12q-44 0 -83.5 16.5t-69.5 49.5t-47.5 83.5t-17.5 118.5v8q0 67 18 118t48 86q30 34 69.5 51.5t83.5 17.5q60 0 96.5 -23.5t59.5 -63.5v73h179v-523h-179v84q-20 -40 -60 -68t-97 -28zM306 125q45 0 73 33.5t28 100.5v8q0 69 -26.5 102t-71.5 33q-48 0 -74 -33.5
t-26 -102.5v-8q0 -66 26 -99.5t71 -33.5zM168 712h307v-100h-307v100z" />
    <glyph glyph-name="aogonek.alt" horiz-adv-x="634" 
d="M496 -182q-54 0 -85.5 21.5t-31.5 59.5q0 19 7.5 34.5t19.5 27.5t27.5 21.5t31.5 17.5h-63v84q-20 -40 -60 -68t-97 -28q-44 0 -83.5 16.5t-69.5 49.5t-47.5 83.5t-17.5 118.5v8q0 67 18 118t48 86q30 34 69.5 51.5t83.5 17.5q60 0 96.5 -23.5t59.5 -63.5v73h179v-511
q-31 -23 -43.5 -40.5t-12.5 -34.5q0 -14 8 -21t22 -7q9 0 16.5 1t13.5 4v-80q-14 -6 -35.5 -11t-53.5 -5zM306 125q45 0 73 33.5t28 100.5v8q0 69 -26.5 102t-71.5 33q-48 0 -74 -33.5t-26 -102.5v-8q0 -66 26 -99.5t71 -33.5z" />
    <glyph glyph-name="aring.alt" horiz-adv-x="634" 
d="M245 -12q-44 0 -83.5 16.5t-69.5 49.5t-47.5 83.5t-17.5 118.5v8q0 67 18 118t48 86q30 34 69.5 51.5t83.5 17.5q60 0 96.5 -23.5t59.5 -63.5v73h179v-523h-179v84q-20 -40 -60 -68t-97 -28zM306 125q45 0 73 33.5t28 100.5v8q0 69 -26.5 102t-71.5 33q-48 0 -74 -33.5
t-26 -102.5v-8q0 -66 26 -99.5t71 -33.5zM320 642q20 0 33 14t13 36q0 23 -13 37t-33 14t-33 -14t-13 -37q0 -22 13 -36t33 -14zM320 578q-24 0 -45.5 9t-37.5 25q-16 15 -25.5 35.5t-9.5 44.5t9.5 44.5t25.5 36.5t37.5 25t45.5 9t45.5 -9t37.5 -25t25.5 -36.5t9.5 -44.5
t-9.5 -44.5t-25.5 -35.5q-16 -16 -37.5 -25t-45.5 -9z" />
    <glyph glyph-name="aringacute.alt" horiz-adv-x="634" 
d="M241 -12q-44 0 -83.5 16.5t-69.5 49.5t-47.5 83.5t-17.5 118.5v8q0 67 18 118t48 86q30 34 69.5 51.5t83.5 17.5q60 0 96.5 -23.5t59.5 -63.5v73h179v-523h-179v84q-20 -40 -60 -68t-97 -28zM302 125q45 0 73 33.5t28 100.5v8q0 69 -26.5 102t-71.5 33q-48 0 -74 -33.5
t-26 -102.5v-8q0 -66 26 -99.5t71 -33.5zM316 636q20 0 33 14t13 36q0 23 -13 37t-33 14t-33 -14t-13 -37q0 -22 13 -36t33 -14zM316 572q-24 0 -45.5 9t-37.5 25q-16 15 -25.5 35.5t-9.5 44.5t9.5 44.5t25.5 36.5t37.5 25t45.5 9t45.5 -9t37.5 -25t25.5 -36.5t9.5 -44.5
t-9.5 -44.5t-25.5 -35.5q-16 -16 -37.5 -25t-45.5 -9zM304 975h187l-103 -146h-135z" />
    <glyph glyph-name="atilde.alt" horiz-adv-x="634" 
d="M241 -12q-44 0 -83.5 16.5t-69.5 49.5t-47.5 83.5t-17.5 118.5v8q0 67 18 118t48 86q30 34 69.5 51.5t83.5 17.5q60 0 96.5 -23.5t59.5 -63.5v73h179v-523h-179v84q-20 -40 -60 -68t-97 -28zM302 125q45 0 73 33.5t28 100.5v8q0 69 -26.5 102t-71.5 33q-48 0 -74 -33.5
t-26 -102.5v-8q0 -66 26 -99.5t71 -33.5zM381 587q-21 0 -37.5 5t-30.5 12q-14 6 -25.5 11t-23.5 5t-20.5 -9t-10.5 -23h-97q5 79 36.5 117.5t78.5 38.5q20 0 36.5 -5.5t31.5 -11.5q14 -6 26.5 -11.5t24.5 -5.5q14 0 21.5 9t10.5 23h97q-6 -78 -39.5 -116.5t-78.5 -38.5z
" />
    <glyph glyph-name="germandbls.alt" horiz-adv-x="692" 
d="M468 -9q-103 0 -155.5 45.5t-54.5 123.5h155q2 -26 13 -39.5t32 -13.5q19 0 30 9.5t11 33.5q0 13 -6 22.5t-17 17.5t-27 15.5t-36 16.5q-21 10 -43 22.5t-40 29.5q-18 16 -29.5 38t-11.5 51q0 35 17.5 63t38.5 52q20 24 37.5 45.5t17.5 44.5q0 31 -17 46.5t-55 15.5
q-44 0 -70 -24t-26 -73v-533h-179v530q0 56 20.5 99.5t57.5 73.5t88 45.5t112 15.5q54 0 99.5 -11t77.5 -32q32 -22 50 -54t18 -73q0 -44 -18.5 -74t-40.5 -52t-40.5 -38t-18.5 -32q0 -8 5 -13.5t17 -12.5q11 -7 29.5 -16t44.5 -23q22 -12 43 -27t37 -35t25.5 -45t9.5 -57
q0 -44 -15 -77.5t-41 -55.5q-27 -23 -64 -34t-81 -11z" />
    <glyph glyph-name="tbar.alt" horiz-adv-x="379" 
d="M14 332h72v69h-72v122h72v109h179v-109h96v-122h-96v-69h96v-99h-96v-233h-179v233h-72v99z" />
    <glyph glyph-name="tcaron.alt" horiz-adv-x="375" 
d="M82 401h-72v122h72v109h179v-109h96v-122h-96v-401h-179v401zM311 753h133l-49 -174h-93z" />
    <glyph glyph-name="tcommaaccent.alt" horiz-adv-x="379" 
d="M61 -205l42 177l158 -19l-99 -185zM82 401h-72v122h72v109h179v-109h96v-122h-96v-401h-179v401z" />
    <glyph glyph-name="space_uni0326.alt" horiz-adv-x="408" 
d="M121 585l99 185l101 -27l-42 -177z" />
    <glyph glyph-name="registered.alt" horiz-adv-x="843" 
d="M261 562h163q84 0 125.5 -32.5t41.5 -97.5v-2q0 -43 -19 -68t-49 -38l92 -165h-129l-77 139h-24v-139h-124v403zM417 379q27 0 40 11.5t13 33.5v3q0 21 -13 31t-39 10h-33v-89h32zM420 31q66 0 125 23.5t103 67.5q44 43 69.5 103t25.5 134q0 72 -25 132t-68 103
q-44 43 -102.5 66.5t-125.5 23.5q-68 0 -126.5 -24t-101.5 -67q-44 -43 -69 -103t-25 -133q0 -74 25.5 -134t69.5 -102q43 -43 101.5 -66.5t123.5 -23.5zM420 -20q-80 0 -149.5 29t-121.5 80q-52 50 -82 119t-30 149q0 79 30 148t82 120t122 80.5t151 29.5q82 0 152 -29
t122 -80q51 -51 80.5 -119.5t29.5 -147.5q0 -81 -30 -150t-82 -120t-122.5 -80t-151.5 -29z" />
    <glyph glyph-name="caron.alt" horiz-adv-x="400" 
d="M159 753h133l-49 -174h-93z" />
    <glyph glyph-name="questiondown.uc" horiz-adv-x="556" 
d="M391.011 461.016q0 -27.998 -9 -51.9971q-8.99902 -23.998 -22.998 -43.9971q-14 -19.999 -31.498 -37.498l-34.498 -34.498q-25.999 -24.998 -45.4971 -48.4971q-19.499 -23.498 -19.499 -49.4971q0 -29.998 14.999 -44.9971t45.9971 -14.999q31.998 0 52.9971 22.999
q20.998 22.998 25.998 64.9961h173.989q-2 -56.9971 -21.999 -100.494q-19.998 -43.4971 -55.9961 -73.4951q-34.998 -28.999 -82.9951 -43.998t-105.993 -14.999q-115.993 0 -178.489 48.9971t-62.4961 138.992q0 49.9961 21.499 85.4941q21.498 35.498 51.4961 64.4961
q17.999 17.999 36.998 34.998t34.998 32.998q16.999 16.999 28.498 33.998t14.499 34.998v14.999h168.99v-18.999zM306.016 725.999q22.998 0 42.4971 -7.49902q19.499 -7.5 33.498 -21.499q14.999 -12.999 23.499 -30.998q8.49902 -17.999 8.49902 -38.9971
q0 -20.999 -8.49902 -38.998q-8.5 -17.999 -23.499 -31.998q-13.999 -12.999 -33.498 -20.999q-19.499 -7.99902 -42.4971 -7.99902q-21.999 0 -40.998 7.99902q-18.998 8 -33.9971 20.999q-14 13.999 -22.499 31.998q-8.5 17.999 -8.5 38.998q0 20.998 8.5 38.9971
q8.49902 17.999 22.499 30.998q14.999 13.999 33.9971 21.499q18.999 7.49902 40.998 7.49902z" />
    <glyph glyph-name="exclamdown.uc" horiz-adv-x="334" 
d="M171.01 725.999q44.998 0 75.4961 -28.498t30.498 -70.4951q0 -41.998 -30.498 -70.9961t-75.4961 -28.998q-21.998 0 -41.4971 7.99902q-19.499 8 -34.498 20.999q-13.999 13.999 -22.498 31.998q-8.5 17.999 -8.5 38.998q0 20.998 8.5 38.9971
q8.49902 17.999 22.498 30.998q14.999 13.999 34.498 21.499q19.499 7.49902 41.4971 7.49902zM272.004 0.0439453h-201.987l26.998 479.971h147.991z" />
    <glyph glyph-name="hyphen.uc" horiz-adv-x="405" 
d="M51 397h303v-142h-303v142z" />
    <glyph glyph-name="endash.uc" horiz-adv-x="541" 
d="M46 381h449v-105h-449v105z" />
    <glyph glyph-name="emdash.uc" horiz-adv-x="946" 
d="M46 381h855v-105h-855v105z" />
    <glyph glyph-name="guilsinglleft.uc" horiz-adv-x="307" 
d="M31 301l124 195h122l-120 -195l120 -195h-122z" />
    <glyph glyph-name="guilsinglright.uc" horiz-adv-x="307" 
d="M150 301l-120 195h121l125 -195l-125 -195h-121z" />
    <glyph glyph-name="guillemotleft.uc" horiz-adv-x="480" 
d="M31 301l124 195h115l-119 -195l119 -195h-115zM211 301l124 195h115l-119 -195l119 -195h-115z" />
    <glyph glyph-name="guillemotright.uc" horiz-adv-x="480" 
d="M150 301l-120 195h115l125 -195l-125 -195h-115zM330 301l-120 195h115l125 -195l-125 -195h-115z" />
    <glyph glyph-name="parenleft.uc" horiz-adv-x="356" 
d="M205 -98q-29 34 -58.5 78t-53.5 99q-24 54 -39 120t-15 144t15 144t39 121t53.5 99t58.5 78h139q-24 -38 -48 -84.5t-42 -101.5q-19 -56 -31 -120t-12 -136q0 -71 12 -135t31 -119q18 -56 42 -103t48 -84h-139z" />
    <glyph glyph-name="parenright.uc" horiz-adv-x="356" 
d="M11 -98q24 37 48 84t43 103q19 55 31 119t12 136q0 71 -12 135t-31 120q-19 55 -43 101.5t-48 84.5h140q28 -34 57.5 -78t53.5 -98q24 -55 39 -121t15 -144t-15 -144t-39 -121t-53.5 -99t-57.5 -78h-140z" />
    <glyph glyph-name="bracketleft.uc" horiz-adv-x="409" 
d="M66 783h305v-130h-125v-616h125v-130h-305v876z" />
    <glyph glyph-name="bracketright.uc" horiz-adv-x="409" 
d="M39 37h124v616h-124v130h304v-876h-304v130z" />
    <glyph glyph-name="braceleft.uc" horiz-adv-x="418" 
d="M380 -94q-152 0 -218 53t-47 172l11 69q6 35 -15.5 59t-79.5 24v125q58 0 79.5 23.5t15.5 58.5l-11 68q-20 123 47 174.5t218 51.5v-131q-57 -2 -75.5 -20.5t-12.5 -68.5l9 -85q6 -51 -21 -85t-82 -47q56 -13 82.5 -47t20.5 -85l-9 -85q-3 -26 -0.5 -43.5t13.5 -27.5
q10 -11 28 -16.5t47 -6.5v-130z" />
    <glyph glyph-name="braceright.uc" horiz-adv-x="418" 
d="M38 36q28 1 46.5 6.5t29.5 16.5q10 10 12.5 27.5t-0.5 43.5l-9 85q-6 51 20.5 85t82.5 47q-55 13 -82 47t-21 85l9 85q6 50 -12.5 68.5t-75.5 20.5v131q151 0 217.5 -51.5t47.5 -174.5l-11 -68q-6 -35 15.5 -58.5t79.5 -23.5v-125q-58 0 -79.5 -24t-15.5 -59l11 -69
q19 -119 -47 -172t-218 -53v130z" />
    <glyph glyph-name="slash.uc" horiz-adv-x="434" 
d="M293 777h143l-297 -861h-143z" />
    <glyph glyph-name="backslash.uc" horiz-adv-x="434" 
d="M-2 777h143l296 -861h-142z" />
    <glyph glyph-name="bar.uc" horiz-adv-x="268" 
d="M71 777h125v-861h-125v861z" />
    <glyph glyph-name="at.uc" horiz-adv-x="921" 
d="M460 -80q-100 0 -179.5 31.5t-134.5 86.5t-84 129t-29 158q0 98 37 178.5t99 137.5q61 57 141.5 88t167.5 31q88 0 163 -26t130 -73t86 -114t31 -148q0 -74 -18.5 -125.5t-48.5 -83.5q-30 -33 -68.5 -47.5t-78.5 -14.5q-65 0 -100 20.5t-46 60.5q-20 -40 -52.5 -62
t-80.5 -22q-73 0 -117 49.5t-44 135.5q0 52 15.5 95t42.5 74q26 30 61.5 46.5t76.5 16.5q46 0 71 -17t36 -42l7 51h147l-33 -270q-4 -31 6 -48.5t36 -17.5q21 0 40 11.5t34 36.5q15 24 24 62.5t9 92.5q0 65 -23 118t-65 91q-43 38 -103.5 59t-135.5 21q-76 0 -142 -25.5
t-115 -73.5t-77 -116t-28 -152q0 -71 21.5 -132t65.5 -106q43 -45 108 -70.5t151 -25.5q87 0 151.5 25.5t102.5 61.5h91q-50 -71 -142 -113.5t-207 -42.5zM443 242q32 0 55.5 32t23.5 84q0 32 -15.5 50.5t-47.5 18.5q-33 0 -54 -30.5t-21 -80.5q0 -32 15 -53t44 -21z" />
    <glyph glyph-name="grave.uc" horiz-adv-x="400" 
d="M43 905h186l49 -146h-135z" />
    <glyph glyph-name="dieresis.uc" horiz-adv-x="400" 
d="M88 758q-18 0 -33.5 6.5t-26.5 17.5q-12 11 -18.5 26.5t-6.5 32.5q0 35 25 59.5t60 24.5q36 0 61 -24.5t25 -59.5t-25 -59t-61 -24zM311 758q-36 0 -60.5 24t-24.5 59t24.5 59.5t60.5 24.5t61 -24.5t25 -59.5t-25 -59t-61 -24z" />
    <glyph glyph-name="macron.uc" horiz-adv-x="400" 
d="M39 878h322v-107h-322v107z" />
    <glyph glyph-name="acute.uc" horiz-adv-x="400" 
d="M173 905h187l-103 -146h-135z" />
    <glyph glyph-name="circumflex.uc" horiz-adv-x="400" 
d="M127 905h150l110 -146h-130l-59 49l-58 -49h-127z" />
    <glyph glyph-name="caron.uc" horiz-adv-x="400" 
d="M12 905h130l58 -49l59 49h127l-114 -146h-150z" />
    <glyph glyph-name="breve.uc" horiz-adv-x="400" 
d="M199 752q-74 0 -117 40.5t-48 112.5h116q2 -21 14.5 -33.5t34.5 -12.5t35.5 12.5t16.5 33.5h115q-6 -72 -50.5 -112.5t-116.5 -40.5z" />
    <glyph glyph-name="dotaccent.uc" horiz-adv-x="400" 
d="M200 757q-41 0 -68 25.5t-27 64.5q0 38 27 63.5t68 25.5t68 -25.5t27 -63.5q0 -39 -27 -64.5t-68 -25.5z" />
    <glyph glyph-name="ring.uc" horiz-adv-x="400" 
d="M200 810q20 0 33 14t13 36q0 23 -13 36.5t-33 13.5q-21 0 -33.5 -13.5t-12.5 -36.5q0 -22 12.5 -36t33.5 -14zM200 744q-25 0 -46.5 9.5t-37.5 25.5q-17 15 -26.5 36t-9.5 45t9.5 45t26.5 37q16 16 37.5 25t46.5 9t46.5 -9t38.5 -25q16 -16 25.5 -37t9.5 -45t-9.5 -45
t-25.5 -36q-17 -16 -38.5 -25.5t-46.5 -9.5z" />
    <glyph glyph-name="tilde.uc" horiz-adv-x="400" 
d="M265 758q-21 0 -38.5 5.5t-31.5 11.5t-26 11.5t-24 5.5t-20.5 -9.5t-10.5 -23.5h-102q3 39 13.5 68t27.5 48q16 19 37 28t44 9q20 0 37 -5t32 -11q14 -7 27 -12t25 -5q14 0 21.5 9t10.5 23h101q-3 -39 -14 -68t-27 -48q-17 -19 -38.5 -28t-43.5 -9z" />
    <glyph glyph-name="hungarumlaut.uc" horiz-adv-x="400" 
d="M80 905h153l-74 -146h-120zM274 905h154l-75 -146h-120z" />
    <glyph glyph-name="f.short" horiz-adv-x="376" 
d="M80 401h-66v122h66v46q0 49 14.5 85t41.5 60t64.5 35.5t83.5 11.5q25 0 44 -2.5t36 -7.5v-131q-10 3 -21 4.5t-26 1.5q-31 0 -45 -15.5t-14 -41.5v-46h106v-122h-106v-401h-178v401z" />
    <glyph glyph-name="f_f.short" horiz-adv-x="706" 
d="M80 401h-66v122h66v40q0 97 55.5 144t148.5 47q25 0 44 -2.5t36 -7.5v-131q-10 3 -21.5 5t-26.5 2q-30 0 -44 -16t-14 -41v-40h152v46q0 97 56 144.5t149 47.5q25 0 43.5 -2.5t35.5 -7.5v-131q-10 3 -20.5 4.5t-26.5 1.5q-31 0 -44.5 -15.5t-13.5 -41.5v-46h105v-122
h-105v-401h-179v401h-152v-401h-178v401z" />
    <glyph glyph-name="semicolon.alt1" horiz-adv-x="305" 
d="M151 275q-44 0 -73 29t-29 72q0 21 8 39.5t21.5 32t32 21.5t40.5 8t41.5 -8t33.5 -21.5t22 -32t8 -39.5q0 -43 -30 -72t-75 -29zM58 -36q78 7 81 50q-45 2 -67.5 25.5t-22.5 61.5q0 42 29.5 66t70.5 24q47 0 77 -30t30 -83v-15q0 -85 -52 -127t-146 -44v72z" />
    <glyph glyph-name="quotedblright.alt1" horiz-adv-x="485" 
d="M43 510q72 6 75 47q-41 2 -62 24t-21 58q0 38 27 60.5t65 22.5q44 0 72 -28.5t28 -77.5v-13q0 -75 -47.5 -116.5t-136.5 -43.5v67zM267 510q72 6 75 47q-41 2 -62 24t-21 58q0 38 27 60.5t65 22.5q44 0 71.5 -28.5t27.5 -77.5v-13q0 -75 -47 -116.5t-136 -43.5v67z" />
    <glyph glyph-name="quoteright.alt1" horiz-adv-x="261" 
d="M43 510q72 6 75 47q-41 2 -62 24t-21 58q0 38 27 60.5t65 22.5q44 0 72 -28.5t28 -77.5v-13q0 -75 -47.5 -116.5t-136.5 -43.5v67z" />
    <glyph glyph-name="quotedblleft.alt1" horiz-adv-x="485" 
d="M218 652q-72 -6 -75 -48q41 -2 62.5 -24t21.5 -58q0 -38 -27.5 -60.5t-65.5 -22.5q-43 0 -71 28.5t-28 77.5v13q0 75 47 117t136 44v-67zM442 652q-72 -6 -75 -48q41 -2 62 -24t21 -58q0 -38 -27 -60.5t-65 -22.5q-43 0 -71 28.5t-28 77.5v13q0 75 47 117t136 44v-67z
" />
    <glyph glyph-name="commaaccent.alt1alt" horiz-adv-x="400" 
d="M204 578q-36 0 -58 18t-22 56v7q0 52 35 81t110 31v-48q-32 -2 -50 -11t-19 -27q35 2 54.5 -12t19.5 -41q0 -25 -19.5 -39.5t-50.5 -14.5z" />
    <glyph glyph-name="quoteleft.alt1" horiz-adv-x="261" 
d="M218 652q-72 -6 -75 -48q41 -2 62.5 -24t21.5 -58q0 -38 -27.5 -60.5t-65.5 -22.5q-43 0 -71 28.5t-28 77.5v13q0 75 47 117t136 44v-67z" />
    <glyph glyph-name="quotedblbase.alt1" horiz-adv-x="485" 
d="M267 -21q72 6 75 47q-41 3 -62 25t-21 57q0 38 27 60.5t65 22.5q44 0 71.5 -28t27.5 -78v-13q0 -75 -47 -116.5t-136 -43.5v67zM43 -21q72 6 75 47q-41 3 -62 25t-21 57q0 38 27 60.5t65 22.5q44 0 72 -28t28 -78v-13q0 -75 -47.5 -116.5t-136.5 -43.5v67z" />
    <glyph glyph-name="commaaccent.alt1" horiz-adv-x="381" 
d="M117 -177q32 2 50 11t19 27q-35 -2 -54.5 12t-19.5 41q0 25 19.5 39.5t50.5 14.5q36 0 58 -18t22 -56v-6q0 -52 -35 -81.5t-110 -31.5v48z" />
    <glyph glyph-name="comma.alt1" horiz-adv-x="299" 
d="M55 -36q78 7 81 50q-45 3 -67.5 26t-22.5 61q0 42 29.5 66t70.5 24q47 0 77 -30t30 -83v-15q0 -85 -52 -127t-146 -44v72z" />
    <glyph glyph-name="tcommaaccent.altalt1" horiz-adv-x="379" 
d="M105 -177q32 2 50 11t19 27q-35 -2 -54.5 12t-19.5 41q0 25 19.5 39.5t50.5 14.5q36 0 58 -18t22 -56v-6q0 -52 -35 -81.5t-110 -31.5v48zM82 401h-72v122h72v109h179v-109h96v-122h-96v-401h-179v401z" />
    <glyph glyph-name="Scommaaccent.alt1" horiz-adv-x="651" 
d="M327 -12q-151 0 -227 61t-81 178h195q2 -19 8 -36t19 -29q12 -13 33 -20.5t53 -7.5q45 0 68.5 19.5t23.5 51.5q0 16 -5.5 27.5t-18.5 19.5q-13 7 -35 12t-54 10q-76 9 -127.5 25.5t-82.5 43.5q-32 27 -46 66t-14 93q0 48 19 89t55 71t87.5 46.5t115.5 16.5
q130 0 201 -54.5t81 -168.5h-190q-5 38 -27.5 57.5t-64.5 19.5t-62.5 -17t-20.5 -44q0 -15 5 -26t18 -19q12 -9 33.5 -15t54.5 -10q68 -8 119 -21.5t86 -38.5q34 -26 51.5 -65t17.5 -97q0 -49 -19 -92.5t-56 -75.5t-90.5 -51t-122.5 -19zM254 -177q32 2 50 11t19 27
q-35 -2 -54.5 12t-19.5 41q0 25 19.5 39.5t50.5 14.5q36 0 58 -18t22 -56v-6q0 -52 -35 -81.5t-110 -31.5v48z" />
    <glyph glyph-name="kcommaaccent.alt1" horiz-adv-x="577" 
d="M49 753h179v-437l141 207h186l-171 -235l185 -288h-200l-141 229v-229h-179v753zM218 -177q32 2 50 11t19 27q-35 -2 -54.5 12t-19.5 41q0 25 19.5 39.5t50.5 14.5q36 0 58 -18t22 -56v-6q0 -52 -35 -81.5t-110 -31.5v48z" />
    <glyph glyph-name="tcommaaccent.alt1" horiz-adv-x="389" 
d="M257 -12q-89 0 -136.5 43.5t-47.5 136.5v233h-63v122h63v109h179v-109h103v-122h-103v-216q0 -27 13.5 -41t39.5 -14q15 0 27 2t24 7v-136q-17 -5 -42 -10t-57 -5zM146 -177q32 2 50 11t19 27q-35 -2 -54.5 12t-19.5 41q0 25 19.5 39.5t50.5 14.5q36 0 58 -18t22 -56v-6
q0 -52 -35 -81.5t-110 -31.5v48z" />
    <glyph glyph-name="lcommaaccent.alt1" horiz-adv-x="294" 
d="M58 753h178v-753h-178v753zM78 -177q32 2 50 11t19 27q-35 -2 -54.5 12t-19.5 41q0 25 19.5 39.5t50.5 14.5q36 0 58 -18t22 -56v-6q0 -52 -35 -81.5t-110 -31.5v48z" />
    <glyph glyph-name="Rcommaaccent.alt1" horiz-adv-x="697" 
d="M65 715h280q141 0 216 -56.5t75 -170.5v-4q0 -77 -36.5 -121.5t-92.5 -66.5l171 -296h-216l-145 256h-48v-256h-204v715zM335 389q52 0 77.5 22t25.5 65v4q0 44 -26 62.5t-76 18.5h-67v-172h66zM280 -177q32 2 50 11t19 27q-35 -2 -54.5 12t-19.5 41q0 25 19.5 39.5
t50.5 14.5q36 0 58 -18t22 -56v-6q0 -52 -35 -81.5t-110 -31.5v48z" />
    <glyph glyph-name="quotesinglbase.alt1" horiz-adv-x="261" 
d="M43 -21q72 6 75 47q-41 3 -62 25t-21 57q0 38 27 60.5t65 22.5q44 0 72 -28t28 -78v-13q0 -75 -47.5 -116.5t-136.5 -43.5v67z" />
    <glyph glyph-name="Lcommaaccent.alt1" horiz-adv-x="575" 
d="M69 715h206v-556h270v-159h-476v715zM239 -177q32 2 50 11t19 27q-35 -2 -54.5 12t-19.5 41q0 25 19.5 39.5t50.5 14.5q36 0 58 -18t22 -56v-6q0 -52 -35 -81.5t-110 -31.5v48z" />
    <glyph glyph-name="Tcommaaccent.alt1" horiz-adv-x="618" 
d="M202 557h-185v158h576v-158h-185v-557h-206v557zM232 -177q32 2 50 11t19 27q-35 -2 -54.5 12t-19.5 41q0 25 19.5 39.5t50.5 14.5q36 0 58 -18t22 -56v-6q0 -52 -35 -81.5t-110 -31.5v48z" />
    <glyph glyph-name="Gcommaaccent.alt1" horiz-adv-x="787" 
d="M406 -12q-91 0 -161 27t-117 76q-48 48 -72.5 115t-24.5 147v8q0 82 28.5 149t78.5 115t118.5 74.5t149.5 26.5q63 0 121 -15t104 -47q45 -32 74 -81.5t34 -119.5h-203q-7 51 -39.5 76.5t-89.5 25.5q-76 0 -119 -55t-43 -152v-8q0 -44 8.5 -81.5t28.5 -64.5
q20 -28 51.5 -44t78.5 -16q37 0 63.5 9t43.5 24t25 34.5t10 40.5h-134v143h336v-88q0 -68 -22 -126.5t-66 -101.5t-109.5 -67t-152.5 -24zM327 -177q32 2 50 11t19 27q-35 -2 -54.5 12t-19.5 41q0 25 19.5 39.5t50.5 14.5q36 0 58 -18t22 -56v-6q0 -52 -35 -81.5t-110 -31.5
v48z" />
    <glyph glyph-name="gcommaaccent.alt1" horiz-adv-x="642" 
d="M298 -194q-67 0 -116 13.5t-82 38.5q-34 26 -52.5 61.5t-23.5 80.5h178q6 -29 26.5 -48.5t69.5 -19.5q60 0 85.5 30.5t25.5 79.5v80q-10 -19 -25.5 -36t-35.5 -30q-21 -14 -46.5 -22t-54.5 -8q-46 0 -86.5 16.5t-70.5 48.5t-47.5 79t-17.5 107v8q0 58 17.5 104.5
t47.5 79.5t70.5 50.5t86.5 17.5q63 0 101 -24t61 -64v74h179v-479q0 -118 -74.5 -178t-215.5 -60zM310 158q48 0 76 32t28 88v7q0 54 -26.5 86t-76.5 32q-51 0 -77 -32.5t-26 -86.5v-8q0 -54 27 -86t75 -32zM313 578q-36 0 -58 18t-22 56v7q0 52 35 81t110 31v-48
q-32 -2 -50 -11t-19 -27q35 2 54.5 -12t19.5 -41q0 -25 -19.5 -39.5t-50.5 -14.5z" />
    <glyph glyph-name="Kcommaaccent.alt1" horiz-adv-x="726" 
d="M69 715h206v-283l215 283h214l-262 -332l276 -383h-237l-206 299v-299h-206v715zM300 -177q32 2 50 11t19 27q-35 -2 -54.5 12t-19.5 41q0 25 19.5 39.5t50.5 14.5q36 0 58 -18t22 -56v-6q0 -52 -35 -81.5t-110 -31.5v48z" />
    <glyph glyph-name="scommaaccent.alt1" horiz-adv-x="515" 
d="M256 -12q-112 0 -174.5 45t-65.5 133h165q5 -29 20.5 -44t53.5 -15q33 0 48.5 11.5t15.5 31.5q0 19 -21.5 29t-75.5 18q-53 7 -90.5 18.5t-61.5 31.5q-24 19 -35.5 48t-11.5 70q0 43 18 75.5t49 54.5q30 21 71 31.5t86 10.5q48 0 88.5 -9t70.5 -29t48.5 -52t23.5 -79
h-162q-5 26 -20.5 39t-46.5 13q-29 0 -44 -11.5t-15 -29.5q0 -19 20 -28t68 -15q54 -7 94.5 -18t67.5 -30q27 -20 40 -49t13 -71q0 -93 -64 -136.5t-173 -43.5zM190 -177q32 2 50 11t19 27q-35 -2 -54.5 12t-19.5 41q0 25 19.5 39.5t50.5 14.5q36 0 58 -18t22 -56v-6
q0 -52 -35 -81.5t-110 -31.5v48z" />
    <glyph glyph-name="rcommaaccent.alt1" horiz-adv-x="428" 
d="M53 523h179v-104q25 59 66.5 85.5t102.5 25.5v-167q-82 2 -125.5 -25t-43.5 -90v-248h-179v523zM73 -177q32 2 50 11t19 27q-35 -2 -54.5 12t-19.5 41q0 25 19.5 39.5t50.5 14.5q36 0 58 -18t22 -56v-6q0 -52 -35 -81.5t-110 -31.5v48z" />
    <glyph glyph-name="ncommaaccent.alt1" horiz-adv-x="624" 
d="M53 523h179v-84q21 41 63.5 69.5t108.5 28.5q76 0 123.5 -48.5t47.5 -148.5v-340h-179v304q0 45 -18 66.5t-57 21.5q-40 0 -64.5 -24t-24.5 -75v-293h-179v523zM242 -177q32 2 50 11t19 27q-35 -2 -54.5 12t-19.5 41q0 25 19.5 39.5t50.5 14.5q36 0 58 -18t22 -56v-6
q0 -52 -35 -81.5t-110 -31.5v48z" />
    <glyph glyph-name="Ncommaaccent.alt1" horiz-adv-x="777" 
d="M69 715h231l229 -403v403h179v-715h-198l-261 449v-449h-180v715zM307 -177q32 2 50 11t19 27q-35 -2 -54.5 12t-19.5 41q0 25 19.5 39.5t50.5 14.5q36 0 58 -18t22 -56v-6q0 -52 -35 -81.5t-110 -31.5v48z" />
    </font>
</defs>
</svg>
