<?xml version="1.0" standalone="no"?>
<!DOCTYPE svg PUBLIC "-//W3C//DTD SVG 1.1//EN" "http://www.w3.org/Graphics/SVG/1.1/DTD/svg11.dtd" >
<svg xmlns="http://www.w3.org/2000/svg" xmlns:xlink="http://www.w3.org/1999/xlink" version="1.1">
<metadata>
Created by FontForge 20201107 at Sun Jan  7 04:35:11 2018
 By 
(C)2009 Commercial Type.
</metadata>
<defs>
<font id="GraphikApp-Black" horiz-adv-x="600" >
  <font-face 
    font-family="Graphik App Black"
    font-weight="800"
    font-stretch="normal"
    units-per-em="1000"
    panose-1="2 11 10 3 3 2 2 6 2 3"
    ascent="800"
    descent="-200"
    x-height="523"
    cap-height="715"
    bbox="-246 -233 1217 1142"
    underline-thickness="66"
    underline-position="-92"
    unicode-range="U+000D-FB02"
  />
<missing-glyph horiz-adv-x="523" 
 />
    <glyph glyph-name="f_f" unicode="ff" horiz-adv-x="731" 
d="M75 391h-64v132h64v33q0 51 15.5 88t43.5 61t67 35.5t87 11.5q26 0 46 -3t37 -8v-142q-9 3 -19.5 5t-24.5 2q-29 0 -42 -14.5t-13 -36.5v-32h141v39q0 51 15.5 88t44 61t68 35.5t87.5 11.5q26 0 46 -3t39 -8v-141q-9 2 -20.5 4t-26.5 2q-29 0 -42.5 -14.5t-13.5 -36.5
v-38h102v-132h-102v-391h-197v391h-141v-391h-197v391z" />
    <glyph glyph-name=".notdef" horiz-adv-x="523" 
 />
    <glyph glyph-name=".null" horiz-adv-x="0" 
 />
    <glyph glyph-name="nonmarkingreturn" unicode="&#xd;" horiz-adv-x="185" 
 />
    <glyph glyph-name="NULL" horiz-adv-x="0" 
 />
    <glyph glyph-name="NULL" horiz-adv-x="0" 
 />
    <glyph glyph-name="space" unicode=" " horiz-adv-x="185" 
 />
    <glyph glyph-name="exclam" unicode="!" horiz-adv-x="342" 
d="M171 -12q-24 0 -44.5 8t-36 22.5t-24.5 33.5t-9 41t9 41.5t24.5 33.5t36 22.5t44.5 8.5t44.5 -8.5t36.5 -22.5t25 -33.5t9 -41.5t-9 -41t-25 -33.5t-36.5 -22.5t-44.5 -8zM61 715h221l-29 -474h-164z" />
    <glyph glyph-name="quotedbl" unicode="&#x22;" horiz-adv-x="478" 
d="M37 715h183l-22 -281h-139zM258 715h183l-22 -281h-139z" />
    <glyph glyph-name="numbersign" unicode="#" horiz-adv-x="589" 
d="M294 234h-57l-20 -135h-130l20 135h-66v154h89l9 65h-75v146h97l18 116h130l-18 -116h56l18 116h131l-18 -116h70v-146h-92l-9 -65h78v-154h-101l-20 -135h-130zM260 388h56l10 65h-57z" />
    <glyph glyph-name="dollar" unicode="$" horiz-adv-x="651" 
d="M289 -10q-131 9 -197.5 72t-71.5 165h199q3 -32 19 -54.5t51 -30.5v130q-69 9 -117 26.5t-79 44.5t-45 65.5t-14 91.5q0 47 17.5 86t50.5 68.5t80 47.5t107 22v89h81v-90q112 -9 176.5 -61.5t72.5 -158.5h-195q-3 26 -14.5 43t-39.5 25v-123q58 -8 106 -22.5t82 -39.5
t52.5 -63t18.5 -93q0 -47 -15 -88.5t-46.5 -74t-80.5 -53t-117 -24.5v-125h-81v125zM227 517q0 -24 13.5 -37t48.5 -21v115q-62 -11 -62 -57zM430 203q0 22 -13 34.5t-47 20.5v-118q31 7 45.5 23.5t14.5 39.5z" />
    <glyph glyph-name="percent" unicode="%" horiz-adv-x="835" 
d="M218 472q26 0 39 19.5t13 52.5t-13 52t-39 19t-39.5 -19t-13.5 -51q0 -35 13.5 -54t39.5 -19zM217 360q-47 0 -83 14t-60.5 39t-37.5 58.5t-13 72.5q0 38 14.5 71t41 57t62 37.5t77.5 13.5q41 0 76.5 -13t61.5 -36t40.5 -55.5t14.5 -71.5t-13.5 -73.5t-38.5 -59.5
t-61 -39.5t-81 -14.5zM622 715h102l-508 -715h-101zM618 99q26 0 39 19.5t13 52.5t-13 52t-39 19t-39.5 -19t-13.5 -51q0 -35 13.5 -54t39.5 -19zM617 -13q-47 0 -82.5 14t-60.5 39t-37.5 58.5t-12.5 72.5q0 38 14.5 71t40.5 57t61.5 37.5t77.5 13.5t77.5 -13t61.5 -36
t40.5 -55.5t14.5 -71.5t-13.5 -73.5t-38.5 -59.5t-61.5 -39.5t-81.5 -14.5z" />
    <glyph glyph-name="ampersand" unicode="&#x26;" horiz-adv-x="777" 
d="M649 146l119 -146h-255l-37 46q-34 -25 -78 -42t-114 -17q-59 0 -106 14.5t-80.5 43t-51.5 69t-18 93.5q0 66 39.5 118t116.5 88q-22 32 -31 64.5t-9 56.5q0 46 19 82t51.5 60t76.5 36.5t94 12.5q45 0 85.5 -10.5t71.5 -32t49.5 -53.5t18.5 -74q0 -58 -34 -101t-108 -75
l79 -97l46 91h171zM321 145q33 0 57 22l-105 127q-14 -11 -25 -26t-11 -40q0 -35 20.5 -59t63.5 -24zM335 531q0 -18 10.5 -35.5t28.5 -37.5q64 32 64 78q0 23 -13 37.5t-36 14.5t-38.5 -15.5t-15.5 -41.5z" />
    <glyph glyph-name="quotesingle" unicode="'" horiz-adv-x="264" 
d="M37 715h190l-22 -281h-146z" />
    <glyph glyph-name="parenleft" unicode="(" horiz-adv-x="362" 
d="M202 -148q-28 34 -57.5 78t-54 101t-40 127t-15.5 156q0 85 15.5 155t40 127t54 101t57.5 78h150q-23 -38 -46.5 -85t-42 -104.5t-30 -125.5t-11.5 -146q0 -79 11.5 -147t30 -125.5t42 -105t46.5 -84.5h-150v0z" />
    <glyph glyph-name="parenright" unicode=")" horiz-adv-x="362" 
d="M10 -147q23 37 46.5 84.5t42 105t30 125.5t11.5 146q0 79 -11.5 147t-30 125.5t-42 104.5t-46.5 85h150q28 -34 57.5 -78t54 -101t40 -127.5t15.5 -155.5t-15.5 -155t-40 -127t-54 -101t-57.5 -78h-150v0z" />
    <glyph glyph-name="asterisk" unicode="*" horiz-adv-x="444" 
d="M52 446l90 86l-116 10l37 134l108 -54l-26 121h154l-26 -121l108 54l36 -134l-116 -10l90 -86l-117 -83l-53 114l-52 -114z" />
    <glyph glyph-name="plus" unicode="+" horiz-adv-x="579" 
d="M211 269h-173v142h173v189h157v-189h174v-142h-174v-190h-157v190z" />
    <glyph glyph-name="comma" unicode="," horiz-adv-x="311" 
d="M13 -79l81 272l182 -63l-148 -252z" />
    <glyph glyph-name="hyphen" unicode="-" horiz-adv-x="390" 
d="M49 360h292v-146h-292v146z" />
    <glyph glyph-name="period" unicode="." horiz-adv-x="302" 
d="M150 -12q-24 0 -44 8.5t-34.5 23t-23 34t-8.5 42.5q0 45 31 76t79 31q24 0 44.5 -8.5t35.5 -23t23.5 -34t8.5 -41.5q0 -23 -8.5 -42.5t-23.5 -34t-35.5 -23t-44.5 -8.5z" />
    <glyph glyph-name="slash" unicode="/" horiz-adv-x="440" 
d="M292 776h155l-322 -924h-155z" />
    <glyph glyph-name="zero" unicode="0" horiz-adv-x="741" 
d="M373 162q60 0 85.5 44.5t25.5 138.5v26q0 94 -26.5 138.5t-86.5 44.5q-61 0 -87.5 -44t-26.5 -138v-28q0 -94 26.5 -138t89.5 -44zM366 -13q-77 0 -139 23.5t-105.5 69t-66.5 111.5t-23 152v28q0 86 26 152t71.5 111t107 68.5t133.5 23.5q71 0 133 -21.5t107.5 -65
t72 -109t26.5 -154.5v-27q0 -86 -24 -153.5t-69 -114t-108.5 -70.5t-141.5 -24z" />
    <glyph glyph-name="one" unicode="1" horiz-adv-x="459" 
d="M163 492l-132 -79v188l164 114h195v-715h-227v492z" />
    <glyph glyph-name="two" unicode="2" horiz-adv-x="626" 
d="M7 31l243 258q54 58 87 104.5t33 91.5q0 31 -15.5 51t-49.5 20q-35 0 -55.5 -24t-27.5 -84h-204q5 140 84 209t214 69q68 0 120 -17.5t87 -48t52.5 -73t17.5 -92.5q0 -38 -9.5 -70.5t-27 -62.5t-42 -58.5t-54.5 -56.5l-82 -79h221v-168h-592v31z" />
    <glyph glyph-name="three" unicode="3" horiz-adv-x="661" 
d="M333 -13q-155 0 -228.5 66t-78.5 187h201q4 -42 24 -66.5t68 -24.5q42 0 61.5 18.5t19.5 53.5q0 36 -20 54.5t-64 18.5h-57v137h54q45 0 66 18.5t21 53.5q0 28 -18 45t-54 17q-37 0 -57.5 -21.5t-26.5 -62.5h-200q4 55 23.5 100t55.5 77.5t88.5 50t122.5 17.5
q131 0 204.5 -53t73.5 -145q0 -60 -32.5 -98.5t-90.5 -55.5q63 -11 101.5 -53t38.5 -106q0 -51 -19 -93t-56 -72t-92.5 -46.5t-128.5 -16.5z" />
    <glyph glyph-name="four" unicode="4" horiz-adv-x="689" 
d="M360 134h-346v86l294 495h270v-426h90v-155h-90v-134h-218v134zM366 289v255l-144 -255h144z" />
    <glyph glyph-name="five" unicode="5" horiz-adv-x="639" 
d="M311 -13q-74 0 -127.5 18.5t-89 51.5t-53 77.5t-18.5 95.5h205q4 -33 21 -53t61 -20q39 0 55.5 26t16.5 62q0 43 -22 66.5t-64 23.5q-41 0 -67.5 -14t-41.5 -34h-139l18 428h497v-164h-335l-5 -146q10 15 25 29.5t36 25.5t48 18t62 7q99 0 157 -63t58 -181
q0 -57 -20 -104t-58 -80.5t-93.5 -51.5t-126.5 -18z" />
    <glyph glyph-name="six" unicode="6" horiz-adv-x="685" 
d="M358 -13q-88 0 -150 26t-101 73t-57 112.5t-18 143.5v19q0 86 25 153.5t69.5 114.5t104.5 72t129 25q128 0 200 -55t83 -164h-208q-4 23 -17 37.5t-48 14.5q-55 0 -83 -44t-31 -127q12 18 26.5 33t34 25.5t44.5 16.5t59 6q48 0 91 -14t76 -42.5t52 -71.5t19 -101
q0 -57 -20.5 -103.5t-59.5 -79.5t-94.5 -51.5t-125.5 -18.5zM354 146q39 0 61.5 26.5t22.5 66.5q0 39 -22 65t-61 26t-62 -26.5t-23 -64.5q0 -40 22.5 -66.5t61.5 -26.5z" />
    <glyph glyph-name="seven" unicode="7" horiz-adv-x="586" 
d="M297 531h-274v184h557v-23l-244 -692h-231z" />
    <glyph glyph-name="eight" unicode="8" horiz-adv-x="666" 
d="M333 -13q-144 0 -226 55t-82 159q0 60 32 106t98 69q-47 20 -73.5 56t-26.5 90q0 49 22 87t60 64t89 39.5t109 13.5q60 0 111 -13.5t88.5 -39t58.5 -63t21 -86.5q0 -55 -27 -91t-73 -56q65 -23 96 -66.5t31 -103.5q0 -51 -21 -92t-61 -69.5t-97 -43.5t-129 -15zM334 145
q38 0 62 21.5t24 59.5q0 37 -23.5 59.5t-62.5 22.5q-38 0 -62.5 -21.5t-24.5 -60.5q0 -38 24.5 -59.5t62.5 -21.5zM335 431q32 0 54.5 19.5t22.5 52.5t-22.5 52.5t-54.5 19.5q-31 0 -53.5 -19.5t-22.5 -52.5q0 -32 22.5 -52t53.5 -20z" />
    <glyph glyph-name="nine" unicode="9" horiz-adv-x="685" 
d="M327 -12q-131 0 -205.5 56.5t-84.5 162.5h207q4 -23 20 -37.5t51 -14.5q60 0 85.5 43t27.5 126q-12 -18 -25.5 -33t-32 -26t-43 -17t-57.5 -6q-51 0 -95.5 14t-77.5 42.5t-51.5 72t-18.5 101.5q0 57 21 103.5t60 80.5t95 52.5t126 18.5q83 0 144 -26.5t101 -74t59.5 -113
t19.5 -142.5v-20q0 -174 -84 -268.5t-242 -94.5zM326 385q39 0 62.5 26t23.5 64q0 40 -23 66.5t-63 26.5q-38 0 -61 -26.5t-23 -66.5q0 -38 22.5 -64t61.5 -26z" />
    <glyph glyph-name="colon" unicode=":" horiz-adv-x="308" 
d="M152 -12q-48 0 -78.5 31t-30.5 77q0 45 30.5 76t78.5 31q24 0 45 -8.5t36 -23t23.5 -34t8.5 -41.5q0 -46 -32 -77t-81 -31zM152 272q-24 0 -44 8.5t-34.5 22.5t-22.5 33.5t-8 42.5q0 22 8 42t22.5 34.5t34.5 23t44 8.5t45 -8.5t36 -23t23.5 -34.5t8.5 -42
q0 -23 -8.5 -42.5t-23.5 -33.5t-36 -22.5t-45 -8.5z" />
    <glyph glyph-name="semicolon" unicode=";" horiz-adv-x="326" 
d="M8 -79l81 272l182 -63l-148 -252zM178 272q-24 0 -44 8.5t-34.5 22.5t-23 33.5t-8.5 42.5q0 22 8.5 42t23 34.5t34.5 23t44 8.5t44.5 -8.5t35.5 -23t23.5 -34.5t8.5 -42q0 -23 -8.5 -42.5t-23.5 -33.5t-35.5 -22.5t-44.5 -8.5z" />
    <glyph glyph-name="less" unicode="&#x3c;" horiz-adv-x="514" 
d="M40 304v37l428 251v-178l-177 -90l177 -99v-172z" />
    <glyph glyph-name="equal" unicode="=" horiz-adv-x="570" 
d="M38 293h493v-131h-493v131zM38 492h493v-131h-493v131z" />
    <glyph glyph-name="greater" unicode="&#x3e;" horiz-adv-x="514" 
d="M46 231l177 91l-177 99v172l428 -252v-36l-428 -251v177z" />
    <glyph glyph-name="question" unicode="?" horiz-adv-x="569" 
d="M167 254q0 28 9 52t23 44t31 37t34 33q26 24 45 46t19 48q0 52 -53 52q-28 0 -46 -21t-23 -59h-192q2 59 23 104t57.5 75t86.5 45.5t110 15.5q119 0 185 -49.5t66 -143.5q0 -48 -19.5 -83t-48.5 -64q-19 -19 -38.5 -36t-36.5 -33.5t-29 -32.5t-16 -34v-9h-187v13z
M261 -12q-24 0 -45.5 8t-37 22.5t-24.5 33.5t-9 41t9 41.5t24.5 33.5t37 22.5t45.5 8.5t44.5 -8.5t36 -22.5t24.5 -33.5t9 -41.5t-9 -41t-24.5 -33.5t-36 -22.5t-44.5 -8z" />
    <glyph glyph-name="at" unicode="@" horiz-adv-x="922" 
d="M461 -160q-102 0 -182.5 31.5t-136.5 87t-86 130.5t-30 161q0 100 37.5 181.5t100.5 139t145 89t171 31.5t165 -25.5t132 -73t87.5 -115t31.5 -150.5q0 -75 -19 -127.5t-49.5 -86t-70.5 -48.5t-82 -15q-66 0 -103.5 20t-49.5 60q-19 -39 -51 -60.5t-80 -21.5
q-75 0 -119.5 50.5t-44.5 137.5q0 54 15.5 97t42.5 74t63 47.5t77 16.5q46 0 71 -16.5t36 -40.5l7 49h159l-34 -276q-5 -29 5.5 -46.5t36.5 -17.5q21 0 40.5 11.5t34.5 36.5t24 64t9 95q0 65 -23.5 118.5t-67 92t-105 59.5t-136.5 21q-77 0 -144.5 -26t-117.5 -74.5
t-79 -117.5t-29 -155q0 -72 22 -134t66.5 -107t110.5 -71t153 -26q44 0 83.5 7.5t73 19.5t60 28.5t44.5 34.5h94q-26 -36 -63 -65.5t-83.5 -50.5t-100 -32.5t-111.5 -11.5zM444 175q31 0 51.5 30.5t20.5 78.5q0 29 -14.5 46t-43.5 17q-31 0 -49.5 -29t-18.5 -74
q0 -29 13 -49t41 -20z" />
    <glyph glyph-name="A" unicode="A" horiz-adv-x="760" 
d="M234 715h293l224 -715h-240l-33 119h-226l-32 -119h-211zM295 273h141l-70 259z" />
    <glyph glyph-name="B" unicode="B" horiz-adv-x="690" 
d="M65 715h338q66 0 112.5 -14.5t75.5 -39.5t42.5 -59t13.5 -74v-4q0 -63 -32 -101.5t-92 -52.5q63 -11 103 -51.5t40 -115.5v-4q0 -95 -63.5 -147t-201.5 -52h-336v715zM358 149q44 0 64.5 19.5t20.5 55.5v4q0 35 -21 54t-69 19h-67v-152h72zM355 436q42 0 60 15t18 48v4
q0 32 -18.5 48t-60.5 16h-68v-131h69z" />
    <glyph glyph-name="C" unicode="C" horiz-adv-x="764" 
d="M408 -13q-97 0 -168.5 26.5t-118.5 74.5t-70 115.5t-23 149.5v8q0 83 28 150.5t77.5 115t117.5 73.5t147 26q72 0 132 -17t104 -51.5t71 -87.5t33 -126h-234q-5 50 -31 76.5t-74 26.5q-62 0 -97 -47t-35 -138v-8q0 -90 35 -137.5t101 -47.5q48 0 80 25.5t38 79.5h226
q-5 -71 -31.5 -124.5t-71.5 -89.5t-105 -54.5t-131 -18.5z" />
    <glyph glyph-name="D" unicode="D" horiz-adv-x="751" 
d="M330 174q84 0 121 43t37 137v8q0 98 -38.5 138.5t-120.5 40.5h-37v-367h38zM65 715h273q193 0 289.5 -89t96.5 -260v-7q0 -172 -98 -265.5t-288 -93.5h-273v715z" />
    <glyph glyph-name="E" unicode="E" horiz-adv-x="620" 
d="M65 715h508v-174h-282v-101h224v-159h-224v-107h298v-174h-524v715z" />
    <glyph glyph-name="F" unicode="F" horiz-adv-x="585" 
d="M65 715h495v-175h-268v-133h216v-167h-216v-240h-227v715z" />
    <glyph glyph-name="G" unicode="G" horiz-adv-x="791" 
d="M407 -13q-93 0 -164 27t-119 75.5t-72.5 115.5t-24.5 148v8q0 82 29 149.5t80 115.5t120.5 74t150.5 26q65 0 124.5 -15.5t106 -48t75.5 -83.5t34 -123h-224q-6 45 -34 68.5t-81 23.5q-68 0 -106.5 -50t-38.5 -141v-8q0 -39 7.5 -74t24.5 -60.5t46 -40.5t73 -15
q34 0 57.5 7.5t39 20.5t23 29t9.5 34h-122v149h343v-92q0 -67 -22 -125t-66.5 -101.5t-111.5 -68.5t-157 -25z" />
    <glyph glyph-name="H" unicode="H" horiz-adv-x="794" 
d="M65 715h227v-264h210v264h227v-715h-227v275h-210v-275h-227v715z" />
    <glyph glyph-name="I" unicode="I" horiz-adv-x="366" 
d="M68 715h229v-715h-229v715z" />
    <glyph glyph-name="J" unicode="J" horiz-adv-x="489" 
d="M168 -9q-53 0 -83 7t-53 18v167q17 -5 36.5 -9t48.5 -4q40 0 65 20t25 73v452h227v-453q0 -134 -65.5 -202.5t-200.5 -68.5z" />
    <glyph glyph-name="K" unicode="K" horiz-adv-x="745" 
d="M65 715h227v-271l198 271h235l-251 -330l265 -385h-261l-186 286v-286h-227v715z" />
    <glyph glyph-name="L" unicode="L" horiz-adv-x="582" 
d="M65 715h227v-540h260v-175h-487v715z" />
    <glyph glyph-name="M" unicode="M" horiz-adv-x="958" 
d="M65 715h294l121 -347l123 347h288v-715h-225v422l-163 -422h-76l-160 422v-422h-202v715z" />
    <glyph glyph-name="N" unicode="N" horiz-adv-x="787" 
d="M65 715h254l203 -378v378h199v-715h-217l-239 428v-428h-200v715z" />
    <glyph glyph-name="O" unicode="O" horiz-adv-x="820" 
d="M411 165q67 0 106.5 49.5t39.5 139.5v8q0 91 -40 139t-108 48q-66 0 -105.5 -47.5t-39.5 -139.5v-8q0 -92 39.5 -140.5t107.5 -48.5zM405 -13q-88 0 -158 26.5t-119 75t-75 116t-26 148.5v8q0 83 29.5 150.5t81 115t121.5 73.5t150 26q82 0 152.5 -24.5t122 -70.5
t80.5 -112.5t29 -151.5v-8q0 -84 -27.5 -152.5t-78.5 -117t-122.5 -75.5t-159.5 -27z" />
    <glyph glyph-name="P" unicode="P" horiz-adv-x="664" 
d="M65 715h285q154 0 224 -65t70 -180v-4q0 -112 -72 -172.5t-212 -60.5h-69v-233h-226v715zM338 385q91 0 91 80v4q0 42 -22.5 59.5t-67.5 17.5h-48v-161h47z" />
    <glyph glyph-name="Q" unicode="Q" horiz-adv-x="820" 
d="M487 -6q-20 -3 -40.5 -5t-41.5 -2q-88 0 -158 26.5t-119 75t-75 116t-26 148.5v8q0 83 29.5 150t81 114.5t121.5 73.5t150 26q82 0 152.5 -24t122.5 -70t81 -112.5t29 -151.5v-8q0 -94 -34.5 -168.5t-97.5 -123.5l67 -67l-124 -126zM263 354q0 -74 24 -120t66 -63l110 98
l55 -57q39 51 39 143v8q0 91 -40 138.5t-108 47.5q-67 0 -106.5 -47t-39.5 -140v-8z" />
    <glyph glyph-name="R" unicode="R" horiz-adv-x="710" 
d="M65 715h292q149 0 224 -58.5t75 -173.5v-4q0 -74 -34 -118.5t-87 -68.5l163 -292h-238l-133 245h-36v-245h-226v715zM344 391q93 0 93 78v4q0 39 -23 55.5t-69 16.5h-54v-154h53z" />
    <glyph glyph-name="S" unicode="S" horiz-adv-x="653" 
d="M334 -13q-152 0 -231.5 60.5t-83.5 181.5h215q1 -17 6.5 -32t17 -26t30 -17.5t46.5 -6.5q40 0 59.5 16.5t19.5 42.5q0 28 -22 40.5t-80 20.5q-77 9 -130 25t-85.5 43.5t-46.5 67t-14 94.5q0 49 19.5 91t56.5 72.5t90 47.5t120 17q134 0 206.5 -55t81.5 -173h-210
q-4 33 -23 51t-55 18q-35 0 -53 -14.5t-18 -37.5q0 -13 4.5 -22.5t16 -16.5t30.5 -12t49 -9q67 -7 119.5 -20.5t88 -39t54 -65t18.5 -99.5q0 -50 -19.5 -94t-57 -77t-92.5 -52.5t-127 -19.5z" />
    <glyph glyph-name="T" unicode="T" horiz-adv-x="629" 
d="M200 541h-180v174h589v-174h-181v-541h-228v541z" />
    <glyph glyph-name="U" unicode="U" horiz-adv-x="776" 
d="M388 -13q-158 0 -242.5 77t-84.5 231v420h226v-411q0 -35 4.5 -61t15.5 -43.5t31 -26t50 -8.5q60 0 80 34.5t20 105.5v410h228v-418q0 -81 -23 -139.5t-66 -96.5t-103.5 -56t-135.5 -18z" />
    <glyph glyph-name="V" unicode="V" horiz-adv-x="741" 
d="M9 715h245l133 -479l133 479h212l-231 -715h-256z" />
    <glyph glyph-name="W" unicode="W" horiz-adv-x="1009" 
d="M10 715h229l82 -427l86 427h197l97 -432l87 432h210l-166 -715h-229l-100 427l-101 -427h-226z" />
    <glyph glyph-name="X" unicode="X" horiz-adv-x="772" 
d="M236 368l-202 347h259l100 -201l98 201h232l-187 -339l219 -376h-258l-123 235l-123 -235h-233z" />
    <glyph glyph-name="Y" unicode="Y" horiz-adv-x="692" 
d="M237 305l-232 410h246l109 -224l110 224h217l-222 -409v-306h-228v305z" />
    <glyph glyph-name="Z" unicode="Z" horiz-adv-x="627" 
d="M10 24l286 521h-246v170h563v-24l-283 -520h266v-171h-586v24z" />
    <glyph glyph-name="bracketleft" unicode="[" horiz-adv-x="419" 
d="M61 776h321v-142h-122v-640h122v-142h-321v924z" />
    <glyph glyph-name="backslash" unicode="\" horiz-adv-x="440" 
d="M-7 776h154l323 -924h-155z" />
    <glyph glyph-name="bracketright" unicode="]" horiz-adv-x="419" 
d="M38 -6h120v640h-120v142h319v-924h-319v142z" />
    <glyph glyph-name="asciicircum" unicode="^" horiz-adv-x="535" 
d="M183 715h169l164 -324h-166l-84 165l-85 -165h-162z" />
    <glyph glyph-name="underscore" unicode="_" horiz-adv-x="441" 
d="M-1 -72h443v-89h-443v89z" />
    <glyph glyph-name="grave" unicode="`" horiz-adv-x="400" 
d="M32 747h193l52 -169h-141z" />
    <glyph glyph-name="a" unicode="a" horiz-adv-x="585" 
d="M198 -13q-35 0 -67.5 9t-57 28t-39 49t-14.5 72q0 92 72.5 131.5t208.5 39.5h45v9q0 16 -2 30t-8.5 24.5t-18.5 16t-32 5.5q-34 0 -47 -18t-15 -38h-184q3 48 22.5 84t53 60.5t80 36.5t102.5 12q114 0 179 -48.5t65 -151.5v-338h-190v60q-8 -14 -21 -27t-32 -23
t-43.5 -16.5t-56.5 -6.5zM269 119q34 0 55.5 17.5t21.5 46.5v27h-42q-50 0 -70 -11t-20 -39q0 -19 14 -30t41 -11z" />
    <glyph glyph-name="b" unicode="b" horiz-adv-x="646" 
d="M403 -13q-58 0 -98.5 25.5t-60.5 67.5v-80h-197v750h197v-303q22 37 61 63.5t99 26.5q45 0 84.5 -17t69.5 -50.5t47.5 -84.5t17.5 -120v-8q0 -69 -17.5 -119.5t-47.5 -84t-70 -50t-85 -16.5zM331 137q45 0 68.5 31t23.5 91v8q0 63 -24 93.5t-69 30.5q-44 0 -67.5 -32
t-23.5 -92v-8q0 -122 92 -122z" />
    <glyph glyph-name="c" unicode="c" horiz-adv-x="586" 
d="M300 -13q-59 0 -109.5 16.5t-88 50t-59 83.5t-21.5 117v8q0 67 22 118t60.5 86t90 53t110.5 18q49 0 94.5 -11.5t81.5 -37t59 -68t27 -103.5h-185q-5 32 -20.5 50.5t-51.5 18.5q-88 0 -88 -120v-8q0 -64 21.5 -96t69.5 -32q34 0 55 20.5t25 58.5h177q-2 -51 -19.5 -92
t-51.5 -70t-83.5 -44.5t-115.5 -15.5z" />
    <glyph glyph-name="d" unicode="d" horiz-adv-x="645" 
d="M241 -13q-44 0 -83.5 16t-69.5 49.5t-47.5 84t-17.5 119.5v8q0 68 17.5 119.5t47 85.5t69 51t84.5 17q62 0 100 -23t60 -63v299h197v-750h-197v84q-20 -41 -60 -69t-100 -28zM314 137q45 0 68.5 31t23.5 92v8q0 60 -23 91.5t-68 31.5q-92 0 -92 -124v-8q0 -61 23.5 -91.5
t67.5 -30.5z" />
    <glyph glyph-name="e" unicode="e" horiz-adv-x="604" 
d="M311 -13q-63 0 -116 17.5t-91.5 51.5t-60.5 84t-22 115v8q0 64 23 115t62 86.5t92 54.5t113 19q55 0 104.5 -16t86.5 -49.5t59 -85t22 -121.5v-48h-363q4 -48 30 -72.5t68 -24.5t59.5 16.5t22.5 39.5h184q-12 -91 -80 -140.5t-193 -49.5zM393 321q-2 42 -22 66t-60 24
q-36 0 -60 -22.5t-30 -67.5h172z" />
    <glyph glyph-name="f" unicode="f" horiz-adv-x="393" 
d="M75 391h-64v132h64v39q0 51 15.5 88t44 61t68 35.5t87.5 11.5q26 0 46 -3t39 -8v-141q-9 2 -20.5 4t-26.5 2q-29 0 -42.5 -14.5t-13.5 -36.5v-38h102v-132h-102v-391h-197v391z" />
    <glyph glyph-name="g" unicode="g" horiz-adv-x="644" 
d="M299 -194q-136 0 -203 52.5t-77 145.5h195q3 -12 8 -23t14.5 -20t25 -14t38.5 -5q56 0 78 29t22 71v81q-20 -38 -60 -65t-99 -27q-45 0 -84.5 16t-69.5 47.5t-47.5 77.5t-17.5 107v8q0 59 17.5 105.5t47 79t69 49.5t84.5 17q62 0 100 -23.5t60 -63.5v72h197v-478
q0 -118 -75.5 -178.5t-222.5 -60.5zM314 171q44 0 68 29t24 79v7q0 48 -23.5 77t-68.5 29t-68.5 -28.5t-23.5 -78.5v-8q0 -48 23.5 -77t68.5 -29z" />
    <glyph glyph-name="h" unicode="h" horiz-adv-x="629" 
d="M47 750h197v-311q22 42 64.5 70t108.5 28q37 0 68 -12t53 -36t34.5 -60t12.5 -85v-344h-197v300q0 40 -15.5 60t-50.5 20q-37 0 -57.5 -22t-20.5 -69v-289h-197v750z" />
    <glyph glyph-name="i" unicode="i" horiz-adv-x="303" 
d="M53 523h196v-523h-196v523zM151 562q-46 0 -76.5 28t-30.5 71q0 44 30.5 72t76.5 28q45 0 75.5 -28t30.5 -72q0 -43 -30.5 -71t-75.5 -28z" />
    <glyph glyph-name="j" unicode="j" horiz-adv-x="303" 
d="M-9 -42q32 2 46.5 15t14.5 43v507h197v-512q0 -44 -12 -79.5t-41 -61t-79 -39.5t-126 -14v141zM151 562q-46 0 -76.5 28t-30.5 71q0 44 30.5 72t76.5 28q45 0 75.5 -28t30.5 -72q0 -43 -30.5 -71t-75.5 -28z" />
    <glyph glyph-name="k" unicode="k" horiz-adv-x="589" 
d="M47 750h197v-425l127 198h202l-161 -234l174 -289h-218l-124 218v-218h-197v750z" />
    <glyph glyph-name="l" unicode="l" horiz-adv-x="300" 
d="M52 750h196v-750h-196v750z" />
    <glyph glyph-name="m" unicode="m" horiz-adv-x="935" 
d="M47 523h197v-80q22 38 63 66t102 28q103 0 140 -84q35 45 79 64.5t93 19.5q75 0 122.5 -48t47.5 -144v-345h-196v309q0 35 -16 52.5t-43 17.5q-33 0 -51 -20.5t-18 -58.5v-300h-195v309q0 35 -16 52.5t-42 17.5q-34 0 -52 -20.5t-18 -58.5v-300h-197v523z" />
    <glyph glyph-name="n" unicode="n" horiz-adv-x="629" 
d="M47 523h197v-84q22 42 64.5 70t108.5 28q37 0 68 -12t53 -36t34.5 -60t12.5 -85v-344h-197v300q0 40 -15.5 60t-50.5 20q-37 0 -57.5 -22t-20.5 -69v-289h-197v523z" />
    <glyph glyph-name="o" unicode="o" horiz-adv-x="626" 
d="M314 132q90 0 90 127v7q0 62 -22 94t-68 32q-45 0 -69 -30.5t-24 -92.5v-8q0 -129 93 -129zM313 -13q-61 0 -114 17.5t-92.5 52t-62 84t-22.5 114.5v8q0 64 22.5 114.5t61.5 86t92.5 54.5t115.5 19q61 0 114 -18.5t92 -53t61.5 -84.5t22.5 -113v-8q0 -65 -22.5 -115.5
t-62 -85.5t-92.5 -53.5t-114 -18.5z" />
    <glyph glyph-name="p" unicode="p" horiz-adv-x="646" 
d="M47 523h197v-76q22 37 61 63.5t99 26.5q45 0 84.5 -17t69.5 -50.5t47.5 -84.5t17.5 -120v-8q0 -69 -17.5 -119.5t-47.5 -84t-70 -50t-85 -16.5q-58 0 -98.5 25t-60.5 63v-249h-197v697zM331 137q45 0 68.5 31t23.5 91v8q0 63 -24 93.5t-69 30.5q-44 0 -67.5 -32
t-23.5 -92v-8q0 -122 92 -122z" />
    <glyph glyph-name="q" unicode="q" horiz-adv-x="645" 
d="M401 79q-20 -37 -60 -64.5t-100 -27.5q-44 0 -83.5 16t-69.5 49.5t-47.5 84t-17.5 119.5v8q0 68 17.5 119.5t47 85.5t69 51t84.5 17q62 0 100 -23t60 -63v72h197v-697h-197v253zM314 137q45 0 68.5 31t23.5 92v8q0 60 -23 91.5t-68 31.5q-92 0 -92 -124v-8
q0 -61 23.5 -91.5t67.5 -30.5z" />
    <glyph glyph-name="r" unicode="r" horiz-adv-x="438" 
d="M47 523h197v-106q25 61 67 87.5t101 25.5v-184q-82 5 -125 -21.5t-43 -83.5v-241h-197v523z" />
    <glyph glyph-name="s" unicode="s" horiz-adv-x="523" 
d="M261 -13q-115 0 -179.5 46t-66.5 135h180q5 -26 18 -40t47 -14q29 0 42 10t13 27t-19.5 27t-72.5 17q-53 6 -91.5 17t-63 30t-36.5 48t-12 71q0 45 18.5 78.5t50 55t74 32.5t90.5 11q51 0 93 -9t73 -29.5t49.5 -53.5t23.5 -81h-177q-5 23 -18.5 36t-40.5 13t-39.5 -10.5
t-12.5 -25.5q0 -18 19 -26.5t63 -13.5q57 -7 98.5 -18t68.5 -30t40.5 -48t13.5 -71q0 -48 -17.5 -83t-50 -57.5t-78 -33t-100.5 -10.5z" />
    <glyph glyph-name="t" unicode="t" horiz-adv-x="396" 
d="M265 -12q-93 0 -143 44t-50 143v216h-61v132h61v107h197v-107h100v-132h-100v-197q0 -27 13.5 -39t37.5 -12q26 0 49 8v-148q-18 -5 -45 -10t-59 -5z" />
    <glyph glyph-name="u" unicode="u" horiz-adv-x="628" 
d="M218 -13q-38 0 -70 12t-55 36t-36.5 60t-13.5 85v343h197v-309q0 -40 15.5 -60t50.5 -20q37 0 57.5 22t20.5 69v298h197v-523h-197v81q-22 -42 -61 -68t-105 -26z" />
    <glyph glyph-name="v" unicode="v" horiz-adv-x="604" 
d="M5 523h210l99 -318l100 318h185l-191 -523h-211z" />
    <glyph glyph-name="w" unicode="w" horiz-adv-x="854" 
d="M5 523h205l68 -293l80 293h158l70 -293l79 293h184l-166 -523h-185l-73 273l-72 -273h-191z" />
    <glyph glyph-name="x" unicode="x" horiz-adv-x="613" 
d="M180 265l-161 258h226l71 -128l71 128h201l-163 -243l180 -280h-226l-84 146l-88 -146h-199z" />
    <glyph glyph-name="y" unicode="y" 
d="M214 52l-209 471h213l99 -261l92 261h186l-279 -697h-187z" />
    <glyph glyph-name="z" unicode="z" horiz-adv-x="513" 
d="M8 19l214 357h-191v147h471v-20l-224 -357h210v-146h-480v19z" />
    <glyph glyph-name="braceleft" unicode="{" horiz-adv-x="425" 
d="M388 -148q-159 0 -229 56.5t-50 179.5l13 81q6 34 -16 56t-77 22v137q55 0 77 21.5t16 55.5l-13 80q-21 127 50 181.5t229 54.5v-143q-55 -3 -73 -21t-12 -65l12 -99q6 -50 -21 -84.5t-83 -47.5q57 -12 83.5 -47t20.5 -86l-12 -98q-6 -48 12 -68t73 -23v-143v0z" />
    <glyph glyph-name="bar" unicode="|" horiz-adv-x="270" 
d="M67 776h136v-924h-136v924z" />
    <glyph glyph-name="braceright" unicode="}" horiz-adv-x="425" 
d="M37 -5q55 3 73 23t12 68l-12 98q-6 51 20.5 86t83.5 47q-56 13 -83 47.5t-21 84.5l12 99q6 47 -12 65t-73 21v143q158 0 229 -54.5t50 -181.5l-13 -80q-6 -34 15.5 -55.5t77.5 -21.5v-137q-56 0 -77.5 -22t-15.5 -56l13 -81q20 -123 -50 -179.5t-229 -56.5v143z" />
    <glyph glyph-name="asciitilde" unicode="~" horiz-adv-x="532" 
d="M25 213q3 57 17 97t35 65.5t47.5 37t55.5 11.5q27 0 50 -7t42 -15t35 -15t29 -7q20 0 30.5 12t14.5 33h125q-2 -53 -15 -92.5t-34.5 -66t-48.5 -39.5t-56 -13q-28 0 -51 6.5t-41.5 15t-34.5 15t-29 6.5q-21 0 -31.5 -12t-13.5 -32h-126v0z" />
    <glyph glyph-name="uni00A0" unicode="&#xa0;" horiz-adv-x="253" 
 />
    <glyph glyph-name="exclamdown" unicode="&#xa1;" horiz-adv-x="344" 
d="M172.011 609.999q23.998 0 44.4971 -7.99902q20.499 -8 35.998 -22.499t24.498 -33.498q9 -18.999 9 -40.9971q0 -21.999 -9 -41.498q-8.99902 -19.498 -24.498 -33.498q-15.499 -13.999 -35.998 -22.498q-20.499 -8.5 -44.4971 -8.5q-23.999 0 -44.498 8.5
q-20.498 8.49902 -36.4971 22.498q-15.999 14 -24.999 33.498q-8.99902 19.499 -8.99902 41.498q0 21.998 8.99902 40.9971q9 18.999 24.999 33.498t36.4971 22.499q20.499 7.99902 44.498 7.99902zM282.004 -116.956h-220.986l28.998 473.971h163.99z" />
    <glyph glyph-name="cent" unicode="&#xa2;" 
d="M279 -11q-56 4 -103 23t-81.5 52t-54 81t-19.5 110v8q0 60 20 108t54.5 82.5t81.5 55.5t102 27v93h75v-93q46 -4 86 -19t70.5 -42t49.5 -66.5t22 -91.5h-177q-8 58 -51 73v-266q26 8 42 28.5t19 56.5h170q-3 -94 -62.5 -152.5t-168.5 -67.5v-124h-75v124zM215 257
q0 -56 16 -88t48 -43v264q-30 -11 -47 -41t-17 -84v-8z" />
    <glyph glyph-name="sterling" unicode="&#xa3;" horiz-adv-x="668" 
d="M32 409h48q-11 39 -11 83q0 57 22 100.5t60 73t90.5 44.5t112.5 15q73 0 126 -18t87.5 -51t51.5 -79t20 -102h-206q-5 43 -22 62t-49 19t-50.5 -20.5t-18.5 -56.5q0 -17 1.5 -34.5t3.5 -35.5h170v-124h-153q1 -11 1.5 -23t0.5 -23q0 -16 -2 -29t-6 -26q23 -7 42.5 -12.5
t36.5 -5.5q54 0 58 54h204q-2 -49 -16.5 -91t-42 -72.5t-67 -48t-91.5 -17.5q-39 0 -69.5 8t-55.5 17t-45 17t-38 8q-21 0 -32 -11.5t-13 -29.5h-166q4 60 29 109.5t74 74.5q3 11 5 24.5t2 30.5q0 12 -1.5 23.5t-3.5 22.5h-87v124z" />
    <glyph glyph-name="yen" unicode="&#xa5;" horiz-adv-x="659" 
d="M61 370h134l-187 345h245l91 -216l91 216h216l-178 -345h136v-73h-160v-47h160v-74h-160v-176h-228v176h-160v74h160v47h-160v73z" />
    <glyph glyph-name="brokenbar" unicode="&#xa6;" horiz-adv-x="272" 
d="M67 302h136v-450h-136v450zM67 776h136v-403h-136v403z" />
    <glyph glyph-name="section" unicode="&#xa7;" horiz-adv-x="618" 
d="M297 -137q-109 0 -166.5 50t-61.5 137h177q2 -26 15 -41.5t41 -15.5q50 0 50 38q0 21 -22.5 31.5t-78.5 23.5q-53 13 -96 28.5t-73.5 38.5t-47 55t-16.5 78q0 52 29.5 85.5t77.5 52.5q-21 23 -31 51.5t-10 61.5q0 44 17.5 79t49 59t75 37t96.5 13q108 0 165 -50t61 -138
h-176q-3 27 -15.5 41t-40.5 14q-25 0 -37 -10t-12 -27q0 -11 4.5 -19t15.5 -14t30.5 -11.5t48.5 -12.5q52 -12 95 -26.5t74 -37t48.5 -55t17.5 -79.5q0 -51 -29.5 -85t-77.5 -54q41 -44 41 -112q0 -42 -17 -76.5t-48.5 -59t-75.5 -37.5t-97 -13zM376 231q20 4 28 13.5
t8 25.5q0 11 -5.5 18.5t-16.5 13.5t-29.5 12.5t-43.5 14.5l-73 24q-36 -6 -36 -39q0 -20 23 -31t72 -27z" />
    <glyph glyph-name="dieresis" unicode="&#xa8;" horiz-adv-x="400" 
d="M91 570q-19 0 -35.5 7t-29 19t-19.5 28.5t-7 34.5t7 34.5t19.5 28.5t29 19t35.5 7t36 -7t29.5 -19t19.5 -28.5t7 -34.5t-7 -34.5t-19.5 -28.5t-29.5 -19t-36 -7zM308 570q-19 0 -35.5 7t-28.5 19t-19 28.5t-7 34.5t7 34.5t19 28.5t28.5 19t35.5 7q39 0 65.5 -26t26.5 -63
t-26.5 -63t-65.5 -26z" />
    <glyph glyph-name="copyright" unicode="&#xa9;" horiz-adv-x="842" 
d="M429 150q-110 0 -162.5 56t-52.5 148v8q0 46 16 84t44 64t66.5 40.5t83.5 14.5q82 0 133.5 -38t58.5 -122h-137q-3 26 -16.5 40t-38.5 14q-32 0 -51 -24t-19 -73v-7q0 -98 72 -98q26 0 43 13.5t20 42.5h132q-2 -40 -17 -70.5t-40.5 -51t-60 -31t-74.5 -10.5zM420 31
q67 0 125.5 23.5t102.5 67t69.5 103.5t25.5 134q0 72 -25 132t-68 103t-102 66.5t-126 23.5q-68 0 -127 -24t-102.5 -67t-68.5 -103t-25 -133q0 -74 25.5 -134t69.5 -102.5t102 -66t124 -23.5zM420 -21q-80 0 -150.5 29t-123 79.5t-82.5 119.5t-30 150q0 79 30 148.5
t82.5 120.5t123.5 80.5t152 29.5q82 0 153 -29t123 -80t81.5 -120t29.5 -148q0 -81 -30.5 -150.5t-83 -120.5t-123.5 -80t-152 -29z" />
    <glyph glyph-name="ordfeminine" unicode="&#xaa;" horiz-adv-x="495" 
d="M168 287q-28 0 -53.5 7t-45 22t-31 39t-11.5 57q0 74 54 103.5t166 29.5h37v13q0 21 -7.5 34.5t-32.5 13.5q-23 0 -32 -13t-11 -27h-160q5 76 60.5 116.5t151.5 40.5q97 0 149 -39.5t52 -120.5v-265h-166v47q-11 -20 -39.5 -39t-80.5 -19zM233 401q23 0 37 11.5t14 30.5
v18h-31q-32 0 -44.5 -7.5t-12.5 -24.5q0 -28 37 -28z" />
    <glyph glyph-name="guillemotleft" unicode="&#xab;" horiz-adv-x="477" 
d="M25 261l124 194h121l-119 -194l119 -194h-121zM206 261l124 194h121l-119 -194l119 -194h-121z" />
    <glyph glyph-name="registered" unicode="&#xae;" horiz-adv-x="517" 
d="M172 615h91q93 0 93 -72v-1q0 -23 -9.5 -36.5t-25.5 -21.5l48 -88h-76l-38 73h-10v-73h-73v219zM259 516q26 0 26 22v1q0 20 -26 20h-14v-43h14zM259 320q39 0 73 13.5t59 37.5t39 57.5t14 74.5q0 40 -13.5 74t-38.5 58t-59 37.5t-74 13.5q-41 0 -75 -13.5t-59 -38
t-38.5 -58.5t-13.5 -74q0 -41 14.5 -74.5t39.5 -57.5t59 -37t73 -13zM259 280q-48 0 -90 17t-73.5 47t-49.5 70.5t-18 87.5q0 46 18 87t49 71.5t73.5 48t90.5 17.5q49 0 91 -17.5t73 -47.5t48.5 -71t17.5 -87q0 -47 -18 -88t-49 -71t-73 -47t-90 -17z" />
    <glyph glyph-name="macron" unicode="&#xaf;" horiz-adv-x="400" 
d="M42 712h316v-107h-316v107z" />
    <glyph glyph-name="degree" unicode="&#xb0;" horiz-adv-x="457" 
d="M230 448q40 0 65 29t25 72q0 45 -25 74t-65 29q-42 0 -67.5 -29t-25.5 -74q0 -43 25.5 -72t67.5 -29zM230 376q-38 0 -70.5 14t-57 37.5t-38.5 55t-14 66.5q0 36 14 68t38.5 55.5t57 37.5t70.5 14q36 0 68.5 -14t56.5 -37.5t38 -55.5t14 -68q0 -35 -14 -66.5t-38 -55
t-56.5 -37.5t-68.5 -14z" />
    <glyph glyph-name="plusminus" unicode="&#xb1;" horiz-adv-x="579" 
d="M211 343h-173v142h173v162h157v-162h174v-142h-174v-161h-157v161zM38 126h507v-126h-507v126z" />
    <glyph glyph-name="twosuperior" unicode="&#xb2;" horiz-adv-x="366" 
d="M4 351l129 132q32 33 51 57t19 46q0 14 -6.5 22t-21.5 8q-30 0 -36 -51h-131q2 78 49 117t126 39q83 0 122 -36t39 -88q0 -40 -22 -71.5t-56 -63.5l-28 -26h108v-103h-342v18z" />
    <glyph glyph-name="threesuperior" unicode="&#xb3;" horiz-adv-x="385" 
d="M193 326q-47 0 -80 10.5t-54 28.5t-31 43t-11 55h127q2 -16 11 -27t29 -11q34 0 34 31q0 29 -41 29h-31v79h31q43 0 43 31q0 27 -31 27q-32 0 -38 -35h-126q5 58 46 96t122 38q77 0 119.5 -28t42.5 -79q0 -32 -18 -53t-51 -29q34 -5 55.5 -27t21.5 -55q0 -55 -41.5 -89.5
t-128.5 -34.5z" />
    <glyph glyph-name="acute" unicode="&#xb4;" horiz-adv-x="400" 
d="M175 747h193l-104 -169h-141z" />
    <glyph glyph-name="paragraph" unicode="&#xb6;" horiz-adv-x="544" 
d="M253 326h-7q-101 0 -161 47.5t-60 143.5q0 50 16 87.5t45.5 62t70 36.5t89.5 12h232v-815h-76v750h-74v-750h-75v426z" />
    <glyph glyph-name="periodcentered" unicode="&#xb7;" horiz-adv-x="302" 
d="M150 219q-24 0 -44 8.5t-34.5 22.5t-23 33.5t-8.5 42.5q0 22 8.5 42t23 34.5t34.5 23t44 8.5t44.5 -8.5t35.5 -23t23.5 -34.5t8.5 -42q0 -23 -8.5 -42.5t-23.5 -33.5t-35.5 -22.5t-44.5 -8.5z" />
    <glyph glyph-name="cedilla" unicode="&#xb8;" horiz-adv-x="400" 
d="M203 -228q-57 0 -90.5 24t-41.5 70h90q2 -10 10 -18t25 -8q14 0 22 8t8 21t-8 21.5t-25 8.5q-22 0 -32 -12l-40 41l48 72h76l-31 -44q22 2 43 -2t36.5 -14.5t25 -28t9.5 -42.5q0 -46 -34 -71.5t-91 -25.5z" />
    <glyph glyph-name="onesuperior" unicode="&#xb9;" horiz-adv-x="297" 
d="M102 576l-83 -45v116l104 68h124v-382h-145v243z" />
    <glyph glyph-name="ordmasculine" unicode="&#xba;" horiz-adv-x="527" 
d="M264 413q32 0 46 22.5t14 67.5v6q0 44 -14 66.5t-46 22.5q-61 0 -61 -87v-6q0 -92 61 -92zM263 287q-49 0 -92 13.5t-74.5 40t-50 66t-18.5 91.5v6q0 52 18.5 92.5t50 68.5t74.5 43t93 15q49 0 92 -14.5t75 -41.5t50 -66.5t18 -90.5v-6q0 -52 -18.5 -92.5t-50.5 -68
t-75 -42t-92 -14.5z" />
    <glyph glyph-name="guillemotright" unicode="&#xbb;" horiz-adv-x="477" 
d="M145 261l-119 194h121l124 -194l-124 -194h-121zM325 261l-119 194h121l124 -194l-124 -194h-121z" />
    <glyph glyph-name="onequarter" unicode="&#xbc;" horiz-adv-x="818" 
d="M105 576l-83 -45v116l104 68h124v-382h-145v243zM639 715h99l-569 -715h-100zM607 70h-190v54l157 258h172v-218h48v-94h-48v-70h-139v70zM611 164v124l-72 -124h72z" />
    <glyph glyph-name="onehalf" unicode="&#xbd;" horiz-adv-x="830" 
d="M105 576l-83 -45v116l104 68h124v-382h-145v243zM624 715h99l-569 -715h-100zM464 18l129 132q32 33 51 57t19 46q0 14 -6.5 22t-21.5 8q-30 0 -36 -51h-131q2 78 49 117t126 39q83 0 122 -36t39 -88q0 -40 -22 -71.5t-56 -63.5l-28 -26h108v-103h-342v18z" />
    <glyph glyph-name="threequarters" unicode="&#xbe;" horiz-adv-x="852" 
d="M196 326q-47 0 -80 10.5t-54 28.5t-31 43t-11 55h127q2 -16 11 -27t29 -11q34 0 34 31q0 29 -41 29h-31v79h31q43 0 43 31q0 27 -31 27q-32 0 -38 -35h-126q5 58 46 96t122 38q77 0 119.5 -28t42.5 -79q0 -32 -18 -53t-51 -29q34 -5 55.5 -27t21.5 -55q0 -55 -41.5 -89.5
t-128.5 -34.5zM688 715h99l-569 -715h-100zM640 70h-190v54l157 258h172v-218h48v-94h-48v-70h-139v70zM644 164v124l-72 -124h72z" />
    <glyph glyph-name="questiondown" unicode="&#xbf;" horiz-adv-x="570" 
d="M402.01 345.016q0 -27.998 -8.99902 -51.9971q-8.99902 -23.998 -22.999 -43.9971q-13.999 -19.999 -30.998 -36.998t-33.998 -32.998q-25.998 -23.998 -44.9971 -45.9971t-18.999 -47.9971q0 -51.9971 52.9971 -51.9971q27.998 0 45.9971 20.999t22.999 58.9961h191.988
q-2 -58.9961 -22.999 -103.993q-20.998 -44.9971 -57.4961 -74.9951q-36.498 -29.999 -86.4951 -45.498t-109.993 -15.499q-118.992 0 -184.988 49.4971t-65.9961 143.491q0 47.9971 19.499 82.9951q19.498 34.998 48.4971 63.9961q18.998 18.999 38.4971 35.998
t36.498 33.498t28.998 32.498t15.999 33.998v8.99902h186.988v-12.999zM308.016 610.999q23.999 0 45.4971 -7.99902q21.499 -8 36.998 -22.499t24.499 -33.498q8.99902 -18.999 8.99902 -40.9971q0 -21.999 -8.99902 -41.498q-9 -19.498 -24.499 -33.498
q-15.499 -13.999 -36.998 -22.498q-21.498 -8.5 -45.4971 -8.5q-23.998 0 -44.4971 8.5q-20.499 8.49902 -35.998 22.498q-15.499 14 -24.498 33.498q-9 19.499 -9 41.498q0 21.998 9 40.9971q8.99902 18.999 24.498 33.498t35.998 22.499q20.499 7.99902 44.4971 7.99902z
" />
    <glyph glyph-name="Agrave" unicode="&#xc0;" horiz-adv-x="760" 
d="M234 715h293l224 -715h-240l-33 119h-226l-32 -119h-211zM295 273h141l-70 259zM212 906h202l47 -149h-149z" />
    <glyph glyph-name="Aacute" unicode="&#xc1;" horiz-adv-x="760" 
d="M234 715h293l224 -715h-240l-33 119h-226l-32 -119h-211zM295 273h141l-70 259zM346 906h201l-103 -149h-149z" />
    <glyph glyph-name="Acircumflex" unicode="&#xc2;" horiz-adv-x="760" 
d="M234 715h293l224 -715h-240l-33 119h-226l-32 -119h-211zM295 273h141l-70 259zM298 906h164l110 -149h-142l-54 47l-54 -47h-139z" />
    <glyph glyph-name="Atilde" unicode="&#xc3;" horiz-adv-x="760" 
d="M234 715h293l224 -715h-240l-33 119h-226l-32 -119h-211zM295 273h141l-70 259zM444 755q-22 0 -39 5t-31.5 11t-26.5 11t-24 5t-20 -8t-10 -22h-109q3 42 14 72t28 49.5t38.5 29t45.5 9.5q21 0 38 -5t32 -11t28 -11t26 -5t20 8t9 22h110q-3 -42 -15 -72t-29.5 -49.5
t-39.5 -29t-45 -9.5z" />
    <glyph glyph-name="Adieresis" unicode="&#xc4;" horiz-adv-x="760" 
d="M234 715h293l224 -715h-240l-33 119h-226l-32 -119h-211zM295 273h141l-70 259zM264 752q-19 0 -35.5 7t-29 19t-19.5 28.5t-7 34.5q0 19 7 35t19.5 28t29 19t35.5 7t36 -7t29.5 -19t19.5 -28t7 -35q0 -18 -7 -34.5t-19.5 -28.5t-29.5 -19t-36 -7zM491 752q-19 0 -35.5 7
t-29 19t-19.5 28.5t-7 34.5q0 19 7 35t19.5 28t29 19t35.5 7t36 -7t29.5 -19t19.5 -28t7 -35q0 -18 -7 -34.5t-19.5 -28.5t-29.5 -19t-36 -7z" />
    <glyph glyph-name="Aring" unicode="&#xc5;" horiz-adv-x="760" 
d="M234 715h293l224 -715h-240l-33 119h-226l-32 -119h-211zM295 273h141l-70 259zM378 810q20 0 32.5 14t12.5 36q0 23 -12.5 36.5t-32.5 13.5t-32.5 -13.5t-12.5 -36.5q0 -22 12.5 -36t32.5 -14zM378 742q-25 0 -47.5 9.5t-39 25.5t-26 37.5t-9.5 45.5t9.5 45.5t26 37.5
t39 25.5t47.5 9.5t47.5 -9.5t39 -25.5t26 -37.5t9.5 -45.5t-9.5 -45.5t-26 -37.5t-39 -25.5t-47.5 -9.5z" />
    <glyph glyph-name="AE" unicode="&#xc6;" horiz-adv-x="1012" 
d="M320 715h645v-174h-275v-101h217v-159h-217v-107h291v-174h-516v135h-187l-56 -135h-215zM340 285h125v256h-18z" />
    <glyph glyph-name="Ccedilla" unicode="&#xc7;" horiz-adv-x="764" 
d="M379 -228q-57 0 -90.5 24t-41.5 70h90q2 -10 10 -18t25 -8q14 0 22 8t8 21t-8 21.5t-25 8.5q-22 0 -32 -12l-40 41l42 63q-79 9 -137.5 38.5t-97 76.5t-57.5 109.5t-19 137.5v8q0 83 28 150.5t77.5 115t117.5 73.5t147 26q72 0 132 -17t104 -51.5t71 -87.5t33 -126h-234
q-5 50 -31 76.5t-74 26.5q-62 0 -97 -47t-35 -138v-8q0 -90 35 -137.5t101 -47.5q48 0 80 25.5t38 79.5h226q-5 -70 -31.5 -123.5t-70.5 -89.5t-103.5 -54.5t-129.5 -19.5l-22 -31q22 2 43 -2t36.5 -14.5t25 -28t9.5 -42.5q0 -46 -34 -71.5t-91 -25.5z" />
    <glyph glyph-name="Egrave" unicode="&#xc8;" horiz-adv-x="620" 
d="M65 715h508v-174h-282v-101h224v-159h-224v-107h298v-174h-524v715zM161 906h202l47 -149h-149z" />
    <glyph glyph-name="Eacute" unicode="&#xc9;" horiz-adv-x="620" 
d="M65 715h508v-174h-282v-101h224v-159h-224v-107h298v-174h-524v715zM295 906h201l-103 -149h-149z" />
    <glyph glyph-name="Ecircumflex" unicode="&#xca;" horiz-adv-x="620" 
d="M65 715h508v-174h-282v-101h224v-159h-224v-107h298v-174h-524v715zM247 906h164l110 -149h-142l-54 47l-54 -47h-139z" />
    <glyph glyph-name="Edieresis" unicode="&#xcb;" horiz-adv-x="620" 
d="M65 715h508v-174h-282v-101h224v-159h-224v-107h298v-174h-524v715zM213 752q-19 0 -35.5 7t-29 19t-19.5 28.5t-7 34.5q0 19 7 35t19.5 28t29 19t35.5 7t36 -7t29.5 -19t19.5 -28t7 -35q0 -18 -7 -34.5t-19.5 -28.5t-29.5 -19t-36 -7zM440 752q-19 0 -35.5 7t-29 19
t-19.5 28.5t-7 34.5q0 19 7 35t19.5 28t29 19t35.5 7t36 -7t29.5 -19t19.5 -28t7 -35q0 -18 -7 -34.5t-19.5 -28.5t-29.5 -19t-36 -7z" />
    <glyph glyph-name="Igrave" unicode="&#xcc;" horiz-adv-x="366" 
d="M68 715h229v-715h-229v715zM17 906h202l47 -149h-149z" />
    <glyph glyph-name="Iacute" unicode="&#xcd;" horiz-adv-x="366" 
d="M68 715h229v-715h-229v715zM151 906h201l-103 -149h-149z" />
    <glyph glyph-name="Icircumflex" unicode="&#xce;" horiz-adv-x="366" 
d="M68 715h229v-715h-229v715zM103 906h164l110 -149h-142l-54 47l-54 -47h-139z" />
    <glyph glyph-name="Idieresis" unicode="&#xcf;" horiz-adv-x="366" 
d="M68 715h229v-715h-229v715zM69 752q-19 0 -35.5 7t-29 19t-19.5 28.5t-7 34.5q0 19 7 35t19.5 28t29 19t35.5 7t36 -7t29.5 -19t19.5 -28t7 -35q0 -18 -7 -34.5t-19.5 -28.5t-29.5 -19t-36 -7zM296 752q-19 0 -35.5 7t-29 19t-19.5 28.5t-7 34.5q0 19 7 35t19.5 28t29 19
t35.5 7t36 -7t29.5 -19t19.5 -28t7 -35q0 -18 -7 -34.5t-19.5 -28.5t-29.5 -19t-36 -7z" />
    <glyph glyph-name="Eth" unicode="&#xd0;" horiz-adv-x="785" 
d="M29 435h54v280h273q193 0 290 -89t97 -260v-7q0 -172 -98 -265.5t-289 -93.5h-273v284h-54v151zM349 174q84 0 120.5 43t36.5 137v8q0 98 -38.5 138.5t-120.5 40.5h-41v-106h104v-151h-104v-110h43z" />
    <glyph glyph-name="Ntilde" unicode="&#xd1;" horiz-adv-x="787" 
d="M65 715h254l203 -378v378h199v-715h-217l-239 428v-428h-200v715zM479 755q-22 0 -39 5t-31.5 11t-26.5 11t-24 5t-20 -8t-10 -22h-109q3 42 14 72t28 49.5t38.5 29t45.5 9.5q21 0 38 -5t32 -11t28 -11t26 -5t20 8t9 22h110q-3 -42 -15 -72t-29.5 -49.5t-39.5 -29
t-45 -9.5z" />
    <glyph glyph-name="Ograve" unicode="&#xd2;" horiz-adv-x="820" 
d="M411 165q67 0 106.5 49.5t39.5 139.5v8q0 91 -40 139t-108 48q-66 0 -105.5 -47.5t-39.5 -139.5v-8q0 -92 39.5 -140.5t107.5 -48.5zM405 -13q-88 0 -158 26.5t-119 75t-75 116t-26 148.5v8q0 83 29.5 150.5t81 115t121.5 73.5t150 26q82 0 152.5 -24.5t122 -70.5
t80.5 -112.5t29 -151.5v-8q0 -84 -27.5 -152.5t-78.5 -117t-122.5 -75.5t-159.5 -27zM243 906h202l47 -149h-149z" />
    <glyph glyph-name="Oacute" unicode="&#xd3;" horiz-adv-x="820" 
d="M411 165q67 0 106.5 49.5t39.5 139.5v8q0 91 -40 139t-108 48q-66 0 -105.5 -47.5t-39.5 -139.5v-8q0 -92 39.5 -140.5t107.5 -48.5zM405 -13q-88 0 -158 26.5t-119 75t-75 116t-26 148.5v8q0 83 29.5 150.5t81 115t121.5 73.5t150 26q82 0 152.5 -24.5t122 -70.5
t80.5 -112.5t29 -151.5v-8q0 -84 -27.5 -152.5t-78.5 -117t-122.5 -75.5t-159.5 -27zM377 906h201l-103 -149h-149z" />
    <glyph glyph-name="Ocircumflex" unicode="&#xd4;" horiz-adv-x="820" 
d="M411 165q67 0 106.5 49.5t39.5 139.5v8q0 91 -40 139t-108 48q-66 0 -105.5 -47.5t-39.5 -139.5v-8q0 -92 39.5 -140.5t107.5 -48.5zM405 -13q-88 0 -158 26.5t-119 75t-75 116t-26 148.5v8q0 83 29.5 150.5t81 115t121.5 73.5t150 26q82 0 152.5 -24.5t122 -70.5
t80.5 -112.5t29 -151.5v-8q0 -84 -27.5 -152.5t-78.5 -117t-122.5 -75.5t-159.5 -27zM329 906h164l110 -149h-142l-54 47l-54 -47h-139z" />
    <glyph glyph-name="Otilde" unicode="&#xd5;" horiz-adv-x="820" 
d="M411 165q67 0 106.5 49.5t39.5 139.5v8q0 91 -40 139t-108 48q-66 0 -105.5 -47.5t-39.5 -139.5v-8q0 -92 39.5 -140.5t107.5 -48.5zM405 -13q-88 0 -158 26.5t-119 75t-75 116t-26 148.5v8q0 83 29.5 150.5t81 115t121.5 73.5t150 26q82 0 152.5 -24.5t122 -70.5
t80.5 -112.5t29 -151.5v-8q0 -84 -27.5 -152.5t-78.5 -117t-122.5 -75.5t-159.5 -27zM475 755q-22 0 -39 5t-31.5 11t-26.5 11t-24 5t-20 -8t-10 -22h-109q3 42 14 72t28 49.5t38.5 29t45.5 9.5q21 0 38 -5t32 -11t28 -11t26 -5t20 8t9 22h110q-3 -42 -15 -72t-29.5 -49.5
t-39.5 -29t-45 -9.5z" />
    <glyph glyph-name="Odieresis" unicode="&#xd6;" horiz-adv-x="820" 
d="M411 165q67 0 106.5 49.5t39.5 139.5v8q0 91 -40 139t-108 48q-66 0 -105.5 -47.5t-39.5 -139.5v-8q0 -92 39.5 -140.5t107.5 -48.5zM405 -13q-88 0 -158 26.5t-119 75t-75 116t-26 148.5v8q0 83 29.5 150.5t81 115t121.5 73.5t150 26q82 0 152.5 -24.5t122 -70.5
t80.5 -112.5t29 -151.5v-8q0 -84 -27.5 -152.5t-78.5 -117t-122.5 -75.5t-159.5 -27zM295 752q-19 0 -35.5 7t-29 19t-19.5 28.5t-7 34.5q0 19 7 35t19.5 28t29 19t35.5 7t36 -7t29.5 -19t19.5 -28t7 -35q0 -18 -7 -34.5t-19.5 -28.5t-29.5 -19t-36 -7zM522 752
q-19 0 -35.5 7t-29 19t-19.5 28.5t-7 34.5q0 19 7 35t19.5 28t29 19t35.5 7t36 -7t29.5 -19t19.5 -28t7 -35q0 -18 -7 -34.5t-19.5 -28.5t-29.5 -19t-36 -7z" />
    <glyph glyph-name="multiply" unicode="&#xd7;" horiz-adv-x="589" 
d="M40 185l152 152l-155 154l103 104l154 -156l153 152l102 -102l-152 -152l155 -154l-104 -104l-154 156l-152 -152z" />
    <glyph glyph-name="Oslash" unicode="&#xd8;" horiz-adv-x="820" 
d="M34 23l78 82q-42 48 -63.5 110.5t-21.5 137.5v8q0 83 29.5 150t81 114.5t121.5 73.5t150 26q66 0 124.5 -16t106.5 -46l73 78l57 -56l-68 -72q44 -45 68 -106.5t24 -139.5v-8q0 -84 -27.5 -152.5t-78.5 -117t-123 -75.5t-160 -27q-70 0 -128.5 16.5t-104.5 48.5l-81 -85z
M410 165q69 0 109 49.5t40 140.5v8q0 48 -12 86l-235 -248q37 -36 98 -36zM261 354q0 -48 10 -81l231 245q-39 31 -93 31q-68 0 -108 -47t-40 -140v-8z" />
    <glyph glyph-name="Ugrave" unicode="&#xd9;" horiz-adv-x="776" 
d="M388 -13q-158 0 -242.5 77t-84.5 231v420h226v-411q0 -35 4.5 -61t15.5 -43.5t31 -26t50 -8.5q60 0 80 34.5t20 105.5v410h228v-418q0 -81 -23 -139.5t-66 -96.5t-103.5 -56t-135.5 -18zM220 906h202l47 -149h-149z" />
    <glyph glyph-name="Uacute" unicode="&#xda;" horiz-adv-x="776" 
d="M388 -13q-158 0 -242.5 77t-84.5 231v420h226v-411q0 -35 4.5 -61t15.5 -43.5t31 -26t50 -8.5q60 0 80 34.5t20 105.5v410h228v-418q0 -81 -23 -139.5t-66 -96.5t-103.5 -56t-135.5 -18zM354 906h201l-103 -149h-149z" />
    <glyph glyph-name="Ucircumflex" unicode="&#xdb;" horiz-adv-x="776" 
d="M388 -13q-158 0 -242.5 77t-84.5 231v420h226v-411q0 -35 4.5 -61t15.5 -43.5t31 -26t50 -8.5q60 0 80 34.5t20 105.5v410h228v-418q0 -81 -23 -139.5t-66 -96.5t-103.5 -56t-135.5 -18zM306 906h164l110 -149h-142l-54 47l-54 -47h-139z" />
    <glyph glyph-name="Udieresis" unicode="&#xdc;" horiz-adv-x="776" 
d="M388 -13q-158 0 -242.5 77t-84.5 231v420h226v-411q0 -35 4.5 -61t15.5 -43.5t31 -26t50 -8.5q60 0 80 34.5t20 105.5v410h228v-418q0 -81 -23 -139.5t-66 -96.5t-103.5 -56t-135.5 -18zM272 752q-19 0 -35.5 7t-29 19t-19.5 28.5t-7 34.5q0 19 7 35t19.5 28t29 19
t35.5 7t36 -7t29.5 -19t19.5 -28t7 -35q0 -18 -7 -34.5t-19.5 -28.5t-29.5 -19t-36 -7zM499 752q-19 0 -35.5 7t-29 19t-19.5 28.5t-7 34.5q0 19 7 35t19.5 28t29 19t35.5 7t36 -7t29.5 -19t19.5 -28t7 -35q0 -18 -7 -34.5t-19.5 -28.5t-29.5 -19t-36 -7z" />
    <glyph glyph-name="Yacute" unicode="&#xdd;" horiz-adv-x="692" 
d="M237 305l-232 410h246l109 -224l110 224h217l-222 -409v-306h-228v305zM321 906h201l-103 -149h-149z" />
    <glyph glyph-name="Thorn" unicode="&#xde;" horiz-adv-x="664" 
d="M65 715h226v-114h59q155 0 224.5 -58.5t69.5 -175.5v-4q0 -112 -72 -172.5t-212 -60.5h-69v-130h-226v715zM338 282q91 0 91 80v4q0 41 -22.5 58.5t-67.5 17.5h-48v-160h47z" />
    <glyph glyph-name="germandbls" unicode="&#xdf;" horiz-adv-x="644" 
d="M389 -10q-33 0 -57.5 3t-39.5 7v147q8 -3 18.5 -5.5t24.5 -2.5q18 0 34 5t28.5 18t19.5 34t7 53v6q0 35 -9.5 57t-26.5 34.5t-40.5 17t-51.5 4.5v137q44 1 64.5 22.5t20.5 48.5v2q0 30 -17 47.5t-49 17.5q-33 0 -52 -22t-19 -64v-557h-197v540q0 63 22.5 106.5t60.5 71
t89 40t108 12.5q111 0 175.5 -45.5t64.5 -137.5v-2q0 -53 -33.5 -88.5t-84.5 -50.5q34 -8 66 -23.5t56 -41t38.5 -60.5t14.5 -80v-7q0 -60 -17.5 -106t-48.5 -76.5t-74 -46t-95 -15.5z" />
    <glyph glyph-name="agrave" unicode="&#xe0;" horiz-adv-x="585" 
d="M198 -13q-35 0 -67.5 9t-57 28t-39 49t-14.5 72q0 92 72.5 131.5t208.5 39.5h45v9q0 16 -2 30t-8.5 24.5t-18.5 16t-32 5.5q-34 0 -47 -18t-15 -38h-184q3 48 22.5 84t53 60.5t80 36.5t102.5 12q114 0 179 -48.5t65 -151.5v-338h-190v60q-8 -14 -21 -27t-32 -23
t-43.5 -16.5t-56.5 -6.5zM269 119q34 0 55.5 17.5t21.5 46.5v27h-42q-50 0 -70 -11t-20 -39q0 -19 14 -30t41 -11zM125 747h193l52 -169h-141z" />
    <glyph glyph-name="aacute" unicode="&#xe1;" horiz-adv-x="585" 
d="M198 -13q-35 0 -67.5 9t-57 28t-39 49t-14.5 72q0 92 72.5 131.5t208.5 39.5h45v9q0 16 -2 30t-8.5 24.5t-18.5 16t-32 5.5q-34 0 -47 -18t-15 -38h-184q3 48 22.5 84t53 60.5t80 36.5t102.5 12q114 0 179 -48.5t65 -151.5v-338h-190v60q-8 -14 -21 -27t-32 -23
t-43.5 -16.5t-56.5 -6.5zM269 119q34 0 55.5 17.5t21.5 46.5v27h-42q-50 0 -70 -11t-20 -39q0 -19 14 -30t41 -11zM272 747h193l-104 -169h-141z" />
    <glyph glyph-name="acircumflex" unicode="&#xe2;" horiz-adv-x="585" 
d="M198 -13q-35 0 -67.5 9t-57 28t-39 49t-14.5 72q0 92 72.5 131.5t208.5 39.5h45v9q0 16 -2 30t-8.5 24.5t-18.5 16t-32 5.5q-34 0 -47 -18t-15 -38h-184q3 48 22.5 84t53 60.5t80 36.5t102.5 12q114 0 179 -48.5t65 -151.5v-338h-190v60q-8 -14 -21 -27t-32 -23
t-43.5 -16.5t-56.5 -6.5zM269 119q34 0 55.5 17.5t21.5 46.5v27h-42q-50 0 -70 -11t-20 -39q0 -19 14 -30t41 -11zM225 746h138l120 -166h-137l-56 53l-56 -53h-134z" />
    <glyph glyph-name="atilde" unicode="&#xe3;" horiz-adv-x="585" 
d="M198 -13q-35 0 -67.5 9t-57 28t-39 49t-14.5 72q0 92 72.5 131.5t208.5 39.5h45v9q0 16 -2 30t-8.5 24.5t-18.5 16t-32 5.5q-34 0 -47 -18t-15 -38h-184q3 48 22.5 84t53 60.5t80 36.5t102.5 12q114 0 179 -48.5t65 -151.5v-338h-190v60q-8 -14 -21 -27t-32 -23
t-43.5 -16.5t-56.5 -6.5zM269 119q34 0 55.5 17.5t21.5 46.5v27h-42q-50 0 -70 -11t-20 -39q0 -19 14 -30t41 -11zM361 581q-22 0 -39 5t-31 11t-25.5 11t-22.5 5q-12 0 -20 -8.5t-10 -21.5h-104q5 83 37.5 122.5t80.5 39.5q21 0 37.5 -5t31 -11t27.5 -11t25 -5q25 0 30 31
h104q-3 -42 -13.5 -72.5t-26.5 -50.5t-37 -30t-44 -10z" />
    <glyph glyph-name="adieresis" unicode="&#xe4;" horiz-adv-x="585" 
d="M198 -13q-35 0 -67.5 9t-57 28t-39 49t-14.5 72q0 92 72.5 131.5t208.5 39.5h45v9q0 16 -2 30t-8.5 24.5t-18.5 16t-32 5.5q-34 0 -47 -18t-15 -38h-184q3 48 22.5 84t53 60.5t80 36.5t102.5 12q114 0 179 -48.5t65 -151.5v-338h-190v60q-8 -14 -21 -27t-32 -23
t-43.5 -16.5t-56.5 -6.5zM269 119q34 0 55.5 17.5t21.5 46.5v27h-42q-50 0 -70 -11t-20 -39q0 -19 14 -30t41 -11zM186 570q-19 0 -35.5 7t-29 19t-19.5 28.5t-7 34.5t7 34.5t19.5 28.5t29 19t35.5 7t36 -7t29.5 -19t19.5 -28.5t7 -34.5t-7 -34.5t-19.5 -28.5t-29.5 -19
t-36 -7zM403 570q-19 0 -35.5 7t-28.5 19t-19 28.5t-7 34.5t7 34.5t19 28.5t28.5 19t35.5 7q39 0 65.5 -26t26.5 -63t-26.5 -63t-65.5 -26z" />
    <glyph glyph-name="aring" unicode="&#xe5;" horiz-adv-x="585" 
d="M198 -13q-35 0 -67.5 9t-57 28t-39 49t-14.5 72q0 92 72.5 131.5t208.5 39.5h45v9q0 16 -2 30t-8.5 24.5t-18.5 16t-32 5.5q-34 0 -47 -18t-15 -38h-184q3 48 22.5 84t53 60.5t80 36.5t102.5 12q114 0 179 -48.5t65 -151.5v-338h-190v60q-8 -14 -21 -27t-32 -23
t-43.5 -16.5t-56.5 -6.5zM269 119q34 0 55.5 17.5t21.5 46.5v27h-42q-50 0 -70 -11t-20 -39q0 -19 14 -30t41 -11zM295 642q20 0 32 13.5t12 34.5q0 22 -12 35.5t-32 13.5t-32 -13.5t-12 -35.5q0 -21 12 -34.5t32 -13.5zM295 574q-25 0 -46.5 9t-38 25t-26 37t-9.5 45
t9.5 45.5t26 37t38 25t46.5 9.5t46.5 -9.5t38 -25t26 -37t9.5 -45.5t-9.5 -45t-26 -37t-38 -25t-46.5 -9z" />
    <glyph glyph-name="ae" unicode="&#xe6;" horiz-adv-x="913" 
d="M626 -13q-141 0 -206 88q-31 -41 -78.5 -64.5t-124.5 -23.5q-41 0 -77 9t-63 28t-42.5 49t-15.5 72q0 92 72 133t208 41h49v6q0 34 -12 55t-51 21q-34 0 -47 -16t-16 -40h-184q3 48 22.5 84t53 60.5t79 36.5t99.5 12q118 0 166 -57q65 57 165 57q55 0 103.5 -16t85.5 -49
t58.5 -84.5t21.5 -122.5v-47h-357q8 -98 94 -98q42 0 59 16.5t22 39.5h182q-11 -91 -78 -140.5t-188 -49.5zM703 319q-2 44 -21.5 68t-58.5 24q-36 0 -59 -23.5t-28 -68.5h167zM269 119q37 0 58 17.5t21 46.5v33h-46q-46 0 -67.5 -11t-21.5 -40q0 -46 56 -46z" />
    <glyph glyph-name="ccedilla" unicode="&#xe7;" horiz-adv-x="586" 
d="M280 -228q-57 0 -90.5 24t-41.5 70h90q2 -10 10 -18t25 -8q14 0 22 8t8 21t-8 21.5t-25 8.5q-22 0 -32 -12l-40 41l42 64q-48 7 -88 27t-69 53t-45 78.5t-16 103.5v8q0 67 22 118t60.5 86t90 53t110.5 18q49 0 94.5 -11.5t81.5 -37t59 -68t27 -103.5h-185
q-5 32 -20.5 50.5t-51.5 18.5q-88 0 -88 -120v-8q0 -64 21.5 -96t69.5 -32q34 0 55 20.5t25 58.5h177q-4 -99 -68 -159t-189 -63l-22 -31q22 2 43 -2t36.5 -14.5t25 -28t9.5 -42.5q0 -46 -34 -71.5t-91 -25.5z" />
    <glyph glyph-name="egrave" unicode="&#xe8;" horiz-adv-x="604" 
d="M311 -13q-63 0 -116 17.5t-91.5 51.5t-60.5 84t-22 115v8q0 64 23 115t62 86.5t92 54.5t113 19q55 0 104.5 -16t86.5 -49.5t59 -85t22 -121.5v-48h-363q4 -48 30 -72.5t68 -24.5t59.5 16.5t22.5 39.5h184q-12 -91 -80 -140.5t-193 -49.5zM393 321q-2 42 -22 66t-60 24
q-36 0 -60 -22.5t-30 -67.5h172zM136 747h193l52 -169h-141z" />
    <glyph glyph-name="eacute" unicode="&#xe9;" horiz-adv-x="604" 
d="M311 -13q-63 0 -116 17.5t-91.5 51.5t-60.5 84t-22 115v8q0 64 23 115t62 86.5t92 54.5t113 19q55 0 104.5 -16t86.5 -49.5t59 -85t22 -121.5v-48h-363q4 -48 30 -72.5t68 -24.5t59.5 16.5t22.5 39.5h184q-12 -91 -80 -140.5t-193 -49.5zM393 321q-2 42 -22 66t-60 24
q-36 0 -60 -22.5t-30 -67.5h172zM283 747h193l-104 -169h-141z" />
    <glyph glyph-name="ecircumflex" unicode="&#xea;" horiz-adv-x="604" 
d="M311 -13q-63 0 -116 17.5t-91.5 51.5t-60.5 84t-22 115v8q0 64 23 115t62 86.5t92 54.5t113 19q55 0 104.5 -16t86.5 -49.5t59 -85t22 -121.5v-48h-363q4 -48 30 -72.5t68 -24.5t59.5 16.5t22.5 39.5h184q-12 -91 -80 -140.5t-193 -49.5zM393 321q-2 42 -22 66t-60 24
q-36 0 -60 -22.5t-30 -67.5h172zM239 746h138l120 -166h-137l-56 53l-56 -53h-134z" />
    <glyph glyph-name="edieresis" unicode="&#xeb;" horiz-adv-x="604" 
d="M311 -13q-63 0 -116 17.5t-91.5 51.5t-60.5 84t-22 115v8q0 64 23 115t62 86.5t92 54.5t113 19q55 0 104.5 -16t86.5 -49.5t59 -85t22 -121.5v-48h-363q4 -48 30 -72.5t68 -24.5t59.5 16.5t22.5 39.5h184q-12 -91 -80 -140.5t-193 -49.5zM393 321q-2 42 -22 66t-60 24
q-36 0 -60 -22.5t-30 -67.5h172zM197 570q-19 0 -35.5 7t-29 19t-19.5 28.5t-7 34.5t7 34.5t19.5 28.5t29 19t35.5 7t36 -7t29.5 -19t19.5 -28.5t7 -34.5t-7 -34.5t-19.5 -28.5t-29.5 -19t-36 -7zM414 570q-19 0 -35.5 7t-28.5 19t-19 28.5t-7 34.5t7 34.5t19 28.5t28.5 19
t35.5 7q39 0 65.5 -26t26.5 -63t-26.5 -63t-65.5 -26z" />
    <glyph glyph-name="igrave" unicode="&#xec;" horiz-adv-x="303" 
d="M53 523h196v-523h-196v523zM-18 747h193l52 -169h-141z" />
    <glyph glyph-name="iacute" unicode="&#xed;" horiz-adv-x="303" 
d="M53 523h196v-523h-196v523zM129 747h193l-104 -169h-141z" />
    <glyph glyph-name="icircumflex" unicode="&#xee;" horiz-adv-x="303" 
d="M53 523h196v-523h-196v523zM85 746h138l120 -166h-137l-56 53l-56 -53h-134z" />
    <glyph glyph-name="idieresis" unicode="&#xef;" horiz-adv-x="303" 
d="M43 570q-19 0 -35.5 7t-29 19t-19.5 28.5t-7 34.5t7 34.5t19.5 28.5t29 19t35.5 7t36 -7t29.5 -19t19.5 -28.5t7 -34.5t-7 -34.5t-19.5 -28.5t-29.5 -19t-36 -7zM258 570q-38 0 -64 26t-26 63t26 63t64 26q39 0 65.5 -26t26.5 -63t-26.5 -63t-65.5 -26zM53 523h196v-523
h-196v523z" />
    <glyph glyph-name="eth" unicode="&#xf0;" horiz-adv-x="627" 
d="M101 618l111 37q-32 27 -63 50.5t-59 43.5h222q14 -8 29 -18.5t31 -21.5l111 38l23 -62l-73 -25q33 -30 64 -67t55 -81.5t38 -96t14 -110.5v-22q0 -69 -21 -124t-59.5 -93t-93 -58.5t-121.5 -20.5q-61 0 -113.5 18t-91.5 53.5t-61 87t-22 118.5v12q0 61 20.5 108.5
t53.5 79.5t74 48.5t83 16.5q38 0 60.5 -10.5t44.5 -32.5q-16 31 -39 60.5t-51 57.5l-143 -48zM314 132q45 0 67.5 32.5t22.5 93.5v8q0 62 -22 94t-68 32q-92 0 -92 -123v-8q0 -129 92 -129z" />
    <glyph glyph-name="ntilde" unicode="&#xf1;" horiz-adv-x="629" 
d="M47 523h197v-84q22 42 64.5 70t108.5 28q37 0 68 -12t53 -36t34.5 -60t12.5 -85v-344h-197v300q0 40 -15.5 60t-50.5 20q-37 0 -57.5 -22t-20.5 -69v-289h-197v523zM381 581q-22 0 -39 5t-31 11t-25.5 11t-22.5 5q-12 0 -20 -8.5t-10 -21.5h-104q5 83 37.5 122.5
t80.5 39.5q21 0 37.5 -5t31 -11t27.5 -11t25 -5q25 0 30 31h104q-3 -42 -13.5 -72.5t-26.5 -50.5t-37 -30t-44 -10z" />
    <glyph glyph-name="ograve" unicode="&#xf2;" horiz-adv-x="626" 
d="M314 132q90 0 90 127v7q0 62 -22 94t-68 32q-45 0 -69 -30.5t-24 -92.5v-8q0 -129 93 -129zM313 -13q-61 0 -114 17.5t-92.5 52t-62 84t-22.5 114.5v8q0 64 22.5 114.5t61.5 86t92.5 54.5t115.5 19q61 0 114 -18.5t92 -53t61.5 -84.5t22.5 -113v-8q0 -65 -22.5 -115.5
t-62 -85.5t-92.5 -53.5t-114 -18.5zM142 747h193l52 -169h-141z" />
    <glyph glyph-name="oacute" unicode="&#xf3;" horiz-adv-x="626" 
d="M314 132q90 0 90 127v7q0 62 -22 94t-68 32q-45 0 -69 -30.5t-24 -92.5v-8q0 -129 93 -129zM313 -13q-61 0 -114 17.5t-92.5 52t-62 84t-22.5 114.5v8q0 64 22.5 114.5t61.5 86t92.5 54.5t115.5 19q61 0 114 -18.5t92 -53t61.5 -84.5t22.5 -113v-8q0 -65 -22.5 -115.5
t-62 -85.5t-92.5 -53.5t-114 -18.5zM289 747h193l-104 -169h-141z" />
    <glyph glyph-name="ocircumflex" unicode="&#xf4;" horiz-adv-x="626" 
d="M314 132q90 0 90 127v7q0 62 -22 94t-68 32q-45 0 -69 -30.5t-24 -92.5v-8q0 -129 93 -129zM313 -13q-61 0 -114 17.5t-92.5 52t-62 84t-22.5 114.5v8q0 64 22.5 114.5t61.5 86t92.5 54.5t115.5 19q61 0 114 -18.5t92 -53t61.5 -84.5t22.5 -113v-8q0 -65 -22.5 -115.5
t-62 -85.5t-92.5 -53.5t-114 -18.5zM245 746h138l120 -166h-137l-56 53l-56 -53h-134z" />
    <glyph glyph-name="otilde" unicode="&#xf5;" horiz-adv-x="626" 
d="M314 132q90 0 90 127v7q0 62 -22 94t-68 32q-45 0 -69 -30.5t-24 -92.5v-8q0 -129 93 -129zM313 -13q-61 0 -114 17.5t-92.5 52t-62 84t-22.5 114.5v8q0 64 22.5 114.5t61.5 86t92.5 54.5t115.5 19q61 0 114 -18.5t92 -53t61.5 -84.5t22.5 -113v-8q0 -65 -22.5 -115.5
t-62 -85.5t-92.5 -53.5t-114 -18.5zM378 581q-22 0 -39 5t-31 11t-25.5 11t-22.5 5q-12 0 -20 -8.5t-10 -21.5h-104q5 83 37.5 122.5t80.5 39.5q21 0 37.5 -5t31 -11t27.5 -11t25 -5q25 0 30 31h104q-3 -42 -13.5 -72.5t-26.5 -50.5t-37 -30t-44 -10z" />
    <glyph glyph-name="odieresis" unicode="&#xf6;" horiz-adv-x="626" 
d="M314 132q90 0 90 127v7q0 62 -22 94t-68 32q-45 0 -69 -30.5t-24 -92.5v-8q0 -129 93 -129zM313 -13q-61 0 -114 17.5t-92.5 52t-62 84t-22.5 114.5v8q0 64 22.5 114.5t61.5 86t92.5 54.5t115.5 19q61 0 114 -18.5t92 -53t61.5 -84.5t22.5 -113v-8q0 -65 -22.5 -115.5
t-62 -85.5t-92.5 -53.5t-114 -18.5zM203 570q-19 0 -35.5 7t-29 19t-19.5 28.5t-7 34.5t7 34.5t19.5 28.5t29 19t35.5 7t36 -7t29.5 -19t19.5 -28.5t7 -34.5t-7 -34.5t-19.5 -28.5t-29.5 -19t-36 -7zM420 570q-19 0 -35.5 7t-28.5 19t-19 28.5t-7 34.5t7 34.5t19 28.5
t28.5 19t35.5 7q39 0 65.5 -26t26.5 -63t-26.5 -63t-65.5 -26z" />
    <glyph glyph-name="divide" unicode="&#xf7;" horiz-adv-x="582" 
d="M291 34q-42 0 -71 28t-29 70q0 20 8 38t21.5 31t31.5 20.5t39 7.5t39 -7.5t31.5 -20.5t21.5 -31t8 -38q0 -42 -29 -70t-71 -28zM38 407h507v-134h-507v134zM291 450q-21 0 -39 7.5t-31.5 20.5t-21.5 31t-8 38q0 42 29 70t71 28t71 -28t29 -70q0 -20 -8 -38t-21.5 -31
t-31.5 -20.5t-39 -7.5z" />
    <glyph glyph-name="oslash" unicode="&#xf8;" horiz-adv-x="626" 
d="M22 7l64 68q-31 34 -48 78.5t-17 101.5v8q0 64 22.5 115t62 86.5t93 54.5t115.5 19q95 0 167 -43l65 69l50 -46l-62 -66q33 -34 51.5 -80.5t18.5 -103.5v-8q0 -65 -22.5 -115.5t-62 -85.5t-92.5 -53.5t-114 -18.5q-49 0 -93 11t-80 34l-67 -71zM314 131q47 0 70 32.5
t23 94.5v8q0 13 -1 24t-3 22l-150 -160q22 -21 61 -21zM219 261q0 -23 3 -42l147 157q-23 17 -55 17q-95 0 -95 -124v-8z" />
    <glyph glyph-name="ugrave" unicode="&#xf9;" horiz-adv-x="628" 
d="M218 -13q-38 0 -70 12t-55 36t-36.5 60t-13.5 85v343h197v-309q0 -40 15.5 -60t50.5 -20q37 0 57.5 22t20.5 69v298h197v-523h-197v81q-22 -42 -61 -68t-105 -26zM142 747h193l52 -169h-141z" />
    <glyph glyph-name="uacute" unicode="&#xfa;" horiz-adv-x="628" 
d="M218 -13q-38 0 -70 12t-55 36t-36.5 60t-13.5 85v343h197v-309q0 -40 15.5 -60t50.5 -20q37 0 57.5 22t20.5 69v298h197v-523h-197v81q-22 -42 -61 -68t-105 -26zM289 747h193l-104 -169h-141z" />
    <glyph glyph-name="ucircumflex" unicode="&#xfb;" horiz-adv-x="628" 
d="M218 -13q-38 0 -70 12t-55 36t-36.5 60t-13.5 85v343h197v-309q0 -40 15.5 -60t50.5 -20q37 0 57.5 22t20.5 69v298h197v-523h-197v81q-22 -42 -61 -68t-105 -26zM245 746h138l120 -166h-137l-56 53l-56 -53h-134z" />
    <glyph glyph-name="udieresis" unicode="&#xfc;" horiz-adv-x="628" 
d="M218 -13q-38 0 -70 12t-55 36t-36.5 60t-13.5 85v343h197v-309q0 -40 15.5 -60t50.5 -20q37 0 57.5 22t20.5 69v298h197v-523h-197v81q-22 -42 -61 -68t-105 -26zM203 570q-19 0 -35.5 7t-29 19t-19.5 28.5t-7 34.5t7 34.5t19.5 28.5t29 19t35.5 7t36 -7t29.5 -19
t19.5 -28.5t7 -34.5t-7 -34.5t-19.5 -28.5t-29.5 -19t-36 -7zM420 570q-19 0 -35.5 7t-28.5 19t-19 28.5t-7 34.5t7 34.5t19 28.5t28.5 19t35.5 7q39 0 65.5 -26t26.5 -63t-26.5 -63t-65.5 -26z" />
    <glyph glyph-name="yacute" unicode="&#xfd;" 
d="M214 52l-209 471h213l99 -261l92 261h186l-279 -697h-187zM288 747h193l-104 -169h-141z" />
    <glyph glyph-name="thorn" unicode="&#xfe;" horiz-adv-x="646" 
d="M47 750h197v-303q22 37 61 63.5t99 26.5q45 0 84.5 -17t69.5 -50.5t47.5 -84.5t17.5 -120v-8q0 -69 -17.5 -119.5t-47.5 -84t-70 -50t-85 -16.5q-58 0 -98.5 25t-60.5 63v-249h-197v924zM331 137q45 0 68.5 31t23.5 91v8q0 63 -24 93.5t-69 30.5q-44 0 -67.5 -32
t-23.5 -92v-8q0 -122 92 -122z" />
    <glyph glyph-name="ydieresis" unicode="&#xff;" 
d="M214 52l-209 471h213l99 -261l92 261h186l-279 -697h-187zM202 570q-19 0 -35.5 7t-29 19t-19.5 28.5t-7 34.5t7 34.5t19.5 28.5t29 19t35.5 7t36 -7t29.5 -19t19.5 -28.5t7 -34.5t-7 -34.5t-19.5 -28.5t-29.5 -19t-36 -7zM419 570q-19 0 -35.5 7t-28.5 19t-19 28.5
t-7 34.5t7 34.5t19 28.5t28.5 19t35.5 7q39 0 65.5 -26t26.5 -63t-26.5 -63t-65.5 -26z" />
    <glyph glyph-name="Amacron" unicode="&#x100;" horiz-adv-x="760" 
d="M234 715h293l224 -715h-240l-33 119h-226l-32 -119h-211zM295 273h141l-70 259zM211 884h333v-115h-333v115z" />
    <glyph glyph-name="amacron" unicode="&#x101;" horiz-adv-x="585" 
d="M198 -13q-35 0 -67.5 9t-57 28t-39 49t-14.5 72q0 92 72.5 131.5t208.5 39.5h45v9q0 16 -2 30t-8.5 24.5t-18.5 16t-32 5.5q-34 0 -47 -18t-15 -38h-184q3 48 22.5 84t53 60.5t80 36.5t102.5 12q114 0 179 -48.5t65 -151.5v-338h-190v60q-8 -14 -21 -27t-32 -23
t-43.5 -16.5t-56.5 -6.5zM269 119q34 0 55.5 17.5t21.5 46.5v27h-42q-50 0 -70 -11t-20 -39q0 -19 14 -30t41 -11zM137 712h316v-107h-316v107z" />
    <glyph glyph-name="Abreve" unicode="&#x102;" horiz-adv-x="760" 
d="M234 715h293l224 -715h-240l-33 119h-226l-32 -119h-211zM295 273h141l-70 259zM378 749q-78 0 -122 41t-49 116h124q2 -20 14 -31t33 -11q20 0 32.5 11.5t14.5 30.5h124q-5 -75 -50.5 -116t-120.5 -41z" />
    <glyph glyph-name="abreve" unicode="&#x103;" horiz-adv-x="585" 
d="M198 -13q-35 0 -67.5 9t-57 28t-39 49t-14.5 72q0 92 72.5 131.5t208.5 39.5h45v9q0 16 -2 30t-8.5 24.5t-18.5 16t-32 5.5q-34 0 -47 -18t-15 -38h-184q3 48 22.5 84t53 60.5t80 36.5t102.5 12q114 0 179 -48.5t65 -151.5v-338h-190v60q-8 -14 -21 -27t-32 -23
t-43.5 -16.5t-56.5 -6.5zM269 119q34 0 55.5 17.5t21.5 46.5v27h-42q-50 0 -70 -11t-20 -39q0 -19 14 -30t41 -11zM295 581q-76 0 -120.5 41.5t-48.5 121.5h119q2 -21 14.5 -33t35.5 -12q22 0 35.5 12t15.5 33h118q-5 -80 -51 -121.5t-118 -41.5z" />
    <glyph glyph-name="Aogonek" unicode="&#x104;" horiz-adv-x="760" 
d="M646 -182q-60 0 -94 22t-34 60q0 18 8 33t20.5 27.5t28 22t30.5 17.5h-94l-33 119h-226l-32 -119h-211l225 715h293l219 -700q-29 -16 -44 -36t-15 -34q0 -24 28 -24q16 0 25 4v-90q-13 -7 -37 -12t-57 -5zM295 273h141l-70 259z" />
    <glyph glyph-name="aogonek" unicode="&#x105;" horiz-adv-x="585" 
d="M450 -182q-55 0 -87 21.5t-32 59.5q0 19 7.5 34.5t20 28t28.5 21.5t32 17h-68v60q-8 -14 -21 -27t-32 -23t-43.5 -16.5t-56.5 -6.5q-35 0 -67.5 9t-57 28t-39 49t-14.5 72q0 92 72.5 131.5t208.5 39.5h45v9q0 16 -2 30t-8.5 24.5t-18.5 16t-32 5.5q-34 0 -47 -18t-15 -38
h-184q3 48 22.5 84t53 60.5t80 36.5t102.5 12q114 0 179 -48.5t65 -151.5v-326q-29 -22 -40.5 -39t-11.5 -32q0 -26 29 -26q15 0 26 4v-84q-14 -7 -36.5 -12t-57.5 -5zM269 119q34 0 55.5 17.5t21.5 46.5v27h-42q-50 0 -70 -11t-20 -39q0 -19 14 -30t41 -11z" />
    <glyph glyph-name="Cacute" unicode="&#x106;" horiz-adv-x="764" 
d="M408 -13q-97 0 -168.5 26.5t-118.5 74.5t-70 115.5t-23 149.5v8q0 83 28 150.5t77.5 115t117.5 73.5t147 26q72 0 132 -17t104 -51.5t71 -87.5t33 -126h-234q-5 50 -31 76.5t-74 26.5q-62 0 -97 -47t-35 -138v-8q0 -90 35 -137.5t101 -47.5q48 0 80 25.5t38 79.5h226
q-5 -71 -31.5 -124.5t-71.5 -89.5t-105 -54.5t-131 -18.5zM364 906h201l-103 -149h-149z" />
    <glyph glyph-name="cacute" unicode="&#x107;" horiz-adv-x="586" 
d="M300 -13q-59 0 -109.5 16.5t-88 50t-59 83.5t-21.5 117v8q0 67 22 118t60.5 86t90 53t110.5 18q49 0 94.5 -11.5t81.5 -37t59 -68t27 -103.5h-185q-5 32 -20.5 50.5t-51.5 18.5q-88 0 -88 -120v-8q0 -64 21.5 -96t69.5 -32q34 0 55 20.5t25 58.5h177q-2 -51 -19.5 -92
t-51.5 -70t-83.5 -44.5t-115.5 -15.5zM276 747h193l-104 -169h-141z" />
    <glyph glyph-name="Ccircumflex" unicode="&#x108;" horiz-adv-x="764" 
d="M408 -13q-97 0 -168.5 26.5t-118.5 74.5t-70 115.5t-23 149.5v8q0 83 28 150.5t77.5 115t117.5 73.5t147 26q72 0 132 -17t104 -51.5t71 -87.5t33 -126h-234q-5 50 -31 76.5t-74 26.5q-62 0 -97 -47t-35 -138v-8q0 -90 35 -137.5t101 -47.5q48 0 80 25.5t38 79.5h226
q-5 -71 -31.5 -124.5t-71.5 -89.5t-105 -54.5t-131 -18.5zM316 906h164l110 -149h-142l-54 47l-54 -47h-139z" />
    <glyph glyph-name="ccircumflex" unicode="&#x109;" horiz-adv-x="586" 
d="M300 -13q-59 0 -109.5 16.5t-88 50t-59 83.5t-21.5 117v8q0 67 22 118t60.5 86t90 53t110.5 18q49 0 94.5 -11.5t81.5 -37t59 -68t27 -103.5h-185q-5 32 -20.5 50.5t-51.5 18.5q-88 0 -88 -120v-8q0 -64 21.5 -96t69.5 -32q34 0 55 20.5t25 58.5h177q-2 -51 -19.5 -92
t-51.5 -70t-83.5 -44.5t-115.5 -15.5zM233 746h138l120 -166h-137l-56 53l-56 -53h-134z" />
    <glyph glyph-name="Cdotaccent" unicode="&#x10a;" horiz-adv-x="764" 
d="M408 -13q-97 0 -168.5 26.5t-118.5 74.5t-70 115.5t-23 149.5v8q0 83 28 150.5t77.5 115t117.5 73.5t147 26q72 0 132 -17t104 -51.5t71 -87.5t33 -126h-234q-5 50 -31 76.5t-74 26.5q-62 0 -97 -47t-35 -138v-8q0 -90 35 -137.5t101 -47.5q48 0 80 25.5t38 79.5h226
q-5 -71 -31.5 -124.5t-71.5 -89.5t-105 -54.5t-131 -18.5zM396 752q-45 0 -74 27t-29 68q0 42 29 69t74 27q44 0 73 -27t29 -69q0 -41 -29 -68t-73 -27z" />
    <glyph glyph-name="cdotaccent" unicode="&#x10b;" horiz-adv-x="586" 
d="M300 -13q-59 0 -109.5 16.5t-88 50t-59 83.5t-21.5 117v8q0 67 22 118t60.5 86t90 53t110.5 18q49 0 94.5 -11.5t81.5 -37t59 -68t27 -103.5h-185q-5 32 -20.5 50.5t-51.5 18.5q-88 0 -88 -120v-8q0 -64 21.5 -96t69.5 -32q34 0 55 20.5t25 58.5h177q-2 -51 -19.5 -92
t-51.5 -70t-83.5 -44.5t-115.5 -15.5zM303 570q-45 0 -74 26.5t-29 68.5t29 69t74 27q44 0 73.5 -27t29.5 -69t-29.5 -68.5t-73.5 -26.5z" />
    <glyph glyph-name="Ccaron" unicode="&#x10c;" horiz-adv-x="764" 
d="M408 -13q-97 0 -168.5 26.5t-118.5 74.5t-70 115.5t-23 149.5v8q0 83 28 150.5t77.5 115t117.5 73.5t147 26q72 0 132 -17t104 -51.5t71 -87.5t33 -126h-234q-5 50 -31 76.5t-74 26.5q-62 0 -97 -47t-35 -138v-8q0 -90 35 -137.5t101 -47.5q48 0 80 25.5t38 79.5h226
q-5 -71 -31.5 -124.5t-71.5 -89.5t-105 -54.5t-131 -18.5zM200 906h142l54 -47l54 47h139l-115 -149h-164z" />
    <glyph glyph-name="ccaron" unicode="&#x10d;" horiz-adv-x="586" 
d="M300 -13q-59 0 -109.5 16.5t-88 50t-59 83.5t-21.5 117v8q0 67 22 118t60.5 86t90 53t110.5 18q49 0 94.5 -11.5t81.5 -37t59 -68t27 -103.5h-185q-5 32 -20.5 50.5t-51.5 18.5q-88 0 -88 -120v-8q0 -64 21.5 -96t69.5 -32q34 0 55 20.5t25 58.5h177q-2 -51 -19.5 -92
t-51.5 -70t-83.5 -44.5t-115.5 -15.5zM108 746h137l56 -52l56 52h134l-125 -166h-138z" />
    <glyph glyph-name="Dcaron" unicode="&#x10e;" horiz-adv-x="751" 
d="M330 174q84 0 121 43t37 137v8q0 98 -38.5 138.5t-120.5 40.5h-37v-367h38zM65 715h273q193 0 289.5 -89t96.5 -260v-7q0 -172 -98 -265.5t-288 -93.5h-273v715zM144 906h142l54 -47l54 47h139l-115 -149h-164z" />
    <glyph glyph-name="dcaron" unicode="&#x10f;" horiz-adv-x="645" 
d="M241 -13q-44 0 -83.5 16t-69.5 49.5t-47.5 84t-17.5 119.5v8q0 68 17.5 119.5t47 85.5t69 51t84.5 17q62 0 100 -23t60 -63v299h197v-750h-197v84q-20 -41 -60 -69t-100 -28zM314 137q45 0 68.5 31t23.5 92v8q0 60 -23 91.5t-68 31.5q-92 0 -92 -124v-8q0 -61 23.5 -91.5
t67.5 -30.5zM640 750h140l-50 -175h-98z" />
    <glyph glyph-name="Dcroat" unicode="&#x110;" horiz-adv-x="785" 
d="M29 435h54v280h273q193 0 290 -89t97 -260v-7q0 -172 -98 -265.5t-289 -93.5h-273v284h-54v151zM349 174q84 0 120.5 43t36.5 137v8q0 98 -38.5 138.5t-120.5 40.5h-41v-106h104v-151h-104v-110h43z" />
    <glyph glyph-name="dcroat" unicode="&#x111;" horiz-adv-x="645" 
d="M250 684h151v66h197v-66h53v-103h-53v-581h-197v84q-20 -41 -60 -69t-100 -28q-44 0 -83.5 16t-69.5 49.5t-47.5 84t-17.5 119.5v8q0 68 17.5 119.5t47 85.5t69 51t84.5 17q62 0 100 -23t60 -63v130h-151v103zM314 137q45 0 68.5 31t23.5 92v8q0 60 -23 91.5t-68 31.5
q-92 0 -92 -124v-8q0 -61 23.5 -91.5t67.5 -30.5z" />
    <glyph glyph-name="Emacron" unicode="&#x112;" horiz-adv-x="620" 
d="M65 715h508v-174h-282v-101h224v-159h-224v-107h298v-174h-524v715zM160 884h333v-115h-333v115z" />
    <glyph glyph-name="emacron" unicode="&#x113;" horiz-adv-x="604" 
d="M311 -13q-63 0 -116 17.5t-91.5 51.5t-60.5 84t-22 115v8q0 64 23 115t62 86.5t92 54.5t113 19q55 0 104.5 -16t86.5 -49.5t59 -85t22 -121.5v-48h-363q4 -48 30 -72.5t68 -24.5t59.5 16.5t22.5 39.5h184q-12 -91 -80 -140.5t-193 -49.5zM393 321q-2 42 -22 66t-60 24
q-36 0 -60 -22.5t-30 -67.5h172zM148 712h316v-107h-316v107z" />
    <glyph glyph-name="Ebreve" unicode="&#x114;" horiz-adv-x="620" 
d="M65 715h508v-174h-282v-101h224v-159h-224v-107h298v-174h-524v715zM325 749q-78 0 -122 41t-49 116h124q2 -20 14 -31t33 -11q20 0 32.5 11.5t14.5 30.5h124q-5 -75 -50.5 -116t-120.5 -41z" />
    <glyph glyph-name="ebreve" unicode="&#x115;" horiz-adv-x="604" 
d="M311 -13q-63 0 -116 17.5t-91.5 51.5t-60.5 84t-22 115v8q0 64 23 115t62 86.5t92 54.5t113 19q55 0 104.5 -16t86.5 -49.5t59 -85t22 -121.5v-48h-363q4 -48 30 -72.5t68 -24.5t59.5 16.5t22.5 39.5h184q-12 -91 -80 -140.5t-193 -49.5zM393 321q-2 42 -22 66t-60 24
q-36 0 -60 -22.5t-30 -67.5h172zM301 581q-76 0 -120.5 41.5t-48.5 121.5h119q2 -21 14.5 -33t35.5 -12q22 0 35.5 12t15.5 33h118q-5 -80 -51 -121.5t-118 -41.5z" />
    <glyph glyph-name="Edotaccent" unicode="&#x116;" horiz-adv-x="620" 
d="M65 715h508v-174h-282v-101h224v-159h-224v-107h298v-174h-524v715zM327 752q-45 0 -74 27t-29 68q0 42 29 69t74 27q44 0 73 -27t29 -69q0 -41 -29 -68t-73 -27z" />
    <glyph glyph-name="edotaccent" unicode="&#x117;" horiz-adv-x="604" 
d="M311 -13q-63 0 -116 17.5t-91.5 51.5t-60.5 84t-22 115v8q0 64 23 115t62 86.5t92 54.5t113 19q55 0 104.5 -16t86.5 -49.5t59 -85t22 -121.5v-48h-363q4 -48 30 -72.5t68 -24.5t59.5 16.5t22.5 39.5h184q-12 -91 -80 -140.5t-193 -49.5zM393 321q-2 42 -22 66t-60 24
q-36 0 -60 -22.5t-30 -67.5h172zM307 570q-45 0 -74 26.5t-29 68.5t29 69t74 27q44 0 73.5 -27t29.5 -69t-29.5 -68.5t-73.5 -26.5z" />
    <glyph glyph-name="Eogonek" unicode="&#x118;" horiz-adv-x="620" 
d="M470 -182q-59 0 -92 22t-33 60q0 18 7.5 33t20 27.5t28 22t30.5 17.5h-366v715h508v-174h-282v-101h224v-159h-224v-107h298v-174h-40q-18 -16 -27 -28.5t-9 -26.5q0 -24 28 -24q15 0 26 4v-90q-14 -7 -38 -12t-59 -5z" />
    <glyph glyph-name="eogonek" unicode="&#x119;" horiz-adv-x="604" 
d="M408 -182q-55 0 -88 20.5t-33 58.5q0 16 7.5 29.5t19.5 25t27.5 21.5t30.5 19q-13 -2 -30 -3.5t-31 -1.5q-63 0 -116 17.5t-91.5 51.5t-60.5 84t-22 115v8q0 64 23 115t62 86.5t92 54.5t113 19q55 0 104.5 -16t86.5 -49.5t59 -85t22 -121.5v-48h-363q4 -48 30 -72.5
t68 -24.5t59.5 16.5t22.5 39.5h184q-6 -49 -26.5 -80.5t-41.5 -53.5q-32 -33 -51.5 -56t-19.5 -46q0 -26 29 -26q15 0 26 4v-84q-14 -7 -34 -12t-58 -5zM393 321q-2 42 -22 66t-60 24q-36 0 -60 -22.5t-30 -67.5h172z" />
    <glyph glyph-name="Ecaron" unicode="&#x11a;" horiz-adv-x="620" 
d="M65 715h508v-174h-282v-101h224v-159h-224v-107h298v-174h-524v715zM131 906h142l54 -47l54 47h139l-115 -149h-164z" />
    <glyph glyph-name="ecaron" unicode="&#x11b;" horiz-adv-x="604" 
d="M311 -13q-63 0 -116 17.5t-91.5 51.5t-60.5 84t-22 115v8q0 64 23 115t62 86.5t92 54.5t113 19q55 0 104.5 -16t86.5 -49.5t59 -85t22 -121.5v-48h-363q4 -48 30 -72.5t68 -24.5t59.5 16.5t22.5 39.5h184q-12 -91 -80 -140.5t-193 -49.5zM393 321q-2 42 -22 66t-60 24
q-36 0 -60 -22.5t-30 -67.5h172zM114 746h137l56 -52l56 52h134l-125 -166h-138z" />
    <glyph glyph-name="Gcircumflex" unicode="&#x11c;" horiz-adv-x="791" 
d="M407 -13q-93 0 -164 27t-119 75.5t-72.5 115.5t-24.5 148v8q0 82 29 149.5t80 115.5t120.5 74t150.5 26q65 0 124.5 -15.5t106 -48t75.5 -83.5t34 -123h-224q-6 45 -34 68.5t-81 23.5q-68 0 -106.5 -50t-38.5 -141v-8q0 -39 7.5 -74t24.5 -60.5t46 -40.5t73 -15
q34 0 57.5 7.5t39 20.5t23 29t9.5 34h-122v149h343v-92q0 -67 -22 -125t-66.5 -101.5t-111.5 -68.5t-157 -25zM325 906h164l110 -149h-142l-54 47l-54 -47h-139z" />
    <glyph glyph-name="gcircumflex" unicode="&#x11d;" horiz-adv-x="644" 
d="M299 -194q-136 0 -203 52.5t-77 145.5h195q3 -12 8 -23t14.5 -20t25 -14t38.5 -5q56 0 78 29t22 71v81q-20 -38 -60 -65t-99 -27q-45 0 -84.5 16t-69.5 47.5t-47.5 77.5t-17.5 107v8q0 59 17.5 105.5t47 79t69 49.5t84.5 17q62 0 100 -23.5t60 -63.5v72h197v-478
q0 -118 -75.5 -178.5t-222.5 -60.5zM314 171q44 0 68 29t24 79v7q0 48 -23.5 77t-68.5 29t-68.5 -28.5t-23.5 -78.5v-8q0 -48 23.5 -77t68.5 -29zM240 746h138l120 -166h-137l-56 53l-56 -53h-134z" />
    <glyph glyph-name="Gbreve" unicode="&#x11e;" horiz-adv-x="791" 
d="M407 -13q-93 0 -164 27t-119 75.5t-72.5 115.5t-24.5 148v8q0 82 29 149.5t80 115.5t120.5 74t150.5 26q65 0 124.5 -15.5t106 -48t75.5 -83.5t34 -123h-224q-6 45 -34 68.5t-81 23.5q-68 0 -106.5 -50t-38.5 -141v-8q0 -39 7.5 -74t24.5 -60.5t46 -40.5t73 -15
q34 0 57.5 7.5t39 20.5t23 29t9.5 34h-122v149h343v-92q0 -67 -22 -125t-66.5 -101.5t-111.5 -68.5t-157 -25zM405 749q-78 0 -122 41t-49 116h124q2 -20 14 -31t33 -11q20 0 32.5 11.5t14.5 30.5h124q-5 -75 -50.5 -116t-120.5 -41z" />
    <glyph glyph-name="gbreve" unicode="&#x11f;" horiz-adv-x="644" 
d="M299 -194q-136 0 -203 52.5t-77 145.5h195q3 -12 8 -23t14.5 -20t25 -14t38.5 -5q56 0 78 29t22 71v81q-20 -38 -60 -65t-99 -27q-45 0 -84.5 16t-69.5 47.5t-47.5 77.5t-17.5 107v8q0 59 17.5 105.5t47 79t69 49.5t84.5 17q62 0 100 -23.5t60 -63.5v72h197v-478
q0 -118 -75.5 -178.5t-222.5 -60.5zM314 171q44 0 68 29t24 79v7q0 48 -23.5 77t-68.5 29t-68.5 -28.5t-23.5 -78.5v-8q0 -48 23.5 -77t68.5 -29zM307 581q-76 0 -120.5 41.5t-48.5 121.5h119q2 -21 14.5 -33t35.5 -12q22 0 35.5 12t15.5 33h118q-5 -80 -51 -121.5
t-118 -41.5z" />
    <glyph glyph-name="Gdotaccent" unicode="&#x120;" horiz-adv-x="791" 
d="M407 -13q-93 0 -164 27t-119 75.5t-72.5 115.5t-24.5 148v8q0 82 29 149.5t80 115.5t120.5 74t150.5 26q65 0 124.5 -15.5t106 -48t75.5 -83.5t34 -123h-224q-6 45 -34 68.5t-81 23.5q-68 0 -106.5 -50t-38.5 -141v-8q0 -39 7.5 -74t24.5 -60.5t46 -40.5t73 -15
q34 0 57.5 7.5t39 20.5t23 29t9.5 34h-122v149h343v-92q0 -67 -22 -125t-66.5 -101.5t-111.5 -68.5t-157 -25zM405 752q-45 0 -74 27t-29 68q0 42 29 69t74 27q44 0 73 -27t29 -69q0 -41 -29 -68t-73 -27z" />
    <glyph glyph-name="gdotaccent" unicode="&#x121;" horiz-adv-x="644" 
d="M299 -194q-136 0 -203 52.5t-77 145.5h195q3 -12 8 -23t14.5 -20t25 -14t38.5 -5q56 0 78 29t22 71v81q-20 -38 -60 -65t-99 -27q-45 0 -84.5 16t-69.5 47.5t-47.5 77.5t-17.5 107v8q0 59 17.5 105.5t47 79t69 49.5t84.5 17q62 0 100 -23.5t60 -63.5v72h197v-478
q0 -118 -75.5 -178.5t-222.5 -60.5zM314 171q44 0 68 29t24 79v7q0 48 -23.5 77t-68.5 29t-68.5 -28.5t-23.5 -78.5v-8q0 -48 23.5 -77t68.5 -29zM308 570q-45 0 -74 26.5t-29 68.5t29 69t74 27q44 0 73.5 -27t29.5 -69t-29.5 -68.5t-73.5 -26.5z" />
    <glyph glyph-name="uni0122" unicode="&#x122;" horiz-adv-x="790" 
d="M407 -13q-93 0 -164 27t-119 75.5t-72.5 115.5t-24.5 148v8q0 82 29 149.5t80 115.5t120.5 74t150.5 26q65 0 124.5 -15.5t106 -48t75.5 -83.5t34 -123h-224q-6 45 -34 68.5t-81 23.5q-68 0 -106.5 -50t-38.5 -141v-8q0 -39 7.5 -74t24.5 -60.5t46 -40.5t73 -15
q34 0 57.5 7.5t39 20.5t23 29t9.5 34h-122v149h343v-92q0 -67 -22 -125t-66.5 -101.5t-111.5 -68.5t-157 -25zM283 -206l39 175l172 -12l-101 -190z" />
    <glyph glyph-name="uni0123" unicode="&#x123;" horiz-adv-x="644" 
d="M299 -194q-136 0 -203 52.5t-77 145.5h195q3 -12 8 -23t14.5 -20t25 -14t38.5 -5q56 0 78 29t22 71v81q-20 -38 -60 -65t-99 -27q-45 0 -84.5 16t-69.5 47.5t-47.5 77.5t-17.5 107v8q0 59 17.5 105.5t47 79t69 49.5t84.5 17q62 0 100 -23.5t60 -63.5v72h197v-478
q0 -118 -75.5 -178.5t-222.5 -60.5zM314 171q44 0 68 29t24 79v7q0 48 -23.5 77t-68.5 29t-68.5 -28.5t-23.5 -78.5v-8q0 -48 23.5 -77t68.5 -29zM227 577l101 190l110 -27l-39 -175z" />
    <glyph glyph-name="Hcircumflex" unicode="&#x124;" horiz-adv-x="794" 
d="M65 715h227v-264h210v264h227v-715h-227v275h-210v-275h-227v715zM316 906h164l110 -149h-142l-54 47l-54 -47h-139z" />
    <glyph glyph-name="hcircumflex" unicode="&#x125;" horiz-adv-x="629" 
d="M47 750h197v-311q22 42 64.5 70t108.5 28q37 0 68 -12t53 -36t34.5 -60t12.5 -85v-344h-197v300q0 40 -15.5 60t-50.5 20q-37 0 -57.5 -22t-20.5 -69v-289h-197v750zM238 928h164l110 -149h-142l-54 47l-54 -47h-139z" />
    <glyph glyph-name="Hbar" unicode="&#x126;" horiz-adv-x="794" 
d="M7 627h58v88h227v-88h210v88h227v-88h58v-101h-58v-526h-227v275h-210v-275h-227v526h-58v101zM502 451v75h-210v-75h210z" />
    <glyph glyph-name="hbar" unicode="&#x127;" horiz-adv-x="629" 
d="M-6 684h53v66h197v-66h151v-103h-151v-142q22 42 64.5 70t108.5 28q37 0 68 -12t53 -36t34.5 -60t12.5 -85v-344h-197v300q0 40 -15.5 60t-50.5 20q-37 0 -57.5 -22t-20.5 -69v-289h-197v581h-53v103z" />
    <glyph glyph-name="Itilde" unicode="&#x128;" horiz-adv-x="366" 
d="M68 715h229v-715h-229v715zM249 755q-22 0 -39 5t-31.5 11t-26.5 11t-24 5t-20 -8t-10 -22h-109q3 42 14 72t28 49.5t38.5 29t45.5 9.5q21 0 38 -5t32 -11t28 -11t26 -5t20 8t9 22h110q-3 -42 -15 -72t-29.5 -49.5t-39.5 -29t-45 -9.5z" />
    <glyph glyph-name="itilde" unicode="&#x129;" horiz-adv-x="303" 
d="M53 523h196v-523h-196v523zM218 581q-22 0 -39 5t-31 11t-25.5 11t-22.5 5q-12 0 -20 -8.5t-10 -21.5h-104q5 83 37.5 122.5t80.5 39.5q21 0 37.5 -5t31 -11t27.5 -11t25 -5q25 0 30 31h104q-3 -42 -13.5 -72.5t-26.5 -50.5t-37 -30t-44 -10z" />
    <glyph glyph-name="Imacron" unicode="&#x12a;" horiz-adv-x="366" 
d="M68 715h229v-715h-229v715zM16 884h333v-115h-333v115z" />
    <glyph glyph-name="imacron" unicode="&#x12b;" horiz-adv-x="303" 
d="M24 712h255v-107h-255v107zM53 523h196v-523h-196v523z" />
    <glyph glyph-name="Ibreve" unicode="&#x12c;" horiz-adv-x="366" 
d="M68 715h229v-715h-229v715zM183 749q-78 0 -122 41t-49 116h124q2 -20 14 -31t33 -11q20 0 32.5 11.5t14.5 30.5h124q-5 -75 -50.5 -116t-120.5 -41z" />
    <glyph glyph-name="ibreve" unicode="&#x12d;" horiz-adv-x="303" 
d="M53 523h196v-523h-196v523zM152 581q-76 0 -120.5 41.5t-48.5 121.5h119q2 -21 14.5 -33t35.5 -12q22 0 35.5 12t15.5 33h118q-5 -80 -51 -121.5t-118 -41.5z" />
    <glyph glyph-name="Iogonek" unicode="&#x12e;" horiz-adv-x="366" 
d="M205 -182q-60 0 -93.5 22t-33.5 60q0 18 7.5 33t20 27.5t28 22t31.5 17.5h-97v715h229v-702q-23 -17 -36.5 -34t-13.5 -34q0 -24 28 -24q16 0 25 4v-90q-13 -7 -37 -12t-58 -5z" />
    <glyph glyph-name="iogonek" unicode="&#x12f;" horiz-adv-x="303" 
d="M161 -182q-55 0 -87 22t-32 60q0 19 7.5 34.5t20 27.5t28 21t31.5 17h-76v523h196v-513q-28 -22 -38.5 -38t-10.5 -31q0 -26 29 -26q16 0 25 4v-84q-13 -7 -34.5 -12t-58.5 -5zM151 562q-46 0 -76.5 28t-30.5 71q0 44 30.5 72t76.5 28q45 0 75.5 -28t30.5 -72
q0 -43 -30.5 -71t-75.5 -28z" />
    <glyph glyph-name="Idotaccent" unicode="&#x130;" horiz-adv-x="366" 
d="M68 715h229v-715h-229v715zM184 752q-45 0 -74 27t-29 68q0 42 29 69t74 27q44 0 73 -27t29 -69q0 -41 -29 -68t-73 -27z" />
    <glyph glyph-name="dotlessi" unicode="&#x131;" horiz-adv-x="303" 
d="M53 523h196v-523h-196v523z" />
    <glyph glyph-name="IJ" unicode="&#x132;" horiz-adv-x="830" 
d="M68 715h229v-715h-229v715zM509 -9q-53 0 -83 7t-53 18v167q17 -5 36.5 -9t48.5 -4q40 0 65 20t25 73v452h227v-453q0 -134 -65.5 -202.5t-200.5 -68.5z" />
    <glyph glyph-name="ij" unicode="&#x133;" horiz-adv-x="605" 
d="M53 523h196v-523h-196v523zM151 562q-46 0 -76.5 28t-30.5 71q0 44 30.5 72t76.5 28q45 0 75.5 -28t30.5 -72q0 -43 -30.5 -71t-75.5 -28zM293 -42q32 2 46.5 15t14.5 43v507h197v-512q0 -44 -12 -79.5t-41 -61t-79 -39.5t-126 -14v141zM453 562q-46 0 -76.5 28t-30.5 71
q0 44 30.5 72t76.5 28q45 0 75.5 -28t30.5 -72q0 -43 -30.5 -71t-75.5 -28z" />
    <glyph glyph-name="Jcircumflex" unicode="&#x134;" horiz-adv-x="489" 
d="M168 -9q-53 0 -83 7t-53 18v167q17 -5 36.5 -9t48.5 -4q40 0 65 20t25 73v452h227v-453q0 -134 -65.5 -202.5t-200.5 -68.5zM239 906h164l110 -149h-142l-54 47l-54 -47h-139z" />
    <glyph glyph-name="jcircumflex" unicode="&#x135;" horiz-adv-x="303" 
d="M-9 -42q32 2 46.5 15t14.5 43v507h197v-512q0 -44 -12 -79.5t-41 -61t-79 -39.5t-126 -14v141zM84 746h138l120 -166h-137l-56 53l-56 -53h-134z" />
    <glyph glyph-name="uni0136" unicode="&#x136;" horiz-adv-x="745" 
d="M65 715h227v-271l198 271h235l-251 -330l265 -385h-261l-186 286v-286h-227v715zM260 -206l39 175l172 -12l-101 -190z" />
    <glyph glyph-name="uni0137" unicode="&#x137;" horiz-adv-x="589" 
d="M47 750h197v-425l127 198h202l-161 -234l174 -289h-218l-124 218v-218h-197v750zM185 -206l39 175l172 -12l-101 -190z" />
    <glyph glyph-name="Lacute" unicode="&#x139;" horiz-adv-x="582" 
d="M65 715h227v-540h260v-175h-487v715zM150 906h201l-103 -149h-149z" />
    <glyph glyph-name="lacute" unicode="&#x13a;" horiz-adv-x="300" 
d="M52 750h196v-750h-196v750zM122 928h201l-103 -149h-149z" />
    <glyph glyph-name="uni013B" unicode="&#x13b;" horiz-adv-x="582" 
d="M65 715h227v-540h260v-175h-487v715zM183 -206l39 175l172 -12l-101 -190z" />
    <glyph glyph-name="uni013C" unicode="&#x13c;" horiz-adv-x="300" 
d="M52 750h196v-750h-196v750zM29 -206l39 175l172 -12l-101 -190z" />
    <glyph glyph-name="Lcaron" unicode="&#x13d;" horiz-adv-x="582" 
d="M368 715h158l-61 -180h-112zM65 715h227v-540h260v-175h-487v715z" />
    <glyph glyph-name="lcaron" unicode="&#x13e;" horiz-adv-x="300" 
d="M52 750h196v-750h-196v750zM291 750h140l-50 -175h-98z" />
    <glyph glyph-name="Ldot" unicode="&#x13f;" horiz-adv-x="613" 
d="M65 715h227v-540h260v-175h-487v715zM488 297q-24 0 -44 8.5t-34.5 22.5t-23 33.5t-8.5 42.5q0 22 8.5 42t23 34.5t34.5 23t44 8.5t44.5 -8.5t35.5 -23t23.5 -34.5t8.5 -42q0 -23 -8.5 -42.5t-23.5 -33.5t-35.5 -22.5t-44.5 -8.5z" />
    <glyph glyph-name="ldot" unicode="&#x140;" horiz-adv-x="479" 
d="M52 750h196v-750h-196v750zM387 251q-24 0 -44 8.5t-34.5 22.5t-23 33.5t-8.5 42.5q0 22 8.5 42t23 34.5t34.5 23t44 8.5t44.5 -8.5t35.5 -23t23.5 -34.5t8.5 -42q0 -23 -8.5 -42.5t-23.5 -33.5t-35.5 -22.5t-44.5 -8.5z" />
    <glyph glyph-name="Lslash" unicode="&#x141;" 
d="M22 340l61 21v354h228v-276l176 61v-116l-176 -61v-148h260v-175h-488v245l-61 -21v116z" />
    <glyph glyph-name="lslash" unicode="&#x142;" horiz-adv-x="344" 
d="M16 376l58 27v347h196v-256l61 29v-123l-61 -29v-371h-196v279l-58 -27v124z" />
    <glyph glyph-name="Nacute" unicode="&#x143;" horiz-adv-x="787" 
d="M65 715h254l203 -378v378h199v-715h-217l-239 428v-428h-200v715zM381 906h201l-103 -149h-149z" />
    <glyph glyph-name="nacute" unicode="&#x144;" horiz-adv-x="629" 
d="M47 523h197v-84q22 42 64.5 70t108.5 28q37 0 68 -12t53 -36t34.5 -60t12.5 -85v-344h-197v300q0 40 -15.5 60t-50.5 20q-37 0 -57.5 -22t-20.5 -69v-289h-197v523zM292 747h193l-104 -169h-141z" />
    <glyph glyph-name="uni0145" unicode="&#x145;" horiz-adv-x="787" 
d="M65 715h254l203 -378v378h199v-715h-217l-239 428v-428h-200v715zM269 -206l39 175l172 -12l-101 -190z" />
    <glyph glyph-name="uni0146" unicode="&#x146;" horiz-adv-x="629" 
d="M47 523h197v-84q22 42 64.5 70t108.5 28q37 0 68 -12t53 -36t34.5 -60t12.5 -85v-344h-197v300q0 40 -15.5 60t-50.5 20q-37 0 -57.5 -22t-20.5 -69v-289h-197v523zM193 -206l39 175l172 -12l-101 -190z" />
    <glyph glyph-name="Ncaron" unicode="&#x147;" horiz-adv-x="787" 
d="M65 715h254l203 -378v378h199v-715h-217l-239 428v-428h-200v715zM217 906h142l54 -47l54 47h139l-115 -149h-164z" />
    <glyph glyph-name="ncaron" unicode="&#x148;" horiz-adv-x="629" 
d="M47 523h197v-84q22 42 64.5 70t108.5 28q37 0 68 -12t53 -36t34.5 -60t12.5 -85v-344h-197v300q0 40 -15.5 60t-50.5 20q-37 0 -57.5 -22t-20.5 -69v-289h-197v523zM123 746h137l56 -52l56 52h134l-125 -166h-138z" />
    <glyph glyph-name="napostrophe" unicode="&#x149;" horiz-adv-x="769" 
d="M186 523h197v-84q22 42 64.5 70t108.5 28q37 0 68 -12t53 -36t34.5 -60t12.5 -85v-344h-197v300q0 40 -15.5 60t-50.5 20q-37 0 -57.5 -22t-20.5 -69v-289h-197v523zM-28 459l78 269l171 -55l-140 -256z" />
    <glyph glyph-name="Eng" unicode="&#x14a;" horiz-adv-x="787" 
d="M473 -192q-49 0 -77 6.5t-51 16.5v159q17 -5 33 -9t42 -4q29 0 48.5 10t26.5 32l-227 420v-439h-203v715h257l197 -384v384h202v-689q0 -48 -15 -88t-46 -69t-77.5 -45t-109.5 -16z" />
    <glyph glyph-name="eng" unicode="&#x14b;" horiz-adv-x="629" 
d="M328 -42q32 2 46 15t14 43v284q0 40 -15.5 60t-50.5 20q-37 0 -57.5 -22t-20.5 -69v-289h-197v523h197v-84q22 42 64.5 70t108.5 28q37 0 68 -12t53 -36t34.5 -60t12.5 -85v-333q0 -44 -12 -79.5t-41 -61t-78.5 -39.5t-125.5 -14v141z" />
    <glyph glyph-name="Omacron" unicode="&#x14c;" horiz-adv-x="820" 
d="M411 165q67 0 106.5 49.5t39.5 139.5v8q0 91 -40 139t-108 48q-66 0 -105.5 -47.5t-39.5 -139.5v-8q0 -92 39.5 -140.5t107.5 -48.5zM405 -13q-88 0 -158 26.5t-119 75t-75 116t-26 148.5v8q0 83 29.5 150.5t81 115t121.5 73.5t150 26q82 0 152.5 -24.5t122 -70.5
t80.5 -112.5t29 -151.5v-8q0 -84 -27.5 -152.5t-78.5 -117t-122.5 -75.5t-159.5 -27zM242 884h333v-115h-333v115z" />
    <glyph glyph-name="omacron" unicode="&#x14d;" horiz-adv-x="626" 
d="M314 132q90 0 90 127v7q0 62 -22 94t-68 32q-45 0 -69 -30.5t-24 -92.5v-8q0 -129 93 -129zM313 -13q-61 0 -114 17.5t-92.5 52t-62 84t-22.5 114.5v8q0 64 22.5 114.5t61.5 86t92.5 54.5t115.5 19q61 0 114 -18.5t92 -53t61.5 -84.5t22.5 -113v-8q0 -65 -22.5 -115.5
t-62 -85.5t-92.5 -53.5t-114 -18.5zM154 712h316v-107h-316v107z" />
    <glyph glyph-name="Obreve" unicode="&#x14e;" horiz-adv-x="820" 
d="M411 165q67 0 106.5 49.5t39.5 139.5v8q0 91 -40 139t-108 48q-66 0 -105.5 -47.5t-39.5 -139.5v-8q0 -92 39.5 -140.5t107.5 -48.5zM405 -13q-88 0 -158 26.5t-119 75t-75 116t-26 148.5v8q0 83 29.5 150.5t81 115t121.5 73.5t150 26q82 0 152.5 -24.5t122 -70.5
t80.5 -112.5t29 -151.5v-8q0 -84 -27.5 -152.5t-78.5 -117t-122.5 -75.5t-159.5 -27zM409 749q-78 0 -122 41t-49 116h124q2 -20 14 -31t33 -11q20 0 32.5 11.5t14.5 30.5h124q-5 -75 -50.5 -116t-120.5 -41z" />
    <glyph glyph-name="obreve" unicode="&#x14f;" horiz-adv-x="626" 
d="M314 132q90 0 90 127v7q0 62 -22 94t-68 32q-45 0 -69 -30.5t-24 -92.5v-8q0 -129 93 -129zM313 -13q-61 0 -114 17.5t-92.5 52t-62 84t-22.5 114.5v8q0 64 22.5 114.5t61.5 86t92.5 54.5t115.5 19q61 0 114 -18.5t92 -53t61.5 -84.5t22.5 -113v-8q0 -65 -22.5 -115.5
t-62 -85.5t-92.5 -53.5t-114 -18.5zM312 581q-76 0 -120.5 41.5t-48.5 121.5h119q2 -21 14.5 -33t35.5 -12q22 0 35.5 12t15.5 33h118q-5 -80 -51 -121.5t-118 -41.5z" />
    <glyph glyph-name="Ohungarumlaut" unicode="&#x150;" horiz-adv-x="820" 
d="M411 165q67 0 106.5 49.5t39.5 139.5v8q0 91 -40 139t-108 48q-66 0 -105.5 -47.5t-39.5 -139.5v-8q0 -92 39.5 -140.5t107.5 -48.5zM405 -13q-88 0 -158 26.5t-119 75t-75 116t-26 148.5v8q0 83 29.5 150.5t81 115t121.5 73.5t150 26q82 0 152.5 -24.5t122 -70.5
t80.5 -112.5t29 -151.5v-8q0 -84 -27.5 -152.5t-78.5 -117t-122.5 -75.5t-159.5 -27zM272 906h163l-75 -149h-130zM473 906h164l-75 -149h-130z" />
    <glyph glyph-name="ohungarumlaut" unicode="&#x151;" horiz-adv-x="626" 
d="M314 132q90 0 90 127v7q0 62 -22 94t-68 32q-45 0 -69 -30.5t-24 -92.5v-8q0 -129 93 -129zM313 -13q-61 0 -114 17.5t-92.5 52t-62 84t-22.5 114.5v8q0 64 22.5 114.5t61.5 86t92.5 54.5t115.5 19q61 0 114 -18.5t92 -53t61.5 -84.5t22.5 -113v-8q0 -65 -22.5 -115.5
t-62 -85.5t-92.5 -53.5t-114 -18.5zM195 747h148l-78 -169h-114zM376 747h148l-77 -169h-115z" />
    <glyph glyph-name="OE" unicode="&#x152;" horiz-adv-x="983" 
d="M27 356q0 172 98.5 265.5t286.5 93.5h525v-174h-268v-101h209v-159h-209v-107h283v-174h-540q-191 0 -288 89t-97 260v7zM419 541q-83 0 -119 -43t-36 -137v-8q0 -49 9 -83t28 -55.5t49 -31t71 -9.5h23v367h-25z" />
    <glyph glyph-name="oe" unicode="&#x153;" horiz-adv-x="984" 
d="M313 -13q-61 0 -114.5 17.5t-93 52t-62 84t-22.5 114.5v8q0 64 22.5 115t62 86.5t93 54.5t115.5 19q59 0 106.5 -19t82.5 -54q35 35 83 54t105 19q55 0 104.5 -16t86.5 -49.5t59 -85t22 -121.5v-48h-363q4 -48 30 -72.5t68 -24.5t59.5 16.5t22.5 39.5h183
q-11 -91 -79 -140.5t-193 -49.5q-121 0 -192 69q-71 -69 -186 -69zM314 132q45 0 67.5 32.5t22.5 93.5v8q0 62 -22 94t-68 32q-92 0 -92 -123v-8q0 -129 92 -129zM773 321q-2 42 -22 66t-60 24q-36 0 -60 -22.5t-30 -67.5h172z" />
    <glyph glyph-name="Racute" unicode="&#x154;" horiz-adv-x="710" 
d="M65 715h292q149 0 224 -58.5t75 -173.5v-4q0 -74 -34 -118.5t-87 -68.5l163 -292h-238l-133 245h-36v-245h-226v715zM344 391q93 0 93 78v4q0 39 -23 55.5t-69 16.5h-54v-154h53zM310 906h201l-103 -149h-149z" />
    <glyph glyph-name="racute" unicode="&#x155;" horiz-adv-x="438" 
d="M47 523h197v-106q25 61 67 87.5t101 25.5v-184q-82 5 -125 -21.5t-43 -83.5v-241h-197v523zM217 747h193l-104 -169h-141z" />
    <glyph glyph-name="uni0156" unicode="&#x156;" horiz-adv-x="710" 
d="M65 715h292q149 0 224 -58.5t75 -173.5v-4q0 -74 -34 -118.5t-87 -68.5l163 -292h-238l-133 245h-36v-245h-226v715zM344 391q93 0 93 78v4q0 39 -23 55.5t-69 16.5h-54v-154h53zM255 -206l39 175l172 -12l-101 -190z" />
    <glyph glyph-name="uni0157" unicode="&#x157;" horiz-adv-x="438" 
d="M47 523h197v-106q25 61 67 87.5t101 25.5v-184q-82 5 -125 -21.5t-43 -83.5v-241h-197v523zM28 -206l39 175l172 -12l-101 -190z" />
    <glyph glyph-name="Rcaron" unicode="&#x158;" horiz-adv-x="710" 
d="M65 715h292q149 0 224 -58.5t75 -173.5v-4q0 -74 -34 -118.5t-87 -68.5l163 -292h-238l-133 245h-36v-245h-226v715zM344 391q93 0 93 78v4q0 39 -23 55.5t-69 16.5h-54v-154h53zM146 906h142l54 -47l54 47h139l-115 -149h-164z" />
    <glyph glyph-name="rcaron" unicode="&#x159;" horiz-adv-x="438" 
d="M47 523h197v-106q25 61 67 87.5t101 25.5v-184q-82 5 -125 -21.5t-43 -83.5v-241h-197v523zM48 746h137l56 -52l56 52h134l-125 -166h-138z" />
    <glyph glyph-name="Sacute" unicode="&#x15a;" horiz-adv-x="653" 
d="M334 -13q-152 0 -231.5 60.5t-83.5 181.5h215q1 -17 6.5 -32t17 -26t30 -17.5t46.5 -6.5q40 0 59.5 16.5t19.5 42.5q0 28 -22 40.5t-80 20.5q-77 9 -130 25t-85.5 43.5t-46.5 67t-14 94.5q0 49 19.5 91t56.5 72.5t90 47.5t120 17q134 0 206.5 -55t81.5 -173h-210
q-4 33 -23 51t-55 18q-35 0 -53 -14.5t-18 -37.5q0 -13 4.5 -22.5t16 -16.5t30.5 -12t49 -9q67 -7 119.5 -20.5t88 -39t54 -65t18.5 -99.5q0 -50 -19.5 -94t-57 -77t-92.5 -52.5t-127 -19.5zM292 906h201l-103 -149h-149z" />
    <glyph glyph-name="sacute" unicode="&#x15b;" horiz-adv-x="523" 
d="M261 -13q-115 0 -179.5 46t-66.5 135h180q5 -26 18 -40t47 -14q29 0 42 10t13 27t-19.5 27t-72.5 17q-53 6 -91.5 17t-63 30t-36.5 48t-12 71q0 45 18.5 78.5t50 55t74 32.5t90.5 11q51 0 93 -9t73 -29.5t49.5 -53.5t23.5 -81h-177q-5 23 -18.5 36t-40.5 13t-39.5 -10.5
t-12.5 -25.5q0 -18 19 -26.5t63 -13.5q57 -7 98.5 -18t68.5 -30t40.5 -48t13.5 -71q0 -48 -17.5 -83t-50 -57.5t-78 -33t-100.5 -10.5zM236 747h193l-104 -169h-141z" />
    <glyph glyph-name="Scircumflex" unicode="&#x15c;" horiz-adv-x="653" 
d="M334 -13q-152 0 -231.5 60.5t-83.5 181.5h215q1 -17 6.5 -32t17 -26t30 -17.5t46.5 -6.5q40 0 59.5 16.5t19.5 42.5q0 28 -22 40.5t-80 20.5q-77 9 -130 25t-85.5 43.5t-46.5 67t-14 94.5q0 49 19.5 91t56.5 72.5t90 47.5t120 17q134 0 206.5 -55t81.5 -173h-210
q-4 33 -23 51t-55 18q-35 0 -53 -14.5t-18 -37.5q0 -13 4.5 -22.5t16 -16.5t30.5 -12t49 -9q67 -7 119.5 -20.5t88 -39t54 -65t18.5 -99.5q0 -50 -19.5 -94t-57 -77t-92.5 -52.5t-127 -19.5zM244 906h164l110 -149h-142l-54 47l-54 -47h-139z" />
    <glyph glyph-name="scircumflex" unicode="&#x15d;" horiz-adv-x="523" 
d="M261 -13q-115 0 -179.5 46t-66.5 135h180q5 -26 18 -40t47 -14q29 0 42 10t13 27t-19.5 27t-72.5 17q-53 6 -91.5 17t-63 30t-36.5 48t-12 71q0 45 18.5 78.5t50 55t74 32.5t90.5 11q51 0 93 -9t73 -29.5t49.5 -53.5t23.5 -81h-177q-5 23 -18.5 36t-40.5 13t-39.5 -10.5
t-12.5 -25.5q0 -18 19 -26.5t63 -13.5q57 -7 98.5 -18t68.5 -30t40.5 -48t13.5 -71q0 -48 -17.5 -83t-50 -57.5t-78 -33t-100.5 -10.5zM190 746h138l120 -166h-137l-56 53l-56 -53h-134z" />
    <glyph glyph-name="uni015E" unicode="&#x15e;" horiz-adv-x="653" 
d="M307 -228q-57 0 -90.5 24t-41.5 70h90q2 -10 10 -18t25 -8q14 0 22 8t8 21t-8 21.5t-25 8.5q-22 0 -32 -12l-40 41l41 63q-119 12 -181.5 71.5t-65.5 166.5h215q1 -17 6.5 -32t17 -26t30 -17.5t46.5 -6.5q40 0 59.5 16.5t19.5 42.5q0 28 -22 40.5t-80 20.5q-77 9 -130 25
t-85.5 43.5t-46.5 67t-14 94.5q0 49 19.5 91t56.5 72.5t90 47.5t120 17q134 0 206.5 -55t81.5 -173h-210q-4 33 -23 51t-55 18q-35 0 -53 -14.5t-18 -37.5q0 -13 4.5 -22.5t16 -16.5t30.5 -12t49 -9q67 -7 119.5 -20.5t88 -39t54 -65t18.5 -99.5q0 -50 -19 -93.5
t-55.5 -76.5t-91 -52.5t-124.5 -20.5l-22 -31q22 2 43 -2t36.5 -14.5t25 -28t9.5 -42.5q0 -46 -34 -71.5t-91 -25.5z" />
    <glyph glyph-name="uni015F" unicode="&#x15f;" horiz-adv-x="523" 
d="M243 -228q-57 0 -90.5 24t-41.5 70h90q2 -10 10 -18t25 -8q14 0 22 8t8 21t-8 21.5t-25 8.5q-22 0 -32 -12l-40 41l41 63q-88 11 -136.5 55.5t-50.5 121.5h180q5 -26 18 -40t47 -14q29 0 42 10t13 27t-19.5 27t-72.5 17q-53 6 -91.5 17t-63 30t-36.5 48t-12 71
q0 45 18.5 78.5t50 55t74 32.5t90.5 11q51 0 93 -9t73 -29.5t49.5 -53.5t23.5 -81h-177q-5 23 -18.5 36t-40.5 13t-39.5 -10.5t-12.5 -25.5q0 -18 19 -26.5t63 -13.5q57 -7 98.5 -18t68.5 -30t40.5 -48t13.5 -71q0 -47 -16.5 -81t-47 -56.5t-73 -34t-94.5 -12.5l-22 -31
q22 2 43 -2t36.5 -14.5t25 -28t9.5 -42.5q0 -46 -34 -71.5t-91 -25.5z" />
    <glyph glyph-name="Scaron" unicode="&#x160;" horiz-adv-x="653" 
d="M334 -13q-152 0 -231.5 60.5t-83.5 181.5h215q1 -17 6.5 -32t17 -26t30 -17.5t46.5 -6.5q40 0 59.5 16.5t19.5 42.5q0 28 -22 40.5t-80 20.5q-77 9 -130 25t-85.5 43.5t-46.5 67t-14 94.5q0 49 19.5 91t56.5 72.5t90 47.5t120 17q134 0 206.5 -55t81.5 -173h-210
q-4 33 -23 51t-55 18q-35 0 -53 -14.5t-18 -37.5q0 -13 4.5 -22.5t16 -16.5t30.5 -12t49 -9q67 -7 119.5 -20.5t88 -39t54 -65t18.5 -99.5q0 -50 -19.5 -94t-57 -77t-92.5 -52.5t-127 -19.5zM128 906h142l54 -47l54 47h139l-115 -149h-164z" />
    <glyph glyph-name="scaron" unicode="&#x161;" horiz-adv-x="523" 
d="M261 -13q-115 0 -179.5 46t-66.5 135h180q5 -26 18 -40t47 -14q29 0 42 10t13 27t-19.5 27t-72.5 17q-53 6 -91.5 17t-63 30t-36.5 48t-12 71q0 45 18.5 78.5t50 55t74 32.5t90.5 11q51 0 93 -9t73 -29.5t49.5 -53.5t23.5 -81h-177q-5 23 -18.5 36t-40.5 13t-39.5 -10.5
t-12.5 -25.5q0 -18 19 -26.5t63 -13.5q57 -7 98.5 -18t68.5 -30t40.5 -48t13.5 -71q0 -48 -17.5 -83t-50 -57.5t-78 -33t-100.5 -10.5zM62 746h137l56 -52l56 52h134l-125 -166h-138z" />
    <glyph glyph-name="Tcommaaccent" unicode="&#x162;" horiz-adv-x="629" 
d="M200 541h-180v174h589v-174h-181v-541h-228v541zM191 -206l39 175l172 -12l-101 -190z" />
    <glyph glyph-name="tcommaaccent" unicode="&#x163;" horiz-adv-x="396" 
d="M265 -12q-93 0 -143 44t-50 143v216h-61v132h61v107h197v-107h100v-132h-100v-197q0 -27 13.5 -39t37.5 -12q26 0 49 8v-148q-18 -5 -45 -10t-59 -5zM90 -206l39 175l172 -12l-101 -190z" />
    <glyph glyph-name="Tcaron" unicode="&#x164;" horiz-adv-x="629" 
d="M200 541h-180v174h589v-174h-181v-541h-228v541zM117 906h142l54 -47l54 47h139l-115 -149h-164z" />
    <glyph glyph-name="tcaron" unicode="&#x165;" horiz-adv-x="396" 
d="M265 -12q-93 0 -143 44t-50 143v216h-61v132h61v107h197v-107h100v-132h-100v-197q0 -27 13.5 -39t37.5 -12q26 0 49 8v-148q-18 -5 -45 -10t-59 -5zM318 750h140l-50 -175h-98z" />
    <glyph glyph-name="Tbar" unicode="&#x166;" horiz-adv-x="629" 
d="M78 408h122v133h-180v174h589v-174h-181v-133h123v-140h-123v-268h-228v268h-122v140z" />
    <glyph glyph-name="tbar" unicode="&#x167;" horiz-adv-x="396" 
d="M12 331h60v60h-60v132h60v107h197v-107h100v-132h-100v-60h100v-96h-100v-42q0 -51 51 -51q14 0 25 2t23 7v-148q-18 -5 -44.5 -10.5t-58.5 -5.5q-93 0 -143 44.5t-50 143.5v60h-60v96z" />
    <glyph glyph-name="Utilde" unicode="&#x168;" horiz-adv-x="776" 
d="M388 -13q-158 0 -242.5 77t-84.5 231v420h226v-411q0 -35 4.5 -61t15.5 -43.5t31 -26t50 -8.5q60 0 80 34.5t20 105.5v410h228v-418q0 -81 -23 -139.5t-66 -96.5t-103.5 -56t-135.5 -18zM452 755q-22 0 -39 5t-31.5 11t-26.5 11t-24 5t-20 -8t-10 -22h-109q3 42 14 72
t28 49.5t38.5 29t45.5 9.5q21 0 38 -5t32 -11t28 -11t26 -5t20 8t9 22h110q-3 -42 -15 -72t-29.5 -49.5t-39.5 -29t-45 -9.5z" />
    <glyph glyph-name="utilde" unicode="&#x169;" horiz-adv-x="628" 
d="M218 -13q-38 0 -70 12t-55 36t-36.5 60t-13.5 85v343h197v-309q0 -40 15.5 -60t50.5 -20q37 0 57.5 22t20.5 69v298h197v-523h-197v81q-22 -42 -61 -68t-105 -26zM378 581q-22 0 -39 5t-31 11t-25.5 11t-22.5 5q-12 0 -20 -8.5t-10 -21.5h-104q5 83 37.5 122.5t80.5 39.5
q21 0 37.5 -5t31 -11t27.5 -11t25 -5q25 0 30 31h104q-3 -42 -13.5 -72.5t-26.5 -50.5t-37 -30t-44 -10z" />
    <glyph glyph-name="Umacron" unicode="&#x16a;" horiz-adv-x="776" 
d="M388 -13q-158 0 -242.5 77t-84.5 231v420h226v-411q0 -35 4.5 -61t15.5 -43.5t31 -26t50 -8.5q60 0 80 34.5t20 105.5v410h228v-418q0 -81 -23 -139.5t-66 -96.5t-103.5 -56t-135.5 -18zM219 884h333v-115h-333v115z" />
    <glyph glyph-name="umacron" unicode="&#x16b;" horiz-adv-x="628" 
d="M218 -13q-38 0 -70 12t-55 36t-36.5 60t-13.5 85v343h197v-309q0 -40 15.5 -60t50.5 -20q37 0 57.5 22t20.5 69v298h197v-523h-197v81q-22 -42 -61 -68t-105 -26zM154 712h316v-107h-316v107z" />
    <glyph glyph-name="Ubreve" unicode="&#x16c;" horiz-adv-x="776" 
d="M388 -13q-158 0 -242.5 77t-84.5 231v420h226v-411q0 -35 4.5 -61t15.5 -43.5t31 -26t50 -8.5q60 0 80 34.5t20 105.5v410h228v-418q0 -81 -23 -139.5t-66 -96.5t-103.5 -56t-135.5 -18zM386 749q-78 0 -122 41t-49 116h124q2 -20 14 -31t33 -11q20 0 32.5 11.5
t14.5 30.5h124q-5 -75 -50.5 -116t-120.5 -41z" />
    <glyph glyph-name="ubreve" unicode="&#x16d;" horiz-adv-x="628" 
d="M218 -13q-38 0 -70 12t-55 36t-36.5 60t-13.5 85v343h197v-309q0 -40 15.5 -60t50.5 -20q37 0 57.5 22t20.5 69v298h197v-523h-197v81q-22 -42 -61 -68t-105 -26zM312 581q-76 0 -120.5 41.5t-48.5 121.5h119q2 -21 14.5 -33t35.5 -12q22 0 35.5 12t15.5 33h118
q-5 -80 -51 -121.5t-118 -41.5z" />
    <glyph glyph-name="Uring" unicode="&#x16e;" horiz-adv-x="776" 
d="M388 -13q-158 0 -242.5 77t-84.5 231v420h226v-411q0 -35 4.5 -61t15.5 -43.5t31 -26t50 -8.5q60 0 80 34.5t20 105.5v410h228v-418q0 -81 -23 -139.5t-66 -96.5t-103.5 -56t-135.5 -18zM386 790q20 0 32.5 14t12.5 36q0 23 -12.5 36.5t-32.5 13.5t-32.5 -13.5
t-12.5 -36.5q0 -22 12.5 -36t32.5 -14zM386 722q-25 0 -47.5 9.5t-39 25.5t-26 37.5t-9.5 45.5t9.5 45.5t26 37.5t39 25.5t47.5 9.5t47.5 -9.5t39 -25.5t26 -37.5t9.5 -45.5t-9.5 -45.5t-26 -37.5t-39 -25.5t-47.5 -9.5z" />
    <glyph glyph-name="uring" unicode="&#x16f;" horiz-adv-x="628" 
d="M218 -13q-38 0 -70 12t-55 36t-36.5 60t-13.5 85v343h197v-309q0 -40 15.5 -60t50.5 -20q37 0 57.5 22t20.5 69v298h197v-523h-197v81q-22 -42 -61 -68t-105 -26zM311 620q20 0 32 13.5t12 34.5q0 22 -12 35.5t-32 13.5t-32 -13.5t-12 -35.5q0 -21 12 -34.5t32 -13.5z
M311 552q-25 0 -46.5 9t-38 25t-26 37t-9.5 45t9.5 45.5t26 37t38 25t46.5 9.5t46.5 -9.5t38 -25t26 -37t9.5 -45.5t-9.5 -45t-26 -37t-38 -25t-46.5 -9z" />
    <glyph glyph-name="Uhungarumlaut" unicode="&#x170;" horiz-adv-x="776" 
d="M388 -13q-158 0 -242.5 77t-84.5 231v420h226v-411q0 -35 4.5 -61t15.5 -43.5t31 -26t50 -8.5q60 0 80 34.5t20 105.5v410h228v-418q0 -81 -23 -139.5t-66 -96.5t-103.5 -56t-135.5 -18zM249 906h163l-75 -149h-130zM450 906h164l-75 -149h-130z" />
    <glyph glyph-name="uhungarumlaut" unicode="&#x171;" horiz-adv-x="628" 
d="M218 -13q-38 0 -70 12t-55 36t-36.5 60t-13.5 85v343h197v-309q0 -40 15.5 -60t50.5 -20q37 0 57.5 22t20.5 69v298h197v-523h-197v81q-22 -42 -61 -68t-105 -26zM195 747h148l-78 -169h-114zM376 747h148l-77 -169h-115z" />
    <glyph glyph-name="Uogonek" unicode="&#x172;" horiz-adv-x="776" 
d="M426 -182q-57 0 -90 21.5t-33 58.5q0 31 19.5 52.5t44.5 37.5q-148 5 -227 81.5t-79 225.5v420h226v-411q0 -35 4.5 -61t15.5 -43.5t31 -26t50 -8.5q60 0 80 34.5t20 105.5v410h228v-418q0 -110 -42 -178t-116 -102q-34 -15 -60.5 -30t-26.5 -41q0 -25 29 -25q16 0 25 4
v-90q-13 -7 -37.5 -12t-61.5 -5z" />
    <glyph glyph-name="uogonek" unicode="&#x173;" horiz-adv-x="628" 
d="M490 -182q-55 0 -87 22t-32 60q0 19 7.5 34.5t20 27.5t28.5 21t32 17h-75v81q-22 -42 -61 -68t-105 -26q-38 0 -70 12t-55 36t-36.5 60t-13.5 85v343h197v-309q0 -40 15.5 -60t50.5 -20q37 0 57.5 22t20.5 69v298h197v-510q-29 -23 -40.5 -40t-11.5 -32q0 -13 8 -19.5
t22 -6.5q16 0 25 4v-84q-14 -7 -36.5 -12t-57.5 -5z" />
    <glyph glyph-name="Wcircumflex" unicode="&#x174;" horiz-adv-x="1009" 
d="M10 715h229l82 -427l86 427h197l97 -432l87 432h210l-166 -715h-229l-100 427l-101 -427h-226zM425 906h164l110 -149h-142l-54 47l-54 -47h-139z" />
    <glyph glyph-name="wcircumflex" unicode="&#x175;" horiz-adv-x="854" 
d="M5 523h205l68 -293l80 293h158l70 -293l79 293h184l-166 -523h-185l-73 273l-72 -273h-191zM359 746h138l120 -166h-137l-56 53l-56 -53h-134z" />
    <glyph glyph-name="Ycircumflex" unicode="&#x176;" horiz-adv-x="692" 
d="M237 305l-232 410h246l109 -224l110 224h217l-222 -409v-306h-228v305zM273 906h164l110 -149h-142l-54 47l-54 -47h-139z" />
    <glyph glyph-name="ycircumflex" unicode="&#x177;" 
d="M214 52l-209 471h213l99 -261l92 261h186l-279 -697h-187zM242 746h138l120 -166h-137l-56 53l-56 -53h-134z" />
    <glyph glyph-name="Ydieresis" unicode="&#x178;" horiz-adv-x="692" 
d="M237 305l-232 410h246l109 -224l110 224h217l-222 -409v-306h-228v305zM239 752q-19 0 -35.5 7t-29 19t-19.5 28.5t-7 34.5q0 19 7 35t19.5 28t29 19t35.5 7t36 -7t29.5 -19t19.5 -28t7 -35q0 -18 -7 -34.5t-19.5 -28.5t-29.5 -19t-36 -7zM466 752q-19 0 -35.5 7t-29 19
t-19.5 28.5t-7 34.5q0 19 7 35t19.5 28t29 19t35.5 7t36 -7t29.5 -19t19.5 -28t7 -35q0 -18 -7 -34.5t-19.5 -28.5t-29.5 -19t-36 -7z" />
    <glyph glyph-name="Zacute" unicode="&#x179;" horiz-adv-x="627" 
d="M10 24l286 521h-246v170h563v-24l-283 -520h266v-171h-586v24zM288 906h201l-103 -149h-149z" />
    <glyph glyph-name="zacute" unicode="&#x17a;" horiz-adv-x="513" 
d="M8 19l214 357h-191v147h471v-20l-224 -357h210v-146h-480v19zM239 747h193l-104 -169h-141z" />
    <glyph glyph-name="Zdotaccent" unicode="&#x17b;" horiz-adv-x="627" 
d="M10 24l286 521h-246v170h563v-24l-283 -520h266v-171h-586v24zM321 752q-45 0 -74 27t-29 68q0 42 29 69t74 27q44 0 73 -27t29 -69q0 -41 -29 -68t-73 -27z" />
    <glyph glyph-name="zdotaccent" unicode="&#x17c;" horiz-adv-x="513" 
d="M8 19l214 357h-191v147h471v-20l-224 -357h210v-146h-480v19zM263 570q-45 0 -74 26.5t-29 68.5t29 69t74 27q44 0 73.5 -27t29.5 -69t-29.5 -68.5t-73.5 -26.5z" />
    <glyph glyph-name="Zcaron" unicode="&#x17d;" horiz-adv-x="627" 
d="M10 24l286 521h-246v170h563v-24l-283 -520h266v-171h-586v24zM124 906h142l54 -47l54 47h139l-115 -149h-164z" />
    <glyph glyph-name="zcaron" unicode="&#x17e;" horiz-adv-x="513" 
d="M8 19l214 357h-191v147h471v-20l-224 -357h210v-146h-480v19zM70 746h137l56 -52l56 52h134l-125 -166h-138z" />
    <glyph glyph-name="uni0192" unicode="&#x192;" horiz-adv-x="456" 
d="M22 415h89l17 119q7 52 26.5 88.5t49 59t68.5 33t86 10.5q25 0 42.5 -2.5t37.5 -8.5v-146q-11 4 -21.5 5.5t-27.5 1.5q-59 0 -68 -58l-15 -102h111v-132h-129l-65 -465h-195l65 465h-71v132z" />
    <glyph glyph-name="Aringacute" unicode="&#x1fa;" horiz-adv-x="760" 
d="M234 715h293l224 -715h-240l-33 119h-226l-32 -119h-211zM295 273h141l-70 259zM381 808q20 0 32.5 14t12.5 36q0 23 -12.5 36.5t-32.5 13.5t-32.5 -13.5t-12.5 -36.5q0 -22 12.5 -36t32.5 -14zM381 740q-25 0 -47.5 9.5t-39 25.5t-26 37.5t-9.5 45.5t9.5 45.5t26 37.5
t39 25.5t47.5 9.5t47.5 -9.5t39 -25.5t26 -37.5t9.5 -45.5t-9.5 -45.5t-26 -37.5t-39 -25.5t-47.5 -9.5zM357 1142h201l-103 -149h-149z" />
    <glyph glyph-name="aringacute" unicode="&#x1fb;" horiz-adv-x="585" 
d="M198 -13q-35 0 -67.5 9t-57 28t-39 49t-14.5 72q0 92 72.5 131.5t208.5 39.5h45v9q0 16 -2 30t-8.5 24.5t-18.5 16t-32 5.5q-34 0 -47 -18t-15 -38h-184q3 48 22.5 84t53 60.5t80 36.5t102.5 12q114 0 179 -48.5t65 -151.5v-338h-190v60q-8 -14 -21 -27t-32 -23
t-43.5 -16.5t-56.5 -6.5zM269 119q34 0 55.5 17.5t21.5 46.5v27h-42q-50 0 -70 -11t-20 -39q0 -19 14 -30t41 -11zM295 638q20 0 32 13.5t12 34.5q0 22 -12 35.5t-32 13.5t-32 -13.5t-12 -35.5q0 -21 12 -34.5t32 -13.5zM295 570q-25 0 -46.5 9t-38 25t-26 37t-9.5 45
t9.5 45.5t26 37t38 25t46.5 9.5t46.5 -9.5t38 -25t26 -37t9.5 -45.5t-9.5 -45t-26 -37t-38 -25t-46.5 -9zM276 978h201l-103 -149h-149z" />
    <glyph glyph-name="AEacute" unicode="&#x1fc;" horiz-adv-x="1012" 
d="M320 715h645v-174h-275v-101h217v-159h-217v-107h291v-174h-516v135h-187l-56 -135h-215zM340 285h125v256h-18zM582 906h201l-103 -149h-149z" />
    <glyph glyph-name="aeacute" unicode="&#x1fd;" horiz-adv-x="913" 
d="M626 -13q-141 0 -206 88q-31 -41 -78.5 -64.5t-124.5 -23.5q-41 0 -77 9t-63 28t-42.5 49t-15.5 72q0 92 72 133t208 41h49v6q0 34 -12 55t-51 21q-34 0 -47 -16t-16 -40h-184q3 48 22.5 84t53 60.5t79 36.5t99.5 12q118 0 166 -57q65 57 165 57q55 0 103.5 -16t85.5 -49
t58.5 -84.5t21.5 -122.5v-47h-357q8 -98 94 -98q42 0 59 16.5t22 39.5h182q-11 -91 -78 -140.5t-188 -49.5zM703 319q-2 44 -21.5 68t-58.5 24q-36 0 -59 -23.5t-28 -68.5h167zM269 119q37 0 58 17.5t21 46.5v33h-46q-46 0 -67.5 -11t-21.5 -40q0 -46 56 -46zM451 747h193
l-104 -169h-141z" />
    <glyph glyph-name="Oslashacute" unicode="&#x1fe;" horiz-adv-x="820" 
d="M34 23l78 82q-42 48 -63.5 110.5t-21.5 137.5v8q0 83 29.5 150t81 114.5t121.5 73.5t150 26q66 0 124.5 -16t106.5 -46l73 78l57 -56l-68 -72q44 -45 68 -106.5t24 -139.5v-8q0 -84 -27.5 -152.5t-78.5 -117t-123 -75.5t-160 -27q-70 0 -128.5 16.5t-104.5 48.5l-81 -85z
M410 165q69 0 109 49.5t40 140.5v8q0 48 -12 86l-235 -248q37 -36 98 -36zM261 354q0 -48 10 -81l231 245q-39 31 -93 31q-68 0 -108 -47t-40 -140v-8zM377 906h201l-103 -149h-149z" />
    <glyph glyph-name="oslashacute" unicode="&#x1ff;" horiz-adv-x="626" 
d="M22 7l64 68q-31 34 -48 78.5t-17 101.5v8q0 64 22.5 115t62 86.5t93 54.5t115.5 19q95 0 167 -43l65 69l50 -46l-62 -66q33 -34 51.5 -80.5t18.5 -103.5v-8q0 -65 -22.5 -115.5t-62 -85.5t-92.5 -53.5t-114 -18.5q-49 0 -93 11t-80 34l-67 -71zM314 131q47 0 70 32.5
t23 94.5v8q0 13 -1 24t-3 22l-150 -160q22 -21 61 -21zM219 261q0 -23 3 -42l147 157q-23 17 -55 17q-95 0 -95 -124v-8zM289 747h193l-104 -169h-141z" />
    <glyph glyph-name="uni0218" unicode="&#x218;" horiz-adv-x="655" 
d="M334 -13q-152 0 -231.5 60.5t-83.5 181.5h215q1 -17 6.5 -32t17 -26t30 -17.5t46.5 -6.5q40 0 59.5 16.5t19.5 42.5q0 28 -22 40.5t-80 20.5q-77 9 -130 25t-85.5 43.5t-46.5 67t-14 94.5q0 49 19.5 91t56.5 72.5t90 47.5t120 17q134 0 206.5 -55t81.5 -173h-210
q-4 33 -23 51t-55 18q-35 0 -53 -14.5t-18 -37.5q0 -13 4.5 -22.5t16 -16.5t30.5 -12t49 -9q67 -7 119.5 -20.5t88 -39t54 -65t18.5 -99.5q0 -50 -19.5 -94t-57 -77t-92.5 -52.5t-127 -19.5zM202 -206l39 175l172 -12l-101 -190z" />
    <glyph glyph-name="uni0219" unicode="&#x219;" horiz-adv-x="521" 
d="M259 -13q-115 0 -179.5 46t-66.5 135h180q5 -26 18 -40t47 -14q29 0 42 10t13 27t-19.5 27t-72.5 17q-53 6 -91.5 17t-63 30t-36.5 48t-12 71q0 45 18.5 78.5t50 55t74 32.5t90.5 11q51 0 93 -9t73 -29.5t49.5 -53.5t23.5 -81h-177q-5 23 -18.5 36t-40.5 13t-39.5 -10.5
t-12.5 -25.5q0 -18 19 -26.5t63 -13.5q57 -7 98.5 -18t68.5 -30t40.5 -48t13.5 -71q0 -48 -17.5 -83t-50 -57.5t-78 -33t-100.5 -10.5zM135 -206l39 175l172 -12l-101 -190z" />
    <glyph glyph-name="uni021A" unicode="&#x21a;" horiz-adv-x="629" 
d="M200 541h-180v174h589v-174h-181v-541h-228v541zM191 -206l39 175l172 -12l-101 -190z" />
    <glyph glyph-name="uni021B" unicode="&#x21b;" horiz-adv-x="396" 
d="M265 -12q-93 0 -143 44t-50 143v216h-61v132h61v107h197v-107h100v-132h-100v-197q0 -27 13.5 -39t37.5 -12q26 0 49 8v-148q-18 -5 -45 -10t-59 -5zM90 -206l39 175l172 -12l-101 -190z" />
    <glyph glyph-name="uni0237" unicode="&#x237;" horiz-adv-x="303" 
d="M-9 -42q32 2 46.5 15t14.5 43v507h197v-512q0 -44 -12 -79.5t-41 -61t-79 -39.5t-126 -14v141z" />
    <glyph glyph-name="circumflex" unicode="&#x2c6;" horiz-adv-x="400" 
d="M133 746h138l120 -166h-137l-56 53l-56 -53h-134z" />
    <glyph glyph-name="caron" unicode="&#x2c7;" horiz-adv-x="400" 
d="M8 746h137l56 -52l56 52h134l-125 -166h-138z" />
    <glyph glyph-name="breve" unicode="&#x2d8;" horiz-adv-x="400" 
d="M200 581q-76 0 -120.5 41.5t-48.5 121.5h119q2 -21 14.5 -33t35.5 -12q22 0 35.5 12t15.5 33h118q-5 -80 -51 -121.5t-118 -41.5z" />
    <glyph glyph-name="dotaccent" unicode="&#x2d9;" horiz-adv-x="400" 
d="M200 570q-45 0 -74 26.5t-29 68.5t29 69t74 27q44 0 73.5 -27t29.5 -69t-29.5 -68.5t-73.5 -26.5z" />
    <glyph glyph-name="ring" unicode="&#x2da;" horiz-adv-x="400" 
d="M200 642q20 0 32 13.5t12 34.5q0 22 -12 35.5t-32 13.5t-32 -13.5t-12 -35.5q0 -21 12 -34.5t32 -13.5zM200 574q-25 0 -46.5 9t-38 25t-26 37t-9.5 45t9.5 45.5t26 37t38 25t46.5 9.5t46.5 -9.5t38 -25t26 -37t9.5 -45.5t-9.5 -45t-26 -37t-38 -25t-46.5 -9z" />
    <glyph glyph-name="ogonek" unicode="&#x2db;" horiz-adv-x="400" 
d="M194 -182q-24 0 -46 5t-38 15t-25.5 24.5t-9.5 33.5t7.5 35t20 29t28.5 22.5t32 17.5h108q-19 -16 -28.5 -30t-9.5 -29q0 -13 8 -19.5t22 -6.5q16 0 25 4v-84q-14 -7 -38 -12t-56 -5z" />
    <glyph glyph-name="tilde" unicode="&#x2dc;" horiz-adv-x="400" 
d="M266 581q-22 0 -39 5t-31 11t-25.5 11t-22.5 5q-12 0 -20 -8.5t-10 -21.5h-104q5 83 37.5 122.5t80.5 39.5q21 0 37.5 -5t31 -11t27.5 -11t25 -5q25 0 30 31h104q-3 -42 -13.5 -72.5t-26.5 -50.5t-37 -30t-44 -10z" />
    <glyph glyph-name="hungarumlaut" unicode="&#x2dd;" horiz-adv-x="400" 
d="M91 747h148l-78 -169h-114zM272 747h148l-77 -169h-115z" />
    <glyph glyph-name="Wgrave" unicode="&#x1e80;" horiz-adv-x="1009" 
d="M10 715h229l82 -427l86 427h197l97 -432l87 432h210l-166 -715h-229l-100 427l-101 -427h-226zM340 906h202l47 -149h-149z" />
    <glyph glyph-name="wgrave" unicode="&#x1e81;" horiz-adv-x="854" 
d="M5 523h205l68 -293l80 293h158l70 -293l79 293h184l-166 -523h-185l-73 273l-72 -273h-191zM265 747h193l52 -169h-141z" />
    <glyph glyph-name="Wacute" unicode="&#x1e82;" horiz-adv-x="1009" 
d="M10 715h229l82 -427l86 427h197l97 -432l87 432h210l-166 -715h-229l-100 427l-101 -427h-226zM478 906h201l-103 -149h-149z" />
    <glyph glyph-name="wacute" unicode="&#x1e83;" horiz-adv-x="854" 
d="M5 523h205l68 -293l80 293h158l70 -293l79 293h184l-166 -523h-185l-73 273l-72 -273h-191zM419 747h193l-104 -169h-141z" />
    <glyph glyph-name="Wdieresis" unicode="&#x1e84;" horiz-adv-x="1009" 
d="M10 715h229l82 -427l86 427h197l97 -432l87 432h210l-166 -715h-229l-100 427l-101 -427h-226zM393 752q-19 0 -35.5 7t-29 19t-19.5 28.5t-7 34.5q0 19 7 35t19.5 28t29 19t35.5 7t36 -7t29.5 -19t19.5 -28t7 -35q0 -18 -7 -34.5t-19.5 -28.5t-29.5 -19t-36 -7zM620 752
q-19 0 -35.5 7t-29 19t-19.5 28.5t-7 34.5q0 19 7 35t19.5 28t29 19t35.5 7t36 -7t29.5 -19t19.5 -28t7 -35q0 -18 -7 -34.5t-19.5 -28.5t-29.5 -19t-36 -7z" />
    <glyph glyph-name="wdieresis" unicode="&#x1e85;" horiz-adv-x="854" 
d="M5 523h205l68 -293l80 293h158l70 -293l79 293h184l-166 -523h-185l-73 273l-72 -273h-191zM327 570q-19 0 -35.5 7t-29 19t-19.5 28.5t-7 34.5t7 34.5t19.5 28.5t29 19t35.5 7t36 -7t29.5 -19t19.5 -28.5t7 -34.5t-7 -34.5t-19.5 -28.5t-29.5 -19t-36 -7zM544 570
q-19 0 -35.5 7t-28.5 19t-19 28.5t-7 34.5t7 34.5t19 28.5t28.5 19t35.5 7q39 0 65.5 -26t26.5 -63t-26.5 -63t-65.5 -26z" />
    <glyph glyph-name="Ygrave" unicode="&#x1ef2;" horiz-adv-x="692" 
d="M237 305l-232 410h246l109 -224l110 224h217l-222 -409v-306h-228v305zM188 906h202l47 -149h-149z" />
    <glyph glyph-name="ygrave" unicode="&#x1ef3;" 
d="M214 52l-209 471h213l99 -261l92 261h186l-279 -697h-187zM141 747h193l52 -169h-141z" />
    <glyph glyph-name="uni2009" unicode="&#x2009;" horiz-adv-x="83" 
 />
    <glyph glyph-name="endash" unicode="&#x2013;" horiz-adv-x="543" 
d="M46 351h451v-112h-451v112z" />
    <glyph glyph-name="emdash" unicode="&#x2014;" horiz-adv-x="958" 
d="M46 351h866v-112h-866v112z" />
    <glyph glyph-name="quoteleft" unicode="&#x2018;" horiz-adv-x="321" 
d="M28 473l141 255l110 -40l-78 -271z" />
    <glyph glyph-name="quoteright" unicode="&#x2019;" horiz-adv-x="321" 
d="M42 459l78 269l171 -55l-140 -256z" />
    <glyph glyph-name="quotesinglbase" unicode="&#x201a;" horiz-adv-x="319" 
d="M38 -63l78 270l172 -56l-141 -256z" />
    <glyph glyph-name="quotedblleft" unicode="&#x201c;" horiz-adv-x="555" 
d="M28 473l141 255l110 -40l-78 -271zM265 473l140 255l109 -40l-78 -271z" />
    <glyph glyph-name="quotedblright" unicode="&#x201d;" horiz-adv-x="555" 
d="M42 459l78 269l171 -55l-140 -256zM277 459l78 269l173 -55l-141 -256z" />
    <glyph glyph-name="quotedblbase" unicode="&#x201e;" horiz-adv-x="555" 
d="M38 -63l78 270l172 -56l-141 -256zM273 -63l78 270l173 -56l-141 -256z" />
    <glyph glyph-name="dagger" unicode="&#x2020;" horiz-adv-x="411" 
d="M127 464h-105v136h105v115h157v-115h105v-136h-105v-251h-157v251z" />
    <glyph glyph-name="daggerdbl" unicode="&#x2021;" horiz-adv-x="411" 
d="M127 497h-105v123h105v95h157v-95h105v-123h-105v-66h105v-123h-105v-95h-157v95h-105v123h105v66z" />
    <glyph glyph-name="bullet" unicode="&#x2022;" horiz-adv-x="379" 
d="M189 150q-32 0 -60 12t-48 32.5t-31.5 48t-11.5 59.5q0 31 11.5 59t31.5 48.5t48 32.5t60 12q33 0 61 -12t48 -32.5t31.5 -48.5t11.5 -59q0 -32 -11.5 -59.5t-31.5 -48t-48 -32.5t-61 -12z" />
    <glyph glyph-name="ellipsis" unicode="&#x2026;" horiz-adv-x="909" 
d="M150 -12q-24 0 -44 8.5t-34.5 23t-23 34t-8.5 42.5q0 45 31 76t79 31q24 0 44.5 -8.5t35.5 -23t23.5 -34t8.5 -41.5q0 -23 -8.5 -42.5t-23.5 -34t-35.5 -23t-44.5 -8.5zM453 -12q-48 0 -78.5 31t-30.5 77q0 45 30.5 76t78.5 31q24 0 44.5 -8.5t35.5 -23t23.5 -34
t8.5 -41.5q0 -46 -31.5 -77t-80.5 -31zM756 -12q-48 0 -78.5 31t-30.5 77q0 45 30.5 76t78.5 31q24 0 45 -8.5t36 -23t23.5 -34t8.5 -41.5q0 -46 -32 -77t-81 -31z" />
    <glyph glyph-name="perthousand" unicode="&#x2030;" horiz-adv-x="1240" 
d="M216 475q26 0 39 19t13 52q0 32 -13 50.5t-39 18.5q-24 0 -38 -18.5t-14 -50.5q0 -34 14 -52.5t38 -18.5zM216 363q-47 0 -82.5 14t-60.5 38.5t-37.5 57.5t-12.5 72q0 38 14.5 70.5t40.5 56.5t61 37.5t77 13.5t77 -13t61 -36t40.5 -55t14.5 -70q0 -39 -13.5 -73t-38 -59
t-60.5 -39.5t-81 -14.5zM620 715h102l-508 -715h-101zM613 99q26 0 39 19.5t13 51.5t-13 50.5t-39 18.5q-24 0 -38 -18.5t-14 -50.5q0 -34 14 -52.5t38 -18.5zM613 -13q-47 0 -82.5 14t-60.5 38.5t-37.5 57.5t-12.5 72q0 38 14.5 71t40.5 57t61 37.5t77 13.5t77 -13t61 -36
t40.5 -55t14.5 -71t-13.5 -73t-38 -59t-60.5 -39.5t-81 -14.5zM1024 99q26 0 39 19.5t13 51.5t-13 50.5t-39 18.5q-25 0 -38.5 -18.5t-13.5 -50.5q0 -34 13.5 -52.5t38.5 -18.5zM1023 -13q-46 0 -82 14t-60.5 38.5t-37 57.5t-12.5 72q0 38 14.5 71t40.5 57t61 37.5t77 13.5
q41 0 76.5 -13t61.5 -36t40.5 -55t14.5 -71t-13.5 -73t-38.5 -59t-61 -39.5t-81 -14.5z" />
    <glyph glyph-name="uni2032" unicode="&#x2032;" horiz-adv-x="256" 
d="M52 715h183l-63 -281h-139z" />
    <glyph glyph-name="uni2033" unicode="&#x2033;" horiz-adv-x="478" 
d="M52 715h183l-63 -281h-139zM274 715h183l-64 -281h-139z" />
    <glyph glyph-name="guilsinglleft" unicode="&#x2039;" horiz-adv-x="304" 
d="M25 261l124 194h129l-119 -194l119 -194h-129z" />
    <glyph glyph-name="guilsinglright" unicode="&#x203a;" horiz-adv-x="304" 
d="M145 261l-119 194h129l124 -194l-124 -194h-129z" />
    <glyph glyph-name="fraction" unicode="&#x2044;" horiz-adv-x="178" 
d="M324 715h99l-569 -715h-100z" />
    <glyph glyph-name="zero.sup" unicode="&#x2070;" horiz-adv-x="435" 
d="M217 494q28 0 39.5 21t11.5 66v6q0 47 -12 66t-40 19q-27 0 -38 -19.5t-11 -65.5v-7q0 -45 11 -65.5t39 -20.5zM214 385q-93 0 -142.5 50t-49.5 145v6q0 47 15 83t41 61t61.5 37.5t77.5 12.5q41 0 76.5 -11t62 -34.5t42 -59.5t15.5 -86v-5q0 -95 -53 -147t-146 -52z" />
    <glyph glyph-name="four.sup" unicode="&#x2074;" horiz-adv-x="408" 
d="M201 462h-190v54l157 258h172v-218h48v-94h-48v-70h-139v70zM205 556v124l-72 -124h72z" />
    <glyph glyph-name="five.sup" unicode="&#x2075;" horiz-adv-x="379" 
d="M186 385q-87 0 -126.5 37t-40.5 93h131q2 -11 8.5 -18.5t23.5 -7.5q15 0 23.5 10t8.5 27q0 35 -35 35q-15 0 -23.5 -7t-11.5 -16h-114l12 236h293v-100h-194l-4 -78q12 19 34.5 35t68.5 16q53 0 85.5 -30t32.5 -88q0 -67 -44.5 -105.5t-127.5 -38.5z" />
    <glyph glyph-name="six.sup" unicode="&#x2076;" horiz-adv-x="404" 
d="M212 385q-51 0 -87 14t-59 39t-33.5 60.5t-10.5 79.5v11q0 44 14.5 79.5t40 60t60.5 38t76 13.5q77 0 118 -31.5t46 -91.5h-131q-2 8 -8 15t-21 7q-26 0 -37.5 -22.5t-13.5 -57.5q13 17 32.5 28.5t57.5 11.5q26 0 49.5 -6t41 -20t28 -36.5t10.5 -54.5q0 -62 -45.5 -99.5
t-127.5 -37.5zM210 480q17 0 27 11.5t10 28.5t-10 28t-27 11t-26.5 -11.5t-9.5 -28.5t9.5 -28t26.5 -11z" />
    <glyph glyph-name="seven.sup" unicode="&#x2077;" horiz-adv-x="357" 
d="M166 661h-147v113h328v-14l-139 -368h-144z" />
    <glyph glyph-name="eight.sup" unicode="&#x2078;" horiz-adv-x="393" 
d="M197 385q-89 0 -134 29t-45 85q0 30 16.5 55t53.5 37q-25 11 -39 29t-14 49q0 27 12.5 47.5t34.5 34.5t51.5 21.5t64.5 7.5q72 0 117 -28t45 -83q0 -30 -14 -48.5t-39 -28.5q36 -11 52 -35t16 -54q0 -56 -45 -87t-133 -31zM197 480q17 0 27.5 10t10.5 26q0 15 -10.5 25
t-27.5 10t-27.5 -9.5t-10.5 -26.5q0 -16 10.5 -25.5t27.5 -9.5zM198 623q14 0 24 9.5t10 23.5t-10 23t-24 9t-24.5 -9t-10.5 -24q0 -14 10.5 -23t24.5 -9z" />
    <glyph glyph-name="nine.sup" unicode="&#x2079;" horiz-adv-x="404" 
d="M192 385q-75 0 -118 32t-48 91h132q2 -9 8 -15.5t23 -6.5q27 0 37 21.5t11 56.5q-12 -17 -29 -27.5t-54 -10.5q-28 0 -52.5 6t-43 20t-29 36t-10.5 55q0 62 46 99.5t127 37.5q49 0 85 -14.5t59 -40.5t34.5 -61t11.5 -77v-8q0 -93 -48 -143.5t-142 -50.5zM192 606
q17 0 27 10.5t10 27.5t-9.5 29t-27.5 12q-17 0 -26.5 -11.5t-9.5 -29.5q0 -17 9.5 -27.5t26.5 -10.5z" />
    <glyph glyph-name="plus.sup" unicode="&#x207a;" horiz-adv-x="361" 
d="M130 539h-96v100h96v98h101v-98h96v-100h-96v-97h-101v97z" />
    <glyph glyph-name="minus.sup" unicode="&#x207b;" horiz-adv-x="361" 
d="M34 639h293v-100h-293v100z" />
    <glyph glyph-name="zero.sub" unicode="&#x2080;" horiz-adv-x="435" 
d="M217 -24q28 0 39.5 21t11.5 66v6q0 47 -12 66t-40 19q-27 0 -38 -19.5t-11 -65.5v-7q0 -45 11 -65.5t39 -20.5zM214 -133q-93 0 -142.5 50t-49.5 145v6q0 47 15 83t41 61t61.5 37.5t77.5 12.5q41 0 76.5 -11t62 -34.5t42 -59.5t15.5 -86v-5q0 -95 -53 -147t-146 -52z" />
    <glyph glyph-name="one.sub" unicode="&#x2081;" horiz-adv-x="297" 
d="M102 117l-83 -45v116l104 68h124v-382h-145v243z" />
    <glyph glyph-name="two.sub" unicode="&#x2082;" horiz-adv-x="366" 
d="M4 -108l129 132q32 33 51 57t19 46q0 14 -6.5 22t-21.5 8q-30 0 -36 -51h-131q2 78 49 117t126 39q83 0 122 -36t39 -88q0 -40 -22 -71.5t-56 -63.5l-28 -26h108v-103h-342v18z" />
    <glyph glyph-name="three.sub" unicode="&#x2083;" horiz-adv-x="385" 
d="M193 -133q-47 0 -80 10.5t-54 28.5t-31 43t-11 55h127q2 -16 11 -27t29 -11q34 0 34 31q0 29 -41 29h-31v79h31q43 0 43 31q0 27 -31 27q-32 0 -38 -35h-126q5 58 46 96t122 38q77 0 119.5 -28t42.5 -79q0 -32 -18 -53t-51 -29q34 -5 55.5 -27t21.5 -55
q0 -55 -41.5 -89.5t-128.5 -34.5z" />
    <glyph glyph-name="four.sub" unicode="&#x2084;" horiz-adv-x="408" 
d="M201 -56h-190v54l157 258h172v-218h48v-94h-48v-70h-139v70zM205 38v124l-72 -124h72z" />
    <glyph glyph-name="five.sub" unicode="&#x2085;" horiz-adv-x="379" 
d="M186 -133q-87 0 -126.5 37t-40.5 93h131q2 -11 8.5 -18.5t23.5 -7.5q15 0 23.5 10t8.5 27q0 35 -35 35q-15 0 -23.5 -7t-11.5 -16h-114l12 236h293v-100h-194l-4 -78q12 19 34.5 35t68.5 16q53 0 85.5 -30t32.5 -88q0 -67 -44.5 -105.5t-127.5 -38.5z" />
    <glyph glyph-name="six.sub" unicode="&#x2086;" horiz-adv-x="404" 
d="M212 -133q-51 0 -87 14t-59 39t-33.5 60.5t-10.5 79.5v11q0 44 14.5 79.5t40 60t60.5 38t76 13.5q77 0 118 -31.5t46 -91.5h-131q-2 8 -8 15t-21 7q-26 0 -37.5 -22.5t-13.5 -57.5q13 17 32.5 28.5t57.5 11.5q26 0 49.5 -6t41 -20t28 -36.5t10.5 -54.5q0 -62 -45.5 -99.5
t-127.5 -37.5zM210 -38q17 0 27 11.5t10 28.5t-10 28t-27 11t-26.5 -11.5t-9.5 -28.5t9.5 -28t26.5 -11z" />
    <glyph glyph-name="seven.sub" unicode="&#x2087;" horiz-adv-x="357" 
d="M166 143h-147v113h328v-14l-139 -368h-144z" />
    <glyph glyph-name="eight.sub" unicode="&#x2088;" horiz-adv-x="393" 
d="M197 -133q-89 0 -134 29t-45 85q0 30 16.5 55t53.5 37q-25 11 -39 29t-14 49q0 27 12.5 47.5t34.5 34.5t51.5 21.5t64.5 7.5q72 0 117 -28t45 -83q0 -30 -14 -48.5t-39 -28.5q36 -11 52 -35t16 -54q0 -56 -45 -87t-133 -31zM197 -38q17 0 27.5 10t10.5 26q0 15 -10.5 25
t-27.5 10t-27.5 -9.5t-10.5 -26.5q0 -16 10.5 -25.5t27.5 -9.5zM198 105q14 0 24 9.5t10 23.5t-10 23t-24 9t-24.5 -9t-10.5 -24q0 -14 10.5 -23t24.5 -9z" />
    <glyph glyph-name="nine.sub" unicode="&#x2089;" horiz-adv-x="404" 
d="M192 -133q-75 0 -118 32t-48 91h132q2 -9 8 -15.5t23 -6.5q27 0 37 21.5t11 56.5q-12 -17 -29 -27.5t-54 -10.5q-28 0 -52.5 6t-43 20t-29 36t-10.5 55q0 62 46 99.5t127 37.5q49 0 85 -14.5t59 -40.5t34.5 -61t11.5 -77v-8q0 -93 -48 -143.5t-142 -50.5zM192 88
q17 0 27 10.5t10 27.5t-9.5 29t-27.5 12q-17 0 -26.5 -11.5t-9.5 -29.5q0 -17 9.5 -27.5t26.5 -10.5z" />
    <glyph glyph-name="plus.sub" unicode="&#x208a;" horiz-adv-x="361" 
d="M130 22h-96v99h96v99h101v-99h96v-99h-96v-98h-101v98z" />
    <glyph glyph-name="minus.sub" unicode="&#x208b;" horiz-adv-x="361" 
d="M34 121h293v-99h-293v99z" />
    <glyph glyph-name="Euro" unicode="&#x20ac;" horiz-adv-x="728" 
d="M21 452h61q10 60 37 110.5t68 87t95 56.5t119 20q135 0 211 -66.5t88 -198.5h-209q-11 94 -92 94q-43 0 -66 -27.5t-31 -75.5h139l-13 -74h-131v-46h123l-12 -74h-107q8 -47 31 -72t68 -25q48 0 69.5 26.5t27.5 80.5h208q-16 -133 -91 -207t-220 -74q-70 0 -124.5 20
t-93.5 56t-62.5 85.5t-31.5 109.5h-61v74h56v46h-56v74z" />
    <glyph glyph-name="trademark" unicode="&#x2122;" horiz-adv-x="768" 
d="M341 715h137l54 -146l55 146h139v-321h-117v170l-66 -170h-37l-65 170v-170h-100v321zM109 623h-81v92h277v-92h-80v-229h-116v229z" />
    <glyph glyph-name="onethird" unicode="&#x2153;" horiz-adv-x="830" 
d="M105 576l-83 -45v116l104 68h124v-382h-145v243zM630 715h99l-569 -715h-100zM634 -7q-47 0 -80 10.5t-54 28.5t-31 43t-11 55h127q2 -16 11 -27t29 -11q34 0 34 31q0 29 -41 29h-31v79h31q43 0 43 31q0 27 -31 27q-32 0 -38 -35h-126q5 58 46 96t122 38q77 0 119.5 -28
t42.5 -79q0 -32 -18 -53t-51 -29q34 -5 55.5 -27t21.5 -55q0 -55 -41.5 -89.5t-128.5 -34.5z" />
    <glyph glyph-name="twothirds" unicode="&#x2154;" horiz-adv-x="879" 
d="M7 351l129 132q32 33 51 57t19 46q0 14 -6.5 22t-21.5 8q-30 0 -36 -51h-131q2 78 49 117t126 39q83 0 122 -36t39 -88q0 -40 -22 -71.5t-56 -63.5l-28 -26h108v-103h-342v18zM695 715h99l-569 -715h-100zM683 -7q-47 0 -80 10.5t-54 28.5t-31 43t-11 55h127
q2 -16 11 -27t29 -11q34 0 34 31q0 29 -41 29h-31v79h31q43 0 43 31q0 27 -31 27q-32 0 -38 -35h-126q5 58 46 96t122 38q77 0 119.5 -28t42.5 -79q0 -32 -18 -53t-51 -29q34 -5 55.5 -27t21.5 -55q0 -55 -41.5 -89.5t-128.5 -34.5z" />
    <glyph glyph-name="oneeighth" unicode="&#x215b;" horiz-adv-x="825" 
d="M105 576l-83 -45v116l104 68h124v-382h-145v243zM620 715h99l-569 -715h-100zM626 -7q-89 0 -134 29t-45 85q0 30 16.5 55t53.5 37q-25 11 -39 29t-14 49q0 27 12.5 47.5t34.5 34.5t51.5 21.5t64.5 7.5q72 0 117 -28t45 -83q0 -30 -14 -48.5t-39 -28.5q36 -11 52 -35
t16 -54q0 -56 -45 -87t-133 -31zM626 88q17 0 27.5 10t10.5 26q0 15 -10.5 25t-27.5 10t-27.5 -9.5t-10.5 -26.5q0 -16 10.5 -25.5t27.5 -9.5zM627 231q14 0 24 9.5t10 23.5t-10 23t-24 9t-24.5 -9t-10.5 -24q0 -14 10.5 -23t24.5 -9z" />
    <glyph glyph-name="threeeighths" unicode="&#x215c;" horiz-adv-x="865" 
d="M196 326q-47 0 -80 10.5t-54 28.5t-31 43t-11 55h127q2 -16 11 -27t29 -11q34 0 34 31q0 29 -41 29h-31v79h31q43 0 43 31q0 27 -31 27q-32 0 -38 -35h-126q5 58 46 96t122 38q77 0 119.5 -28t42.5 -79q0 -32 -18 -53t-51 -29q34 -5 55.5 -27t21.5 -55q0 -55 -41.5 -89.5
t-128.5 -34.5zM672 715h99l-569 -715h-100zM665 -7q-89 0 -134 29t-45 85q0 30 16.5 55t53.5 37q-25 11 -39 29t-14 49q0 27 12.5 47.5t34.5 34.5t51.5 21.5t64.5 7.5q72 0 117 -28t45 -83q0 -30 -14 -48.5t-39 -28.5q36 -11 52 -35t16 -54q0 -56 -45 -87t-133 -31zM665 88
q17 0 27.5 10t10.5 26q0 15 -10.5 25t-27.5 10t-27.5 -9.5t-10.5 -26.5q0 -16 10.5 -25.5t27.5 -9.5zM666 231q14 0 24 9.5t10 23.5t-10 23t-24 9t-24.5 -9t-10.5 -24q0 -14 10.5 -23t24.5 -9z" />
    <glyph glyph-name="fiveeighths" unicode="&#x215d;" horiz-adv-x="850" 
d="M189 326q-87 0 -126.5 37t-40.5 93h131q2 -11 8.5 -18.5t23.5 -7.5q15 0 23.5 10t8.5 27q0 35 -35 35q-15 0 -23.5 -7t-11.5 -16h-114l12 236h293v-100h-194l-4 -78q12 19 34.5 35t68.5 16q53 0 85.5 -30t32.5 -88q0 -67 -44.5 -105.5t-127.5 -38.5zM656 715h99
l-569 -715h-100zM651 -7q-89 0 -134 29t-45 85q0 30 16.5 55t53.5 37q-25 11 -39 29t-14 49q0 27 12.5 47.5t34.5 34.5t51.5 21.5t64.5 7.5q72 0 117 -28t45 -83q0 -30 -14 -48.5t-39 -28.5q36 -11 52 -35t16 -54q0 -56 -45 -87t-133 -31zM651 88q17 0 27.5 10t10.5 26
q0 15 -10.5 25t-27.5 10t-27.5 -9.5t-10.5 -26.5q0 -16 10.5 -25.5t27.5 -9.5zM652 231q14 0 24 9.5t10 23.5t-10 23t-24 9t-24.5 -9t-10.5 -24q0 -14 10.5 -23t24.5 -9z" />
    <glyph glyph-name="seveneighths" unicode="&#x215e;" horiz-adv-x="818" 
d="M169 602h-147v113h328v-14l-139 -368h-144zM606 715h99l-569 -715h-100zM619 -7q-89 0 -134 29t-45 85q0 30 16.5 55t53.5 37q-25 11 -39 29t-14 49q0 27 12.5 47.5t34.5 34.5t51.5 21.5t64.5 7.5q72 0 117 -28t45 -83q0 -30 -14 -48.5t-39 -28.5q36 -11 52 -35t16 -54
q0 -56 -45 -87t-133 -31zM619 88q17 0 27.5 10t10.5 26q0 15 -10.5 25t-27.5 10t-27.5 -9.5t-10.5 -26.5q0 -16 10.5 -25.5t27.5 -9.5zM620 231q14 0 24 9.5t10 23.5t-10 23t-24 9t-24.5 -9t-10.5 -24q0 -14 10.5 -23t24.5 -9z" />
    <glyph glyph-name="minus" unicode="&#x2212;" horiz-adv-x="582" 
d="M38 414h507v-149h-507v149z" />
    <glyph glyph-name="approxequal" unicode="&#x2248;" horiz-adv-x="593" 
d="M36 113q3 51 16 86.5t32.5 58t45 33t52.5 10.5q31 0 62 -6t60 -13.5t54 -13.5t43 -6q40 0 45 44h111q-2 -48 -14 -83.5t-32 -59t-45.5 -35t-52.5 -11.5q-31 0 -62.5 6t-60.5 13.5t-54.5 14t-43.5 6.5q-20 0 -31 -12t-14 -32h-111zM36 341q3 51 16 86.5t32.5 58t45 33
t52.5 10.5q31 0 62 -6t60 -13t54 -13t43 -6q40 0 45 42h111q-2 -47 -14 -82.5t-32 -58.5t-45.5 -34.5t-52.5 -11.5q-31 0 -62.5 6t-60.5 13.5t-54.5 13.5t-43.5 6q-20 0 -31 -12t-14 -32h-111z" />
    <glyph glyph-name="notequal" unicode="&#x2260;" horiz-adv-x="570" 
d="M38 492h250l37 96h122l-37 -96h121v-131h-172l-26 -68h198v-131h-248l-37 -96h-123l37 96h-122v131h172l27 68h-199v131z" />
    <glyph glyph-name="lessequal" unicode="&#x2264;" horiz-adv-x="514" 
d="M40 376v37l428 229v-174l-149 -72l149 -73v-176zM40 126h428v-126h-428v126z" />
    <glyph glyph-name="greaterequal" unicode="&#x2265;" horiz-adv-x="514" 
d="M46 323l149 73l-149 72v174l428 -229v-37l-428 -229v176zM46 126h428v-126h-428v126z" />
    <glyph glyph-name="uni24C5" unicode="&#x24c5;" horiz-adv-x="842" 
d="M274 562h165q90 0 129.5 -38t39.5 -102v-2q0 -65 -40 -99.5t-121 -34.5h-38v-129h-135v405zM431 376q50 0 50 44v2q0 39 -49 39h-23v-85h22zM420 31q67 0 125.5 23.5t102.5 67t69.5 103.5t25.5 134q0 72 -25 132t-68 103t-102 66.5t-126 23.5q-68 0 -127 -24t-102.5 -67
t-68.5 -103t-25 -133q0 -74 25.5 -134t69.5 -102.5t102 -66t124 -23.5zM420 -21q-80 0 -150.5 29t-123 79.5t-82.5 119.5t-30 150q0 79 30 148.5t82.5 120.5t123.5 80.5t152 29.5q82 0 153 -29t123 -80t81.5 -120t29.5 -148q0 -81 -30.5 -150.5t-83 -120.5t-123.5 -80
t-152 -29z" />
    <glyph glyph-name="zero.den" unicode="&#xe402;" horiz-adv-x="435" 
d="M217 102q28 0 39.5 21t11.5 66v6q0 47 -12 66t-40 19q-27 0 -38 -19.5t-11 -65.5v-7q0 -45 11 -65.5t39 -20.5zM214 -7q-93 0 -142.5 50t-49.5 145v6q0 47 15 83t41 61t61.5 37.5t77.5 12.5q41 0 76.5 -11t62 -34.5t42 -59.5t15.5 -86v-5q0 -95 -53 -147t-146 -52z" />
    <glyph glyph-name="one.den" unicode="&#xe403;" horiz-adv-x="297" 
d="M102 243l-83 -45v116l104 68h124v-382h-145v243z" />
    <glyph glyph-name="two.den" unicode="&#xe404;" horiz-adv-x="366" 
d="M4 18l129 132q32 33 51 57t19 46q0 14 -6.5 22t-21.5 8q-30 0 -36 -51h-131q2 78 49 117t126 39q83 0 122 -36t39 -88q0 -40 -22 -71.5t-56 -63.5l-28 -26h108v-103h-342v18z" />
    <glyph glyph-name="three.den" unicode="&#xe405;" horiz-adv-x="385" 
d="M193 -7q-47 0 -80 10.5t-54 28.5t-31 43t-11 55h127q2 -16 11 -27t29 -11q34 0 34 31q0 29 -41 29h-31v79h31q43 0 43 31q0 27 -31 27q-32 0 -38 -35h-126q5 58 46 96t122 38q77 0 119.5 -28t42.5 -79q0 -32 -18 -53t-51 -29q34 -5 55.5 -27t21.5 -55q0 -55 -41.5 -89.5
t-128.5 -34.5z" />
    <glyph glyph-name="four.den" unicode="&#xe406;" horiz-adv-x="408" 
d="M201 70h-190v54l157 258h172v-218h48v-94h-48v-70h-139v70zM205 164v124l-72 -124h72z" />
    <glyph glyph-name="five.den" unicode="&#xe407;" horiz-adv-x="379" 
d="M186 -7q-87 0 -126.5 37t-40.5 93h131q2 -11 8.5 -18.5t23.5 -7.5q15 0 23.5 10t8.5 27q0 35 -35 35q-15 0 -23.5 -7t-11.5 -16h-114l12 236h293v-100h-194l-4 -78q12 19 34.5 35t68.5 16q53 0 85.5 -30t32.5 -88q0 -67 -44.5 -105.5t-127.5 -38.5z" />
    <glyph glyph-name="six.den" unicode="&#xe408;" horiz-adv-x="404" 
d="M212 -7q-51 0 -87 14t-59 39t-33.5 60.5t-10.5 79.5v11q0 44 14.5 79.5t40 60t60.5 38t76 13.5q77 0 118 -31.5t46 -91.5h-131q-2 8 -8 15t-21 7q-26 0 -37.5 -22.5t-13.5 -57.5q13 17 32.5 28.5t57.5 11.5q26 0 49.5 -6t41 -20t28 -36.5t10.5 -54.5q0 -62 -45.5 -99.5
t-127.5 -37.5zM210 88q17 0 27 11.5t10 28.5t-10 28t-27 11t-26.5 -11.5t-9.5 -28.5t9.5 -28t26.5 -11z" />
    <glyph glyph-name="seven.den" unicode="&#xe409;" horiz-adv-x="357" 
d="M166 269h-147v113h328v-14l-139 -368h-144z" />
    <glyph glyph-name="eight.den" unicode="&#xe40a;" horiz-adv-x="393" 
d="M197 -7q-89 0 -134 29t-45 85q0 30 16.5 55t53.5 37q-25 11 -39 29t-14 49q0 27 12.5 47.5t34.5 34.5t51.5 21.5t64.5 7.5q72 0 117 -28t45 -83q0 -30 -14 -48.5t-39 -28.5q36 -11 52 -35t16 -54q0 -56 -45 -87t-133 -31zM197 88q17 0 27.5 10t10.5 26q0 15 -10.5 25
t-27.5 10t-27.5 -9.5t-10.5 -26.5q0 -16 10.5 -25.5t27.5 -9.5zM198 231q14 0 24 9.5t10 23.5t-10 23t-24 9t-24.5 -9t-10.5 -24q0 -14 10.5 -23t24.5 -9z" />
    <glyph glyph-name="nine.den" unicode="&#xe40b;" horiz-adv-x="404" 
d="M192 -7q-75 0 -118 32t-48 91h132q2 -9 8 -15.5t23 -6.5q27 0 37 21.5t11 56.5q-12 -17 -29 -27.5t-54 -10.5q-28 0 -52.5 6t-43 20t-29 36t-10.5 55q0 62 46 99.5t127 37.5q49 0 85 -14.5t59 -40.5t34.5 -61t11.5 -77v-8q0 -93 -48 -143.5t-142 -50.5zM192 214
q17 0 27 10.5t10 27.5t-9.5 29t-27.5 12q-17 0 -26.5 -11.5t-9.5 -29.5q0 -17 9.5 -27.5t26.5 -10.5z" />
    <glyph glyph-name="zero.num" unicode="&#xe416;" horiz-adv-x="435" 
d="M217 435q28 0 39.5 21t11.5 66v6q0 47 -12 66t-40 19q-27 0 -38 -19.5t-11 -65.5v-7q0 -45 11 -65.5t39 -20.5zM214 326q-93 0 -142.5 50t-49.5 145v6q0 47 15 83t41 61t61.5 37.5t77.5 12.5q41 0 76.5 -11t62 -34.5t42 -59.5t15.5 -86v-5q0 -95 -53 -147t-146 -52z" />
    <glyph glyph-name="one.num" unicode="&#xe417;" horiz-adv-x="297" 
d="M102 576l-83 -45v116l104 68h124v-382h-145v243z" />
    <glyph glyph-name="two.num" unicode="&#xe418;" horiz-adv-x="366" 
d="M4 351l129 132q32 33 51 57t19 46q0 14 -6.5 22t-21.5 8q-30 0 -36 -51h-131q2 78 49 117t126 39q83 0 122 -36t39 -88q0 -40 -22 -71.5t-56 -63.5l-28 -26h108v-103h-342v18z" />
    <glyph glyph-name="three.num" unicode="&#xe419;" horiz-adv-x="385" 
d="M193 326q-47 0 -80 10.5t-54 28.5t-31 43t-11 55h127q2 -16 11 -27t29 -11q34 0 34 31q0 29 -41 29h-31v79h31q43 0 43 31q0 27 -31 27q-32 0 -38 -35h-126q5 58 46 96t122 38q77 0 119.5 -28t42.5 -79q0 -32 -18 -53t-51 -29q34 -5 55.5 -27t21.5 -55q0 -55 -41.5 -89.5
t-128.5 -34.5z" />
    <glyph glyph-name="four.num" unicode="&#xe41a;" horiz-adv-x="408" 
d="M201 403h-190v54l157 258h172v-218h48v-94h-48v-70h-139v70zM205 497v124l-72 -124h72z" />
    <glyph glyph-name="five.num" unicode="&#xe41b;" horiz-adv-x="378" 
d="M186 326q-87 0 -126.5 37t-40.5 93h131q2 -11 8.5 -18.5t23.5 -7.5q15 0 23.5 10t8.5 27q0 35 -35 35q-15 0 -23.5 -7t-11.5 -16h-114l12 236h293v-100h-194l-4 -78q12 19 34.5 35t68.5 16q53 0 85.5 -30t32.5 -88q0 -67 -44.5 -105.5t-127.5 -38.5z" />
    <glyph glyph-name="six.num" unicode="&#xe41c;" horiz-adv-x="404" 
d="M212 326q-51 0 -87 14t-59 39t-33.5 60.5t-10.5 79.5v11q0 44 14.5 79.5t40 60t60.5 38t76 13.5q77 0 118 -31.5t46 -91.5h-131q-2 8 -8 15t-21 7q-26 0 -37.5 -22.5t-13.5 -57.5q13 17 32.5 28.5t57.5 11.5q26 0 49.5 -6t41 -20t28 -36.5t10.5 -54.5q0 -62 -45.5 -99.5
t-127.5 -37.5zM210 421q17 0 27 11.5t10 28.5t-10 28t-27 11t-26.5 -11.5t-9.5 -28.5t9.5 -28t26.5 -11z" />
    <glyph glyph-name="seven.num" unicode="&#xe41d;" horiz-adv-x="357" 
d="M166 602h-147v113h328v-14l-139 -368h-144z" />
    <glyph glyph-name="eight.num" unicode="&#xe41e;" horiz-adv-x="393" 
d="M197 326q-89 0 -134 29t-45 85q0 30 16.5 55t53.5 37q-25 11 -39 29t-14 49q0 27 12.5 47.5t34.5 34.5t51.5 21.5t64.5 7.5q72 0 117 -28t45 -83q0 -30 -14 -48.5t-39 -28.5q36 -11 52 -35t16 -54q0 -56 -45 -87t-133 -31zM197 421q17 0 27.5 10t10.5 26q0 15 -10.5 25
t-27.5 10t-27.5 -9.5t-10.5 -26.5q0 -16 10.5 -25.5t27.5 -9.5zM198 564q14 0 24 9.5t10 23.5t-10 23t-24 9t-24.5 -9t-10.5 -24q0 -14 10.5 -23t24.5 -9z" />
    <glyph glyph-name="nine.num" unicode="&#xe41f;" horiz-adv-x="404" 
d="M192 326q-75 0 -118 32t-48 91h132q2 -9 8 -15.5t23 -6.5q27 0 37 21.5t11 56.5q-12 -17 -29 -27.5t-54 -10.5q-28 0 -52.5 6t-43 20t-29 36t-10.5 55q0 62 46 99.5t127 37.5q49 0 85 -14.5t59 -40.5t34.5 -61t11.5 -77v-8q0 -93 -48 -143.5t-142 -50.5zM192 547
q17 0 27 10.5t10 27.5t-9.5 29t-27.5 12q-17 0 -26.5 -11.5t-9.5 -29.5q0 -17 9.5 -27.5t26.5 -10.5z" />
    <glyph glyph-name="f_i" unicode="&#xfb01;" horiz-adv-x="689" 
d="M75 391h-64v132h64v39q0 51 15.5 88t44 61t68 35.5t87.5 11.5q26 0 45.5 -2.5t37.5 -7.5v-142q-10 3 -20 4.5t-25 1.5q-29 0 -42.5 -14.5t-13.5 -36.5v-38h101v-132h-101v-391h-197v391zM439 523h196v-523h-196v523zM537 562q-46 0 -76.5 28t-30.5 71q0 44 30.5 72
t76.5 28q45 0 75.5 -28t30.5 -72q0 -43 -30.5 -71t-75.5 -28z" />
    <glyph glyph-name="f_l" unicode="&#xfb02;" horiz-adv-x="687" 
d="M75 391h-64v132h64v39q0 51 15.5 88t44 61t68 35.5t87.5 11.5q26 0 45.5 -2.5t37.5 -7.5v-142q-10 3 -20 4.5t-25 1.5q-29 0 -42.5 -14.5t-13.5 -36.5v-38h101v-132h-101v-391h-197v391zM438 750h196v-750h-196v750z" />
    <glyph glyph-name="idotaccent" horiz-adv-x="303" 
d="M151 562q-46 0 -76.5 28t-30.5 71q0 44 30.5 72t76.5 28q45 0 75.5 -28t30.5 -72q0 -43 -30.5 -71t-75.5 -28zM53 523h196v-523h-196v523z" />
    <glyph glyph-name="space_uni0326" horiz-adv-x="400" 
d="M90 -206l39 175l172 -12l-101 -190z" />
    <glyph glyph-name="dollar.old" horiz-adv-x="639" 
d="M279 -10q-126 9 -190 70.5t-69 159.5h194q2 -30 17 -52t48 -30v126q-66 9 -112.5 25.5t-76.5 43t-43.5 64t-13.5 88.5q0 45 17 83t48.5 66.5t77.5 46t103 21.5v87h81v-88q108 -9 170.5 -60t71.5 -153h-190q-3 24 -14.5 40.5t-37.5 24.5v-118q56 -8 102 -22t79 -38.5
t51 -61.5t18 -90q0 -45 -14.5 -85.5t-45 -72t-77.5 -51.5t-113 -24v-121h-81v121zM417 197q0 21 -12 33t-45 20v-114q29 7 43 22.5t14 38.5zM221 501q0 -23 13 -35t45 -20v110q-29 -5 -43.5 -19.5t-14.5 -35.5z" />
    <glyph glyph-name="Euro.old" horiz-adv-x="706" 
d="M20 438h60q9 59 35 108t66 84t92.5 54.5t115.5 19.5q131 0 204.5 -64.5t84.5 -192.5h-201q-12 92 -90 92q-42 0 -64.5 -27t-30.5 -74h137l-14 -71h-127v-45h120l-12 -71h-104q8 -46 30 -70.5t66 -24.5q46 0 67.5 25.5t26.5 78.5h201q-14 -129 -87 -201t-214 -72
q-68 0 -120.5 19.5t-90.5 54.5t-61 83.5t-31 106.5h-59v71h55v45h-55v71z" />
    <glyph glyph-name="sterling.old" horiz-adv-x="657" 
d="M31 397h46q-5 18 -7.5 37.5t-2.5 42.5q0 55 21 97.5t58.5 71t88 43t109.5 14.5q71 0 122 -17.5t84.5 -49.5t50.5 -76.5t19 -99.5h-200q-5 42 -21.5 60.5t-47.5 18.5t-49 -20t-18 -55q0 -17 1.5 -33.5t3.5 -33.5h165v-120h-148q1 -11 1.5 -22.5t0.5 -22.5q0 -15 -2 -28
t-6 -26q22 -6 40.5 -11.5t35.5 -5.5q53 0 56 53h199q-2 -48 -16.5 -89t-41 -70.5t-65 -46.5t-88.5 -17q-38 0 -67.5 7.5t-53.5 17t-44 17t-37 7.5q-20 0 -31 -11.5t-13 -28.5h-161q5 58 29 106.5t71 71.5q8 24 8 54q0 22 -6 45h-84v120z" />
    <glyph glyph-name="yen.old" horiz-adv-x="639" 
d="M58 359h130l-180 335h237l88 -210l89 210h210l-173 -335h132v-71h-156v-46h156v-71h-156v-171h-221v171h-156v71h156v46h-156v71z" />
    <glyph glyph-name="zero.old" horiz-adv-x="680" 
d="M341 147q53 0 77 39t24 115v19q0 77 -24 115t-78 38q-53 0 -77.5 -37.5t-24.5 -113.5v-21q0 -77 24.5 -115.5t78.5 -38.5zM337 -13q-69 0 -126.5 20.5t-98.5 60t-64 97.5t-23 133v21q0 75 24 133t66.5 98t100 61t124.5 21q66 0 123.5 -19.5t100 -58.5t66.5 -96.5
t24 -133.5v-20q0 -75 -23.5 -134t-65.5 -99.5t-100 -62t-128 -21.5z" />
    <glyph glyph-name="one.old" horiz-adv-x="444" 
d="M159 412l-127 -76v175l157 108h180v-619h-210v412z" />
    <glyph glyph-name="two.old" horiz-adv-x="594" 
d="M9 29l222 214q55 53 87 92.5t32 78.5q0 26 -15 42.5t-47 16.5t-53 -23.5t-26 -71.5h-189q5 120 79 187t203 67q62 0 110 -14.5t81 -41t50 -63.5t17 -81q0 -32 -9.5 -60t-27 -54.5t-41.5 -52.5t-53 -53l-66 -61h203v-151h-557v29z" />
    <glyph glyph-name="three.old" horiz-adv-x="625" 
d="M318 -104q-76 0 -131 17.5t-91.5 49.5t-55 78t-21.5 103h192q4 -43 25.5 -68t69.5 -25q42 0 63 21.5t21 56.5q0 76 -92 76h-59v130h55q50 0 71 21t21 54t-18.5 51t-51.5 18q-38 0 -61 -22.5t-29 -64.5h-190q3 51 22 95t54.5 76.5t88 50.5t122.5 18q124 0 192.5 -53
t68.5 -143q0 -60 -31 -98t-88 -58q62 -16 98.5 -54.5t36.5 -110.5q0 -47 -17.5 -87.5t-52.5 -69.5t-88 -45.5t-124 -16.5z" />
    <glyph glyph-name="four.old" horiz-adv-x="679" 
d="M360 38h-349v70l296 511h262v-443h91v-138h-91v-130h-209v130zM365 176v284l-154 -284h154z" />
    <glyph glyph-name="five.old" horiz-adv-x="620" 
d="M304 -104q-71 0 -124 18t-88 49.5t-53 74.5t-19 93h196q2 -16 7 -30.5t14.5 -25t25.5 -16.5t39 -6q41 0 62.5 28t21.5 66q0 42 -26 66.5t-70 24.5q-40 0 -66.5 -15t-42.5 -35h-133l17 431h487v-162h-333l-6 -155q23 32 64.5 55t106.5 23q47 0 86 -15t66.5 -44.5t43 -72.5
t15.5 -99q0 -58 -19.5 -104.5t-56.5 -79.5t-91 -51t-124 -18z" />
    <glyph glyph-name="six.old" horiz-adv-x="658" 
d="M340 -12q-84 0 -143 25t-96.5 70.5t-54.5 109t-17 139.5v35q0 85 24 152t66.5 113t101.5 70t128 24q122 0 190.5 -55t79.5 -161h-199q-5 25 -20 41t-50 16q-52 0 -78.5 -47.5t-29.5 -147.5q22 35 59 59.5t101 24.5q47 0 89 -13.5t73.5 -41.5t50 -69.5t18.5 -98.5
q0 -55 -20 -100t-58 -77.5t-92 -50t-123 -17.5zM340 140q40 0 63 26.5t23 65.5t-22.5 65t-63.5 26t-64.5 -26.5t-23.5 -65.5q0 -38 23 -64.5t65 -26.5z" />
    <glyph glyph-name="seven.old" horiz-adv-x="580" 
d="M297 445h-277v174h553v-23l-255 -688h-225z" />
    <glyph glyph-name="eight.old" horiz-adv-x="646" 
d="M323 -13q-69 0 -124.5 14t-94.5 41.5t-59.5 67.5t-20.5 91q0 60 35.5 105t99.5 68q-46 21 -75.5 57t-29.5 91q0 49 21.5 87t58 64t86 39.5t105.5 13.5q58 0 107.5 -13.5t85.5 -39t56.5 -63.5t20.5 -87q0 -56 -30 -92t-75 -56q63 -22 97.5 -65.5t34.5 -102.5
q0 -51 -20.5 -92t-59 -69.5t-94 -43.5t-125.5 -15zM324 139q40 0 64 22.5t24 60.5t-23.5 61t-64.5 23q-39 0 -64 -22t-25 -61t24.5 -61.5t64.5 -22.5zM325 432q32 0 54.5 20t22.5 54t-22.5 54t-54.5 20t-54.5 -20t-22.5 -54t22.5 -54t54.5 -20z" />
    <glyph glyph-name="nine.old" horiz-adv-x="658" 
d="M309 -106q-125 0 -196 58t-81 164h199q5 -24 23 -43.5t55 -19.5q28 0 47.5 10t32 33t19 60t8.5 92q-23 -35 -60 -59.5t-100 -24.5q-47 0 -89 13.5t-73.5 40.5t-50 68t-18.5 96q0 57 20 103t58 78.5t92 50.5t123 18q85 0 144 -25.5t96 -72t53.5 -111t16.5 -143.5v-31
q0 -82 -20.5 -147.5t-61 -111.5t-100 -71t-137.5 -25zM318 297q41 0 64.5 26.5t23.5 64.5q0 39 -23 65.5t-65 26.5q-40 0 -63 -26.5t-23 -65.5t22.5 -65t63.5 -26z" />
    <glyph glyph-name="space.tab" horiz-adv-x="300" 
 />
    <glyph glyph-name="dollar.tab" 
d="M264 -10q-121 8 -183.5 70.5t-66.5 166.5h186q2 -32 16.5 -54.5t47.5 -30.5v128q-63 9 -108 26.5t-74 45t-42.5 66.5t-13.5 92q0 47 16 86t47 68.5t75 47.5t100 22v89h77v-90q104 -9 164 -61.5t67 -158.5h-182q-3 25 -13.5 42t-35.5 25v-122q53 -8 97 -23t76 -40.5
t50 -63.5t18 -93q0 -46 -14 -87.5t-43 -73.5t-74.5 -52.5t-109.5 -24.5v-125h-77v125zM207 517q0 -23 12 -36t45 -21v113q-29 -5 -43 -20t-14 -36zM395 204q0 21 -11.5 33t-42.5 20v-116q27 7 40.5 23.5t13.5 39.5z" />
    <glyph glyph-name="cent.tab" 
d="M279 -11q-55 4 -101.5 23t-80 52t-52.5 81t-19 110v8q0 60 19.5 108t53.5 82.5t80 55.5t100 27v93h74v-93q45 -4 84.5 -19t69.5 -42t49 -66.5t22 -91.5h-174q-8 57 -51 73v-266q25 8 41.5 28.5t19.5 56.5h167q-3 -94 -62 -153t-166 -67v-124h-74v124zM216 257
q0 -56 16 -87.5t47 -42.5v263q-30 -11 -46.5 -41t-16.5 -84v-8z" />
    <glyph glyph-name="Euro.tab" 
d="M11 454h46q3 66 24 116.5t56 85t82.5 52.5t103.5 18q55 0 100 -14t77 -43.5t50 -76t20 -112.5h-181q-2 45 -17 63.5t-48 18.5q-35 0 -52.5 -25.5t-19.5 -82.5h131l-13 -74h-118v-47h110l-12 -73h-98q2 -58 18.5 -83t54.5 -25q35 0 51.5 19.5t18.5 70.5h178
q-2 -134 -67.5 -194.5t-189.5 -60.5q-117 0 -185.5 70t-73.5 203h-46v73h46v47h-46v74z" />
    <glyph glyph-name="sterling.tab" 
d="M27 405h42q-5 20 -7.5 41t-2.5 46q0 58 20 102t54.5 73t81.5 43.5t101 14.5q131 0 190.5 -62t62.5 -184h-180q-5 45 -20 61t-44 16q-30 0 -47.5 -17.5t-17.5 -59.5q0 -18 1.5 -36.5t3.5 -37.5h153v-115h-137q3 -26 3 -51q0 -16 -2.5 -29t-6.5 -26q20 -6 37 -11t33 -5
q24 0 39 12t17 40h182q-3 -107 -53.5 -168t-142.5 -61q-35 0 -61 8t-47 17t-38.5 17t-33.5 8q-20 0 -29.5 -11t-11.5 -30h-154q4 59 24.5 107t62.5 73q4 12 6 26.5t2 32.5q0 25 -6 51h-74v115z" />
    <glyph glyph-name="yen.tab" 
d="M48 370h135l-168 345h224l75 -193l75 193h196l-167 -345h144v-73h-151v-47h151v-74h-151v-176h-219v176h-144v74h144v47h-144v73z" />
    <glyph glyph-name="florin.tab" 
d="M82 415h101l17 119q7 52 26.5 88.5t49 59t68.5 33t86 10.5q26 0 43.5 -2.5t37.5 -8.5v-146q-11 4 -22 5.5t-27 1.5q-59 0 -68 -58l-15 -102h121v-132h-139l-65 -465h-196l65 465h-83v132z" />
    <glyph glyph-name="zero.tab" 
d="M303 157q38 0 50.5 28t12.5 94v157q0 66 -14 94.5t-51 28.5q-38 0 -52.5 -28.5t-14.5 -94.5v-157q0 -67 15.5 -94.5t53.5 -27.5zM296 -13q-127 0 -197 74.5t-70 217.5v156q0 72 20.5 126t56.5 90.5t85.5 55t108.5 18.5q58 0 107.5 -17t86 -52t57 -88.5t20.5 -127.5v-156
q0 -144 -73.5 -220.5t-201.5 -76.5z" />
    <glyph glyph-name="one.tab" 
d="M242 493l-166 -108v188l196 142h197v-715h-227v493z" />
    <glyph glyph-name="two.tab" 
d="M20 31l212 258q27 34 48.5 62t36 52.5t22.5 47t8 45.5q0 31 -13 48t-39 17q-30 0 -44 -24.5t-17 -87.5h-203q2 63 17.5 114t48.5 87t84 55.5t124 19.5q66 0 115.5 -15.5t82 -43.5t48.5 -68t16 -88q0 -38 -11.5 -72t-31 -66t-45.5 -63.5t-55 -63.5l-70 -75h211v-170h-545
v31z" />
    <glyph glyph-name="three.tab" 
d="M306 -13q-146 0 -215 64t-74 189h195q2 -45 19.5 -68t61.5 -23q38 0 55 19.5t17 52.5q0 36 -17.5 54.5t-57.5 18.5h-58v137h56q40 0 59 18.5t19 52.5q0 29 -15.5 45.5t-48.5 16.5q-34 0 -53.5 -20t-22.5 -64h-192q5 115 74 180t198 65q122 0 189.5 -52t67.5 -145
q0 -60 -30 -98.5t-84 -55.5q57 -12 93 -53.5t36 -104.5q0 -52 -17 -94t-51.5 -72t-85.5 -46.5t-118 -16.5z" />
    <glyph glyph-name="four.tab" 
d="M309 135h-294v77l245 503h247v-434h70v-146h-70v-135h-198v135zM313 281v262l-124 -262h124z" />
    <glyph glyph-name="five.tab" 
d="M294 -13q-136 0 -199 62.5t-67 182.5h190q2 -38 18 -55.5t57 -17.5q35 0 50.5 24.5t15.5 66.5q0 41 -21.5 63t-60.5 22q-37 0 -60.5 -14.5t-37.5 -34.5h-131l16 429h461v-163h-307l-6 -152q20 32 57.5 56.5t98.5 24.5q98 0 149.5 -61.5t51.5 -169.5q0 -60 -18 -109
t-52.5 -83t-86 -52.5t-118.5 -18.5z" />
    <glyph glyph-name="six.tab" 
d="M314 -13q-74 0 -128 22.5t-89 64.5t-52 102t-17 135v73q0 82 21.5 145.5t61 107t94 66t120.5 22.5q55 0 99.5 -12.5t76 -39t49 -67.5t19.5 -98h-185q-3 27 -15.5 44t-42.5 17q-49 0 -73.5 -44t-25.5 -141q10 16 22.5 30.5t29.5 25.5t39.5 17.5t52.5 6.5q42 0 79.5 -13
t65.5 -40.5t44.5 -70t16.5 -100.5q0 -57 -18 -103.5t-51.5 -80t-82.5 -51.5t-111 -18zM309 150q35 0 56.5 24t21.5 62q0 42 -22 64.5t-57 22.5t-58 -22t-23 -62q0 -42 23.5 -65.5t58.5 -23.5z" />
    <glyph glyph-name="seven.tab" 
d="M298 536h-265v179h542v-23l-248 -692h-226z" />
    <glyph glyph-name="eight.tab" 
d="M300 -13q-130 0 -204 55.5t-74 159.5q0 60 29.5 105t89.5 68q-42 21 -67 57t-25 90q0 49 20 87t54.5 63.5t80.5 39t98 13.5q54 0 100.5 -13.5t80 -39t52.5 -63t19 -86.5q0 -55 -24.5 -91t-66.5 -56q58 -22 86.5 -65.5t28.5 -103.5q0 -103 -73.5 -161.5t-204.5 -58.5z
M301 148q35 0 57 21t22 57q0 37 -21 58.5t-57 21.5q-35 0 -57.5 -20.5t-22.5 -58.5q0 -37 22 -58t57 -21zM303 431q29 0 49.5 19.5t20.5 51.5q0 33 -21 52t-50 19q-28 0 -49 -19t-21 -51t21 -52t50 -20z" />
    <glyph glyph-name="nine.tab" 
d="M284 -12q-119 0 -185 53t-71 167h186q3 -27 18 -45t47 -18q53 0 73.5 44t21.5 140q-20 -32 -53 -55.5t-92 -23.5q-42 0 -79 12.5t-65.5 39.5t-45 69t-16.5 100q0 57 18 104t52 80.5t83 52t111 18.5q143 0 214 -83.5t71 -238.5v-78q0 -163 -75.5 -250.5t-212.5 -87.5z
M292 393q35 0 58 22t23 61q0 42 -23.5 66t-58.5 24t-56.5 -24t-21.5 -62q0 -42 22 -64.5t57 -22.5z" />
    <glyph glyph-name="percent.tab" horiz-adv-x="800" 
d="M213 488q23 0 35 18t12 49t-12 49t-35 18t-35 -18t-12 -48q0 -32 12 -50t35 -18zM212 383q-43 0 -76.5 13t-57 36.5t-35.5 55t-12 67.5t13.5 66.5t38 53t58 35.5t72.5 13t72 -12t57.5 -34t38 -52.5t13.5 -66.5q0 -37 -12.5 -69t-36 -55.5t-57 -37t-76.5 -13.5zM597 715
h102l-492 -715h-101zM588 92q23 0 34.5 18t11.5 49t-11.5 49t-34.5 18t-35.5 -17.5t-12.5 -48.5q0 -32 12.5 -50t35.5 -18zM587 -13q-43 0 -76.5 13t-57 36.5t-35.5 55t-12 67.5t13.5 67t38 53.5t58 35.5t72.5 13t72 -12t57.5 -34t38 -52.5t13.5 -66.5q0 -37 -12.5 -69
t-36 -56t-57.5 -37.5t-76 -13.5z" />
    <glyph glyph-name="perthousand.tab" horiz-adv-x="1000" 
d="M176 482q19 0 27 16t8 58t-8 58t-27 16q-18 0 -27 -15.5t-9 -57.5q0 -43 9 -59t27 -16zM175 386q-75 0 -116 46.5t-41 123.5q0 38 12 69t33 52.5t50 33.5t63 12q33 0 62 -11t50.5 -32t33.5 -51.5t12 -68.5q0 -39 -11 -71t-31.5 -55t-50 -35.5t-66.5 -12.5zM530 715h99
l-492 -715h-98zM486 84q19 0 27.5 16t8.5 58t-8.5 57.5t-27.5 15.5q-18 0 -27 -15.5t-9 -56.5q0 -43 9 -59t27 -16zM485 -13q-75 0 -116 47t-41 124q0 38 12 69t33 52.5t50 33.5t63 12t63 -11t50 -32t33 -51.5t12 -69.5t-11 -71t-31.5 -55t-50 -35.5t-66.5 -12.5zM825 84
q19 0 27 16t8 58t-8 57.5t-27 15.5q-18 0 -27 -15.5t-9 -56.5q0 -43 9 -59t27 -16zM824 -13q-75 0 -116.5 47t-41.5 124q0 38 12 69t33.5 52.5t50.5 33.5t63 12q33 0 62 -11t50 -32t33 -51.5t12 -69.5q0 -78 -42.5 -126t-115.5 -48z" />
    <glyph glyph-name="plus.tab" 
d="M222 269h-166v142h166v181h156v-181h166v-142h-166v-182h-156v182z" />
    <glyph glyph-name="minus.tab" 
d="M54 414h492v-149h-492v149z" />
    <glyph glyph-name="plusminus.tab" 
d="M222 343h-174v142h174v162h156v-162h174v-142h-174v-161h-156v161zM48 126h507v-126h-507v126z" />
    <glyph glyph-name="multiply.tab" 
d="M46 185l152 152l-155 154l103 104l154 -156l152 152l103 -102l-152 -152l155 -154l-104 -104l-154 156l-152 -152z" />
    <glyph glyph-name="divide.tab" 
d="M300 34q-42 0 -71 28t-29 70q0 20 8 38t21.5 31t31.5 20.5t39 7.5t39 -7.5t31.5 -20.5t21.5 -31t8 -38q0 -42 -29 -70t-71 -28zM47 407h507v-134h-507v134zM300 450q-21 0 -39 7.5t-31.5 20.5t-21.5 31t-8 38q0 42 29 70t71 28t71 -28t29 -70q0 -20 -8 -38t-21.5 -31
t-31.5 -20.5t-39 -7.5z" />
    <glyph glyph-name="equal.tab" 
d="M61 293h478v-131h-478v131zM61 492h478v-131h-478v131z" />
    <glyph glyph-name="notequal.tab" 
d="M54 492h249l37 96h123l-37 -96h120v-131h-171l-27 -68h198v-131h-248l-37 -96h-122l37 96h-122v131h172l26 68h-198v131z" />
    <glyph glyph-name="approxequal.tab" 
d="M43 113q3 51 16 86.5t32.5 58t45 33t52.5 10.5q30 0 60.5 -6t58 -13.5t52 -13.5t42.5 -6q39 0 45 44h110q-2 -48 -14 -83.5t-32 -59t-45.5 -35t-52.5 -11.5q-31 0 -61.5 6t-58.5 13.5t-52 14t-42 6.5q-20 0 -31 -12t-15 -32h-110zM43 341q3 51 16 86.5t32.5 58t45 33
t52.5 10.5q30 0 60.5 -6t58 -13t52 -13t42.5 -6q39 0 45 42h110q-2 -47 -14 -82.5t-32 -58.5t-45.5 -34.5t-52.5 -11.5q-31 0 -61.5 6t-58.5 13.5t-52 13.5t-42 6q-20 0 -31 -12t-15 -32h-110z" />
    <glyph glyph-name="less.tab" 
d="M75 304v37l452 251v-178l-193 -90l193 -99v-172z" />
    <glyph glyph-name="greater.tab" 
d="M74 231l192 91l-192 99v172l452 -252v-36l-452 -251v177z" />
    <glyph glyph-name="lessequal.tab" 
d="M83 376v37l429 229v-174l-150 -72l150 -73v-176zM83 126h429v-126h-429v126z" />
    <glyph glyph-name="greaterequal.tab" 
d="M88 323l150 73l-150 72v174l429 -229v-37l-429 -229v176zM88 126h429v-126h-429v126z" />
    <glyph glyph-name="period.tab" horiz-adv-x="300" 
d="M148 -12q-48 0 -78.5 31t-30.5 77q0 45 30.5 76t78.5 31q24 0 45 -8.5t36 -23t23.5 -34t8.5 -41.5q0 -46 -32 -77t-81 -31z" />
    <glyph glyph-name="comma.tab" horiz-adv-x="300" 
d="M4 -79l81 272l182 -63l-148 -252z" />
    <glyph glyph-name="colon.tab" horiz-adv-x="300" 
d="M148 -12q-48 0 -78.5 31t-30.5 77q0 45 30.5 76t78.5 31q24 0 45 -8.5t36 -23t23.5 -34t8.5 -41.5q0 -46 -32 -77t-81 -31zM148 272q-24 0 -44 8.5t-34.5 22.5t-22.5 33.5t-8 42.5q0 22 8 42t22.5 34.5t34.5 23t44 8.5t45 -8.5t36 -23t23.5 -34.5t8.5 -42
q0 -23 -8.5 -42.5t-23.5 -33.5t-36 -22.5t-45 -8.5z" />
    <glyph glyph-name="semicolon.tab" horiz-adv-x="307" 
d="M-12 -79l81 272l182 -63l-148 -252zM158 272q-24 0 -44 8.5t-34.5 22.5t-23 33.5t-8.5 42.5q0 22 8.5 42t23 34.5t34.5 23t44 8.5t44.5 -8.5t35.5 -23t23.5 -34.5t8.5 -42q0 -23 -8.5 -42.5t-23.5 -33.5t-35.5 -22.5t-44.5 -8.5z" />
    <glyph glyph-name="parenleft.tab" horiz-adv-x="300" 
d="M176 -148q-23 34 -49 78t-47.5 101t-35.5 127t-14 156q0 85 14 155t35.5 127t47.5 101t49 78h135q-20 -38 -39.5 -85t-35 -104.5t-25.5 -125.5t-10 -146t10 -146t25.5 -126t35 -105.5t39.5 -84.5h-135v0z" />
    <glyph glyph-name="parenright.tab" horiz-adv-x="300" 
d="M-11 -148q19 37 39 84.5t35.5 105.5t25.5 126t10 146t-10 146t-25.5 125.5t-35.5 104.5t-39 85h135q23 -34 49 -78t47.5 -101t35.5 -127t14 -155q0 -86 -14 -156t-35.5 -127t-47.5 -101t-49 -78h-135v0z" />
    <glyph glyph-name="bracketleft.tab" horiz-adv-x="300" 
d="M41 776h246v-127h-71v-670h71v-127h-246v924z" />
    <glyph glyph-name="bracketright.tab" horiz-adv-x="300" 
d="M13 -21h71v670h-71v127h246v-924h-246v127z" />
    <glyph glyph-name="braceleft.tab" horiz-adv-x="300" 
d="M287 -148q-149 0 -202 59t-27 181l19 85q7 34 -5.5 54t-58.5 24v121q46 3 58.5 23t5.5 54l-19 84q-28 127 26 183.5t203 56.5v-127q-45 -3 -57.5 -21.5t-4.5 -64.5l17 -96q11 -58 -11.5 -94t-88.5 -57q66 -20 88.5 -57t11.5 -95l-17 -95q-9 -48 4 -68t58 -23v-127v0z" />
    <glyph glyph-name="braceright.tab" horiz-adv-x="300" 
d="M13 -21q45 3 58 23t4 68l-17 95q-11 58 11.5 95t88.5 57q-66 21 -88.5 57t-11.5 94l17 96q8 46 -4.5 64.5t-57.5 21.5v127q149 0 203 -56.5t26 -183.5l-19 -84q-7 -34 5.5 -54t58.5 -23v-121q-46 -4 -58.5 -24t-5.5 -54l19 -85q26 -122 -27 -181t-202 -59v127z" />
    <glyph glyph-name="dollar.oldtab" 
d="M265 -10q-119 9 -180 69.5t-64 160.5h182q2 -31 16 -52.5t46 -29.5v124q-62 10 -106 26.5t-72 43t-41.5 64.5t-13.5 89q0 45 16 83t46 66.5t73 46t98 21.5v87h76v-88q103 -9 162 -60t67 -153h-180q-3 23 -14 39.5t-35 24.5v-117q52 -8 95.5 -22.5t75 -39t49 -61.5
t17.5 -91q0 -45 -13.5 -85t-42.5 -71t-73.5 -51t-107.5 -24v-121h-76v121zM396 198q0 21 -11.5 32.5t-43.5 19.5v-113q55 12 55 61zM210 501q0 -22 11.5 -34.5t43.5 -20.5v109q-28 -5 -41.5 -19.5t-13.5 -34.5z" />
    <glyph glyph-name="Euro.oldtab" 
d="M23 440h43q3 64 23 113t54.5 82.5t80.5 51t100 17.5t97.5 -13.5t74.5 -42t49 -73.5t20 -109h-176q-3 44 -17 62t-47 18q-34 0 -50.5 -24.5t-18.5 -81.5h127l-12 -71h-115v-46h107l-12 -71h-95q2 -56 17.5 -80.5t52.5 -24.5q34 0 50.5 19.5t18.5 68.5h172
q-2 -130 -66 -189t-182 -59q-115 0 -181.5 68t-71.5 197h-43v71h43v46h-43v71z" />
    <glyph glyph-name="sterling.oldtab" 
d="M26 397h40q-4 18 -6.5 37.5t-2.5 41.5q0 57 21 99.5t56 71t82 42.5t100 14q127 0 187.5 -61t63.5 -179h-186q-5 44 -17 60t-40 16q-29 0 -44.5 -17t-15.5 -58q0 -17 1 -33.5t3 -33.5h143v-120h-129q1 -11 1.5 -22.5t0.5 -22.5q0 -28 -8 -54q18 -6 33.5 -10.5t30.5 -4.5
q23 0 37 11.5t16 39.5h186q-4 -104 -56 -163.5t-142 -59.5q-34 0 -59 7.5t-45 17t-36 17t-31 7.5q-20 0 -29 -11t-11 -29h-158q3 54 25 98.5t60 70.5q4 12 6.5 27.5t2.5 35.5t-5 45h-75v120z" />
    <glyph glyph-name="yen.oldtab" 
d="M56 375h131l-165 319h217l75 -184l74 184h190l-161 -319h138v-72h-146v-45h146v-72h-146v-186h-213v186h-140v72h140v45h-140v72z" />
    <glyph glyph-name="zero.oldtab" 
d="M302 154q38 0 52.5 29t14.5 89v78q0 62 -15.5 90.5t-53.5 28.5t-53.5 -29t-15.5 -90v-78q0 -61 16 -89.5t55 -28.5zM296 -13q-126 0 -196 74.5t-70 210.5v78q0 67 20 119.5t56 88.5t85.5 55t107.5 19t107.5 -17t86 -51.5t57 -87t20.5 -122.5v-78q0 -68 -19 -121.5
t-54.5 -91t-86 -57t-114.5 -19.5z" />
    <glyph glyph-name="one.oldtab" 
d="M252 412l-171 -109v175l200 141h181v-619h-210v412z" />
    <glyph glyph-name="two.oldtab" 
d="M20 29l222 214q55 53 81 92t26 77q0 28 -13.5 44.5t-43.5 16.5q-32 0 -49 -23.5t-23 -71.5h-189q8 120 78.5 187t197.5 67q61 0 108 -14.5t79 -41t48.5 -63.5t16.5 -81q0 -64 -34 -115t-93 -105l-67 -61h199v-151h-544v29z" />
    <glyph glyph-name="three.oldtab" 
d="M298 -105q-72 0 -124.5 18t-87 50.5t-51.5 78.5t-19 102h191q2 -44 21.5 -69t63.5 -25q39 0 57.5 21.5t18.5 56.5q0 37 -19.5 57t-60.5 20h-56v130h54q41 0 61 21t20 56q0 29 -16.5 48t-50.5 19q-35 0 -55 -21.5t-23 -65.5h-189q3 52 22 96t54 76t84.5 50t113.5 18
q121 0 186 -52t65 -145q0 -60 -29 -99t-83 -55q58 -12 93.5 -53.5t35.5 -105.5q0 -103 -71 -165t-206 -62z" />
    <glyph glyph-name="four.oldtab" 
d="M307 38h-294v69l245 512h247v-444h72v-137h-72v-130h-198v130zM312 175v276l-129 -276h129z" />
    <glyph glyph-name="five.oldtab" 
d="M294 -104q-134 0 -198.5 62.5t-65.5 172.5h186q3 -36 19 -57t58 -21q38 0 55.5 25.5t17.5 69.5q0 45 -22.5 68t-63.5 23q-32 0 -57 -14t-40 -37h-129l16 431h454v-160h-303l-6 -157q10 15 24 30t32.5 26t43 18t54.5 7q94 0 145.5 -60.5t51.5 -164.5q0 -122 -69.5 -192
t-202.5 -70z" />
    <glyph glyph-name="six.oldtab" 
d="M315 -13q-72 0 -125 22t-88.5 63.5t-52.5 101t-17 134.5v78q0 81 21 144.5t60 107t93 66t120 22.5q109 0 173.5 -52t69.5 -164h-183q-3 27 -16.5 44.5t-43.5 17.5q-49 0 -73 -47.5t-25 -150.5q10 15 23 29.5t31 26t41 18.5t52 7q42 0 79 -12t64.5 -38t43.5 -67t16 -99
q0 -57 -18 -103.5t-52 -79.5t-83 -51t-110 -18zM315 141q35 0 58.5 24.5t23.5 65.5q0 44 -23.5 68t-59.5 24q-35 0 -59.5 -23.5t-24.5 -65.5q0 -43 24 -68t61 -25z" />
    <glyph glyph-name="seven.oldtab" 
d="M295 445h-262v174h539v-23l-250 -688h-225z" />
    <glyph glyph-name="eight.oldtab" 
d="M300 -13q-64 0 -115 14t-86.5 41.5t-54.5 67.5t-19 91q0 60 32 105t91 68q-45 21 -70.5 57t-25.5 91q0 49 19.5 87t53.5 64t80 39.5t98 13.5q53 0 98.5 -13.5t78.5 -39t52 -63.5t19 -87q0 -56 -26 -92t-70 -56q59 -22 89.5 -65.5t30.5 -102.5q0 -51 -19 -92t-54 -69.5
t-86.5 -43.5t-115.5 -15zM301 139q36 0 58.5 22t22.5 60t-21.5 61t-59.5 23q-35 0 -58 -22t-23 -61q0 -38 22 -60.5t59 -22.5zM302 432q30 0 51 20t21 55q0 34 -21 54t-50 20t-50.5 -20t-21.5 -54t21 -54.5t50 -20.5z" />
    <glyph glyph-name="nine.oldtab" 
d="M283 -107q-118 0 -183.5 55.5t-70.5 167.5h179q4 -29 21 -48t52 -19q51 0 71 44.5t20 143.5q-20 -32 -53 -52.5t-90 -20.5q-42 0 -79.5 12t-66 37.5t-45 66t-16.5 98.5q0 57 18.5 103.5t53 80t83.5 52t110 18.5q71 0 124 -22t88 -63.5t52 -101t17 -133.5v-80
q0 -163 -74 -251t-211 -88zM289 298q35 0 59.5 24t24.5 66q0 43 -24 68t-61 25q-35 0 -58.5 -25t-23.5 -66q0 -44 23.5 -68t59.5 -24z" />
    <glyph glyph-name="one.sup" horiz-adv-x="297" 
d="M102 635l-83 -45v116l104 68h124v-382h-145v243z" />
    <glyph glyph-name="two.sup" horiz-adv-x="366" 
d="M4 410l129 132q32 33 51 57t19 46q0 14 -6.5 22t-21.5 8q-30 0 -36 -51h-131q2 78 49 117t126 39q83 0 122 -36t39 -88q0 -40 -22 -71.5t-56 -63.5l-28 -26h108v-103h-342v18z" />
    <glyph glyph-name="three.sup" horiz-adv-x="385" 
d="M193 385q-47 0 -80 10.5t-54 28.5t-31 43t-11 55h127q2 -16 11 -27t29 -11q34 0 34 31q0 29 -41 29h-31v79h31q43 0 43 31q0 27 -31 27q-32 0 -38 -35h-126q5 58 46 96t122 38q77 0 119.5 -28t42.5 -79q0 -32 -18 -53t-51 -29q34 -5 55.5 -27t21.5 -55q0 -55 -41.5 -89.5
t-128.5 -34.5z" />
    <glyph glyph-name="a.alt" horiz-adv-x="638" 
d="M239 -13q-43 0 -82 16t-69 49.5t-47.5 84t-17.5 119.5v8q0 68 17.5 119.5t47.5 85.5t69 51t82 17q60 0 96 -23t58 -63v72h197v-523h-197v83q-20 -40 -58 -68t-96 -28zM310 137q42 0 65.5 31t23.5 92v8q0 62 -22.5 92.5t-64.5 30.5q-43 0 -66 -30.5t-23 -93.5v-8
q0 -61 22.5 -91.5t64.5 -30.5z" />
    <glyph glyph-name="t.alt" horiz-adv-x="386" 
d="M82 391h-71v132h71v107h197v-107h92v-132h-92v-391h-197v391z" />
    <glyph glyph-name="aacute.alt" horiz-adv-x="638" 
d="M239 -13q-43 0 -82 16t-69 49.5t-47.5 84t-17.5 119.5v8q0 68 17.5 119.5t47.5 85.5t69 51t82 17q60 0 96 -23t58 -63v72h197v-523h-197v83q-20 -40 -58 -68t-96 -28zM310 137q42 0 65.5 31t23.5 92v8q0 62 -22.5 92.5t-64.5 30.5q-43 0 -66 -30.5t-23 -93.5v-8
q0 -61 22.5 -91.5t64.5 -30.5zM303 747h193l-104 -169h-141z" />
    <glyph glyph-name="abreve.alt" horiz-adv-x="638" 
d="M239 -13q-43 0 -82 16t-69 49.5t-47.5 84t-17.5 119.5v8q0 68 17.5 119.5t47.5 85.5t69 51t82 17q60 0 96 -23t58 -63v72h197v-523h-197v83q-20 -40 -58 -68t-96 -28zM310 137q42 0 65.5 31t23.5 92v8q0 62 -22.5 92.5t-64.5 30.5q-43 0 -66 -30.5t-23 -93.5v-8
q0 -61 22.5 -91.5t64.5 -30.5zM326 581q-76 0 -120.5 41.5t-48.5 121.5h119q2 -21 14.5 -33t35.5 -12q22 0 35.5 12t15.5 33h118q-5 -80 -51 -121.5t-118 -41.5z" />
    <glyph glyph-name="acircumflex.alt" horiz-adv-x="638" 
d="M239 -13q-43 0 -82 16t-69 49.5t-47.5 84t-17.5 119.5v8q0 68 17.5 119.5t47.5 85.5t69 51t82 17q60 0 96 -23t58 -63v72h197v-523h-197v83q-20 -40 -58 -68t-96 -28zM310 137q42 0 65.5 31t23.5 92v8q0 62 -22.5 92.5t-64.5 30.5q-43 0 -66 -30.5t-23 -93.5v-8
q0 -61 22.5 -91.5t64.5 -30.5zM259 746h138l120 -166h-137l-56 53l-56 -53h-134z" />
    <glyph glyph-name="adieresis.alt" horiz-adv-x="638" 
d="M239 -13q-43 0 -82 16t-69 49.5t-47.5 84t-17.5 119.5v8q0 68 17.5 119.5t47.5 85.5t69 51t82 17q60 0 96 -23t58 -63v72h197v-523h-197v83q-20 -40 -58 -68t-96 -28zM310 137q42 0 65.5 31t23.5 92v8q0 62 -22.5 92.5t-64.5 30.5q-43 0 -66 -30.5t-23 -93.5v-8
q0 -61 22.5 -91.5t64.5 -30.5zM217 570q-19 0 -35.5 7t-29 19t-19.5 28.5t-7 34.5t7 34.5t19.5 28.5t29 19t35.5 7t36 -7t29.5 -19t19.5 -28.5t7 -34.5t-7 -34.5t-19.5 -28.5t-29.5 -19t-36 -7zM434 570q-19 0 -35.5 7t-28.5 19t-19 28.5t-7 34.5t7 34.5t19 28.5t28.5 19
t35.5 7q39 0 65.5 -26t26.5 -63t-26.5 -63t-65.5 -26z" />
    <glyph glyph-name="agrave.alt" horiz-adv-x="638" 
d="M239 -13q-43 0 -82 16t-69 49.5t-47.5 84t-17.5 119.5v8q0 68 17.5 119.5t47.5 85.5t69 51t82 17q60 0 96 -23t58 -63v72h197v-523h-197v83q-20 -40 -58 -68t-96 -28zM310 137q42 0 65.5 31t23.5 92v8q0 62 -22.5 92.5t-64.5 30.5q-43 0 -66 -30.5t-23 -93.5v-8
q0 -61 22.5 -91.5t64.5 -30.5zM156 747h193l52 -169h-141z" />
    <glyph glyph-name="amacron.alt" horiz-adv-x="638" 
d="M239 -13q-43 0 -82 16t-69 49.5t-47.5 84t-17.5 119.5v8q0 68 17.5 119.5t47.5 85.5t69 51t82 17q60 0 96 -23t58 -63v72h197v-523h-197v83q-20 -40 -58 -68t-96 -28zM310 137q42 0 65.5 31t23.5 92v8q0 62 -22.5 92.5t-64.5 30.5q-43 0 -66 -30.5t-23 -93.5v-8
q0 -61 22.5 -91.5t64.5 -30.5zM168 712h316v-107h-316v107z" />
    <glyph glyph-name="aogonek.alt" horiz-adv-x="638" 
d="M499 -182q-55 0 -87 22t-32 60q0 19 7.5 34.5t20 27.5t28 21t31.5 17h-74v83q-20 -40 -58 -68t-96 -28q-43 0 -82 16t-69 49.5t-47.5 84t-17.5 119.5v8q0 68 17.5 119.5t47.5 85.5t69 51t82 17q60 0 96 -23t58 -63v72h197v-510q-29 -23 -41 -40t-12 -32q0 -13 8 -19.5
t22 -6.5q16 0 25 4v-84q-13 -7 -35.5 -12t-57.5 -5zM310 137q42 0 65.5 31t23.5 92v8q0 62 -22.5 92.5t-64.5 30.5q-43 0 -66 -30.5t-23 -93.5v-8q0 -61 22.5 -91.5t64.5 -30.5z" />
    <glyph glyph-name="aring.alt" horiz-adv-x="638" 
d="M239 -13q-43 0 -82 16t-69 49.5t-47.5 84t-17.5 119.5v8q0 68 17.5 119.5t47.5 85.5t69 51t82 17q60 0 96 -23t58 -63v72h197v-523h-197v83q-20 -40 -58 -68t-96 -28zM310 137q42 0 65.5 31t23.5 92v8q0 62 -22.5 92.5t-64.5 30.5q-43 0 -66 -30.5t-23 -93.5v-8
q0 -61 22.5 -91.5t64.5 -30.5zM325 642q20 0 32 13.5t12 34.5q0 22 -12 35.5t-32 13.5t-32 -13.5t-12 -35.5q0 -21 12 -34.5t32 -13.5zM325 574q-25 0 -46.5 9t-38 25t-26 37t-9.5 45t9.5 45.5t26 37t38 25t46.5 9.5t46.5 -9.5t38 -25t26 -37t9.5 -45.5t-9.5 -45t-26 -37
t-38 -25t-46.5 -9z" />
    <glyph glyph-name="aringacute.alt" horiz-adv-x="638" 
d="M239 -13q-43 0 -82 16t-69 49.5t-47.5 84t-17.5 119.5v8q0 68 17.5 119.5t47.5 85.5t69 51t82 17q60 0 96 -23t58 -63v72h197v-523h-197v83q-20 -40 -58 -68t-96 -28zM310 137q42 0 65.5 31t23.5 92v8q0 62 -22.5 92.5t-64.5 30.5q-43 0 -66 -30.5t-23 -93.5v-8
q0 -61 22.5 -91.5t64.5 -30.5zM325 638q20 0 32 13.5t12 34.5q0 22 -12 35.5t-32 13.5t-32 -13.5t-12 -35.5q0 -21 12 -34.5t32 -13.5zM325 570q-25 0 -46.5 9t-38 25t-26 37t-9.5 45t9.5 45.5t26 37t38 25t46.5 9.5t46.5 -9.5t38 -25t26 -37t9.5 -45.5t-9.5 -45t-26 -37
t-38 -25t-46.5 -9zM306 978h201l-103 -149h-149z" />
    <glyph glyph-name="atilde.alt" horiz-adv-x="638" 
d="M239 -13q-43 0 -82 16t-69 49.5t-47.5 84t-17.5 119.5v8q0 68 17.5 119.5t47.5 85.5t69 51t82 17q60 0 96 -23t58 -63v72h197v-523h-197v83q-20 -40 -58 -68t-96 -28zM310 137q42 0 65.5 31t23.5 92v8q0 62 -22.5 92.5t-64.5 30.5q-43 0 -66 -30.5t-23 -93.5v-8
q0 -61 22.5 -91.5t64.5 -30.5zM392 581q-22 0 -39 5t-31 11t-25.5 11t-22.5 5q-12 0 -20 -8.5t-10 -21.5h-104q5 83 37.5 122.5t80.5 39.5q21 0 37.5 -5t31 -11t27.5 -11t25 -5q25 0 30 31h104q-3 -42 -13.5 -72.5t-26.5 -50.5t-37 -30t-44 -10z" />
    <glyph glyph-name="germandbls.alt" horiz-adv-x="706" 
d="M479 -9q-108 0 -159.5 46t-53.5 127h163q2 -27 12.5 -38.5t27.5 -11.5q15 0 24 8t9 28q0 13 -6 21.5t-17 15.5t-27 13.5t-36 15.5q-21 10 -43 22t-39.5 28.5t-29 38.5t-11.5 51q0 35 17 63.5t37 52.5t37 44.5t17 41.5q0 58 -70 58q-39 0 -63 -21t-24 -65v-530h-197v527
q0 57 21 100.5t59.5 73.5t91.5 45.5t116 15.5q57 0 104.5 -11t82 -33t54 -54.5t19.5 -74.5q0 -44 -18 -74t-40 -51.5t-40 -37t-18 -29.5q0 -7 4.5 -12.5t15.5 -12t28.5 -15.5t43.5 -22q22 -11 43 -26t37.5 -34.5t26 -44.5t9.5 -58q0 -45 -15.5 -79t-43.5 -56.5t-66 -34
t-83 -11.5z" />
    <glyph glyph-name="tbar.alt" horiz-adv-x="386" 
d="M11 331h71v60h-71v132h71v107h197v-107h92v-132h-92v-60h92v-106h-92v-225h-197v225h-71v106z" />
    <glyph glyph-name="tcaron.alt" horiz-adv-x="386" 
d="M82 391h-71v132h71v107h197v-107h92v-132h-92v-391h-197v391zM325 750h140l-50 -175h-98z" />
    <glyph glyph-name="tcommaaccent.alt" horiz-adv-x="386" 
d="M60 -206l39 175l172 -12l-101 -190zM82 391h-71v132h71v107h197v-107h92v-132h-92v-391h-197v391z" />
    <glyph glyph-name="space_uni0326.alt" horiz-adv-x="400" 
d="M111 577l101 190l110 -27l-39 -175z" />
    <glyph glyph-name="registered.alt" horiz-adv-x="842" 
d="M256 563h168q172 0 172 -133v-2q0 -42 -18.5 -67t-47.5 -39l89 -164h-138l-72 136h-20v-136h-133v405zM416 380q49 0 49 41v3q0 38 -48 38h-28v-82h27zM420 31q67 0 125.5 23.5t102.5 67t69.5 103.5t25.5 134q0 72 -25 132t-68 103t-102 66.5t-126 23.5q-68 0 -127 -24
t-102.5 -67t-68.5 -103t-25 -133q0 -74 25.5 -134t69.5 -102.5t102 -66t124 -23.5zM420 -21q-80 0 -150.5 29t-123 79.5t-82.5 119.5t-30 150q0 79 30 148.5t82.5 120.5t123.5 80.5t152 29.5q82 0 153 -29t123 -80t81.5 -120t29.5 -148q0 -81 -30.5 -150.5t-83 -120.5
t-123.5 -80t-152 -29z" />
    <glyph glyph-name="caron.alt" horiz-adv-x="400" 
d="M153 750h140l-50 -175h-98z" />
    <glyph glyph-name="questiondown.uc" horiz-adv-x="570" 
d="M402.01 460.016q0 -27.998 -8.99902 -51.9971q-8.99902 -23.998 -22.999 -43.9971q-13.999 -19.999 -30.998 -36.998t-33.998 -32.998q-25.998 -23.998 -44.9971 -45.9971t-18.999 -47.9971q0 -51.9971 52.9971 -51.9971q27.998 0 45.9971 20.999t22.999 58.9961h191.988
q-2 -58.9961 -22.999 -103.993q-20.998 -44.9971 -57.4961 -74.9951q-36.498 -29.999 -86.4951 -45.498t-109.993 -15.499q-118.992 0 -184.988 49.4971t-65.9961 143.491q0 47.9971 19.499 82.9951q19.498 34.998 48.4971 63.9961q18.998 18.999 38.4971 35.998
t36.498 33.498t28.998 32.498t15.999 33.998v8.99902h186.988v-12.999zM308.016 725.999q23.999 0 45.4971 -7.99902q21.499 -8 36.998 -22.499t24.499 -33.498q8.99902 -18.999 8.99902 -40.9971q0 -21.999 -8.99902 -41.498q-9 -19.498 -24.499 -33.498
q-15.499 -13.999 -36.998 -22.498q-21.498 -8.5 -45.4971 -8.5q-23.998 0 -44.4971 8.5q-20.499 8.49902 -35.998 22.498q-15.499 14 -24.498 33.498q-9 19.499 -9 41.498q0 21.998 9 40.9971q8.99902 18.999 24.498 33.498t35.998 22.499q20.499 7.99902 44.4971 7.99902z
" />
    <glyph glyph-name="exclamdown.uc" horiz-adv-x="344" 
d="M172.011 726.999q23.998 0 44.4971 -7.99902q20.499 -8 35.998 -22.499t24.498 -33.498q9 -18.999 9 -40.9971q0 -21.999 -9 -41.498q-8.99902 -19.498 -24.498 -33.498q-15.499 -13.999 -35.998 -22.498q-20.499 -8.5 -44.4971 -8.5q-23.999 0 -44.498 8.5
q-20.498 8.49902 -36.4971 22.498q-15.999 14 -24.999 33.498q-8.99902 19.499 -8.99902 41.498q0 21.998 8.99902 40.9971q9 18.999 24.999 33.498t36.4971 22.499q20.499 7.99902 44.498 7.99902zM282.004 0.0439453h-220.986l28.998 473.971h163.99z" />
    <glyph glyph-name="hyphen.uc" horiz-adv-x="412" 
d="M49 403h314v-154h-314v154z" />
    <glyph glyph-name="endash.uc" horiz-adv-x="543" 
d="M46 385h451v-111h-451v111z" />
    <glyph glyph-name="emdash.uc" horiz-adv-x="958" 
d="M46 385h866v-111h-866v111z" />
    <glyph glyph-name="guilsinglleft.uc" horiz-adv-x="304" 
d="M25 301l124 196h129l-119 -196l119 -196h-129z" />
    <glyph glyph-name="guilsinglright.uc" horiz-adv-x="304" 
d="M145 301l-119 196h129l124 -196l-124 -196h-129z" />
    <glyph glyph-name="guillemotleft.uc" horiz-adv-x="477" 
d="M25 301l124 196h121l-119 -196l119 -196h-121zM206 301l124 196h121l-119 -196l119 -196h-121z" />
    <glyph glyph-name="guillemotright.uc" horiz-adv-x="477" 
d="M145 301l-119 196h121l124 -196l-124 -196h-121zM325 301l-119 196h121l124 -196l-124 -196h-121z" />
    <glyph glyph-name="parenleft.uc" horiz-adv-x="362" 
d="M202 -98q-27 33 -56.5 76.5t-54 98.5t-40 121t-15.5 146q0 79 15.5 145.5t40 121.5t54 98t56.5 76h150q-23 -37 -46 -83.5t-41.5 -102t-30 -119.5t-11.5 -136q0 -73 11.5 -137t30 -119.5t41.5 -102t46 -83.5h-150v0z" />
    <glyph glyph-name="parenright.uc" horiz-adv-x="362" 
d="M10 -98q22 37 45 83.5t42 102t30.5 120t11.5 136.5t-11.5 136t-30.5 119.5t-42 102t-45 83.5h150q27 -33 56.5 -76t54 -97.5t40 -121t15.5 -146.5t-15.5 -146t-40 -121t-54 -98.5t-56.5 -76.5h-150v0z" />
    <glyph glyph-name="bracketleft.uc" horiz-adv-x="419" 
d="M61 784h321v-142h-122v-594h122v-143h-321v879z" />
    <glyph glyph-name="bracketright.uc" horiz-adv-x="419" 
d="M38 48h120v594h-120v142h319v-879h-319v143z" />
    <glyph glyph-name="braceleft.uc" horiz-adv-x="425" 
d="M388 -96q-159 0 -228 55.5t-49 176.5l10 64q5 34 -16 55.5t-76 21.5v137q55 0 76 21t16 55l-10 63q-20 126 49.5 178.5t227.5 52.5v-142q-27 -2 -44.5 -6.5t-27 -14t-12 -24.5t0.5 -38l9 -81q5 -50 -21.5 -84t-82.5 -47q56 -12 82.5 -46.5t21.5 -85.5l-9 -81
q-3 -23 -0.5 -39t12 -26t27 -15.5t44.5 -6.5v-143v0z" />
    <glyph glyph-name="braceright.uc" horiz-adv-x="425" 
d="M37 47q27 1 44.5 6.5t26.5 15.5t11.5 26t-0.5 39l-8 81q-5 51 21 85.5t83 46.5q-56 13 -82.5 47t-21.5 84l8 81q3 23 0.5 38t-11.5 24.5t-26.5 14t-44.5 6.5v142q158 0 227.5 -52.5t49.5 -178.5l-10 -63q-6 -34 15 -55t77 -21v-137q-56 0 -77 -21.5t-15 -55.5l10 -64
q19 -121 -49.5 -176.5t-227.5 -55.5v143z" />
    <glyph glyph-name="slash.uc" horiz-adv-x="440" 
d="M292 776h155l-301 -860h-155z" />
    <glyph glyph-name="backslash.uc" horiz-adv-x="440" 
d="M-7 776h154l301 -860h-155z" />
    <glyph glyph-name="bar.uc" horiz-adv-x="270" 
d="M67 776h136v-860h-136v860z" />
    <glyph glyph-name="at.uc" horiz-adv-x="922" 
d="M461 -85q-101 0 -181.5 31.5t-136.5 87t-85.5 129.5t-29.5 160q0 100 37.5 181t100 138t144 88t169.5 31t164 -25.5t131.5 -72.5t87 -114t31.5 -149q0 -75 -18.5 -127.5t-49.5 -85.5t-70.5 -48t-81.5 -15q-128 0 -152 80q-19 -39 -50.5 -60t-79.5 -21q-74 0 -118 49.5
t-44 136.5q0 53 15.5 96.5t42 74t62 47t76.5 16.5q46 0 70.5 -16.5t35.5 -40.5l7 49h159l-34 -274q-4 -30 5.5 -47t36.5 -17q20 0 39.5 11.5t34.5 36t24 63.5t9 95q0 64 -23.5 117.5t-67 91t-104 58.5t-135.5 21q-77 0 -144 -26t-116.5 -74t-78 -116.5t-28.5 -153.5
q0 -72 22 -133t65.5 -106t109 -70.5t152.5 -25.5q44 0 83 7.5t72 19.5t59.5 28t44.5 34h94q-26 -36 -63 -65.5t-83 -50.5t-99 -32.5t-111 -11.5zM444 249q31 0 51 30t20 78q0 28 -14 45t-43 17q-30 0 -48.5 -28.5t-18.5 -73.5q0 -28 12.5 -48t40.5 -20z" />
    <glyph glyph-name="grave.uc" horiz-adv-x="400" 
d="M36 906h202l47 -149h-149z" />
    <glyph glyph-name="dieresis.uc" horiz-adv-x="400" 
d="M86 752q-19 0 -35.5 7t-29 19t-19.5 28.5t-7 34.5q0 19 7 35t19.5 28t29 19t35.5 7t36 -7t29.5 -19t19.5 -28t7 -35q0 -18 -7 -34.5t-19.5 -28.5t-29.5 -19t-36 -7zM313 752q-19 0 -35.5 7t-29 19t-19.5 28.5t-7 34.5q0 19 7 35t19.5 28t29 19t35.5 7t36 -7t29.5 -19
t19.5 -28t7 -35q0 -18 -7 -34.5t-19.5 -28.5t-29.5 -19t-36 -7z" />
    <glyph glyph-name="macron.uc" horiz-adv-x="400" 
d="M33 884h333v-115h-333v115z" />
    <glyph glyph-name="acute.uc" horiz-adv-x="400" 
d="M166 906h201l-103 -149h-149z" />
    <glyph glyph-name="circumflex.uc" horiz-adv-x="400" 
d="M120 906h164l110 -149h-142l-54 47l-54 -47h-139z" />
    <glyph glyph-name="caron.uc" horiz-adv-x="400" 
d="M4 906h142l54 -47l54 47h139l-115 -149h-164z" />
    <glyph glyph-name="breve.uc" horiz-adv-x="400" 
d="M200 749q-78 0 -122 41t-49 116h124q2 -20 14 -31t33 -11q20 0 32.5 11.5t14.5 30.5h124q-5 -75 -50.5 -116t-120.5 -41z" />
    <glyph glyph-name="dotaccent.uc" horiz-adv-x="400" 
d="M200 752q-45 0 -74 27t-29 68q0 42 29 69t74 27q44 0 73 -27t29 -69q0 -41 -29 -68t-73 -27z" />
    <glyph glyph-name="ring.uc" horiz-adv-x="400" 
d="M200 810q20 0 32.5 14t12.5 36q0 23 -12.5 36.5t-32.5 13.5t-32.5 -13.5t-12.5 -36.5q0 -22 12.5 -36t32.5 -14zM200 742q-25 0 -47.5 9.5t-39 25.5t-26 37.5t-9.5 45.5t9.5 45.5t26 37.5t39 25.5t47.5 9.5t47.5 -9.5t39 -25.5t26 -37.5t9.5 -45.5t-9.5 -45.5t-26 -37.5
t-39 -25.5t-47.5 -9.5z" />
    <glyph glyph-name="tilde.uc" horiz-adv-x="400" 
d="M266 755q-22 0 -39 5t-31.5 11t-26.5 11t-24 5t-20 -8t-10 -22h-109q3 42 14 72t28 49.5t38.5 29t45.5 9.5q21 0 38 -5t32 -11t28 -11t26 -5t20 8t9 22h110q-3 -42 -15 -72t-29.5 -49.5t-39.5 -29t-45 -9.5z" />
    <glyph glyph-name="hungarumlaut.uc" horiz-adv-x="400" 
d="M71 906h163l-75 -149h-130zM272 906h164l-75 -149h-130z" />
    <glyph glyph-name="f.short" horiz-adv-x="384" 
d="M75 391h-64v132h64v39q0 51 15.5 88t44 61t68 35.5t87.5 11.5q26 0 45.5 -2.5t37.5 -7.5v-142q-10 3 -20 4.5t-25 1.5q-29 0 -42.5 -14.5t-13.5 -36.5v-38h101v-132h-101v-391h-197v391z" />
    <glyph glyph-name="f_f.short" horiz-adv-x="722" 
d="M75 391h-64v132h64v33q0 51 15.5 88t43.5 61t67 35.5t87 11.5q26 0 46 -3t37 -8v-142q-9 3 -19.5 5t-24.5 2q-29 0 -42 -14.5t-13 -36.5v-32h141v39q0 51 15.5 88t44 61t67.5 35.5t87 11.5q26 0 46 -2.5t38 -7.5v-142q-10 3 -20.5 4.5t-24.5 1.5q-29 0 -42.5 -14.5
t-13.5 -36.5v-38h101v-132h-101v-391h-197v391h-141v-391h-197v391z" />
    <glyph glyph-name="uni021B.alt" horiz-adv-x="386" 
d="M60 -206l39 175l172 -12l-101 -190zM82 391h-71v132h71v107h197v-107h92v-132h-92v-391h-197v391z" />
    <glyph glyph-name="semicolon.alt1" horiz-adv-x="308" 
d="M152 272q-24 0 -44 8.5t-34.5 22.5t-22.5 33.5t-8 42.5q0 22 8 42t22.5 34.5t34.5 23t44 8.5t45 -8.5t36 -23t23.5 -34.5t8.5 -42q0 -23 -8.5 -42.5t-23.5 -33.5t-36 -22.5t-45 -8.5zM53 -33q81 6 84 49q-47 2 -70.5 27t-23.5 65q0 45 31.5 70t75.5 25q50 0 82.5 -31.5
t32.5 -87.5v-16q0 -88 -55 -131.5t-157 -45.5v76z" />
    <glyph glyph-name="quotedblright.alt1" horiz-adv-x="500" 
d="M41 502q38 2 57 14t21 32q-43 3 -65 26t-22 60q0 42 28.5 65t69.5 23q46 0 76 -30t30 -82v-13q0 -77 -50 -121t-145 -45v71zM274 502q74 5 77 46q-43 3 -65 26t-22 60q0 42 29 65t69 23q47 0 76.5 -30t29.5 -82v-13q0 -77 -50 -121t-144 -45v71z" />
    <glyph glyph-name="quoteright.alt1" horiz-adv-x="267" 
d="M41 502q38 2 57 14t21 32q-43 3 -65 26t-22 60q0 42 28.5 65t69.5 23q46 0 76 -30t30 -82v-13q0 -77 -50 -121t-145 -45v71z" />
    <glyph glyph-name="quotedblleft.alt1" horiz-adv-x="500" 
d="M226 647q-38 -2 -57 -14t-21 -32q44 -3 66 -25.5t22 -60.5q0 -41 -29 -64.5t-70 -23.5q-46 0 -75.5 30t-29.5 82v13q0 78 50 121.5t144 44.5v-71zM458 647q-74 -5 -77 -46q43 -3 65 -25.5t22 -60.5q0 -41 -29 -64.5t-69 -23.5q-47 0 -76.5 30t-29.5 82v13q0 78 50 121.5
t144 44.5v-71z" />
    <glyph glyph-name="commaaccent.alt1alt" horiz-adv-x="400" 
d="M203 571q-39 0 -61.5 18.5t-22.5 57.5v5q0 52 35.5 82t116.5 32v-49q-32 -2 -51.5 -11t-21.5 -26q38 2 58 -12t20 -42q0 -26 -20 -40.5t-53 -14.5z" />
    <glyph glyph-name="quoteleft.alt1" horiz-adv-x="267" 
d="M226 647q-38 -2 -57 -14t-21 -32q44 -3 66 -25.5t22 -60.5q0 -41 -29 -64.5t-70 -23.5q-46 0 -75.5 30t-29.5 82v13q0 78 50 121.5t144 44.5v-71z" />
    <glyph glyph-name="quotedblbase.alt1" horiz-adv-x="500" 
d="M274 -20q74 6 77 47q-43 2 -65 25t-22 61q0 41 29 64.5t69 23.5q47 0 76.5 -30t29.5 -82v-13q0 -78 -50 -121.5t-144 -45.5v71zM41 -20q75 6 78 47q-43 2 -65 25t-22 61q0 41 28.5 64.5t69.5 23.5q46 0 76 -30t30 -82v-13q0 -78 -50 -121.5t-145 -45.5v71z" />
    <glyph glyph-name="commaaccent.alt1" horiz-adv-x="377" 
d="M110 -176q32 2 51 11t21 26q-38 -2 -58 12t-20 42q0 26 20.5 40.5t53.5 14.5q38 0 60.5 -18.5t22.5 -57.5v-6q0 -51 -35.5 -81t-115.5 -32v49z" />
    <glyph glyph-name="comma.alt1" horiz-adv-x="302" 
d="M50 -33q80 6 85 49q-47 3 -71 27.5t-24 64.5q0 22 8.5 39.5t23.5 30t34.5 19t41.5 6.5q50 0 82 -31.5t32 -87.5v-16q0 -88 -54.5 -131.5t-157.5 -45.5v76z" />
    <glyph glyph-name="tcommaaccent.altalt1" horiz-adv-x="386" 
d="M111 -176q32 2 51 11t21 26q-38 -2 -58 12t-20 42q0 26 20.5 40.5t53.5 14.5q38 0 60.5 -18.5t22.5 -57.5v-6q0 -51 -35.5 -81t-115.5 -32v49zM82 391h-71v132h71v107h197v-107h92v-132h-92v-391h-197v391z" />
    <glyph glyph-name="Scommaaccent.alt1" horiz-adv-x="655" 
d="M334 -13q-152 0 -231.5 60.5t-83.5 181.5h215q1 -17 6.5 -32t17 -26t30 -17.5t46.5 -6.5q40 0 59.5 16.5t19.5 42.5q0 28 -22 40.5t-80 20.5q-77 9 -130 25t-85.5 43.5t-46.5 67t-14 94.5q0 49 19.5 91t56.5 72.5t90 47.5t120 17q134 0 206.5 -55t81.5 -173h-210
q-4 33 -23 51t-55 18q-35 0 -53 -14.5t-18 -37.5q0 -13 4.5 -22.5t16 -16.5t30.5 -12t49 -9q67 -7 119.5 -20.5t88 -39t54 -65t18.5 -99.5q0 -50 -19.5 -94t-57 -77t-92.5 -52.5t-127 -19.5zM259 -176q32 2 51 11t21 26q-38 -2 -58 12t-20 42q0 26 20.5 40.5t53.5 14.5
q38 0 60.5 -18.5t22.5 -57.5v-6q0 -51 -35.5 -81t-115.5 -32v49z" />
    <glyph glyph-name="kcommaaccent.alt1" horiz-adv-x="589" 
d="M47 750h197v-425l127 198h202l-161 -234l174 -289h-218l-124 218v-218h-197v750zM222 -176q32 2 51 11t21 26q-38 -2 -58 12t-20 42q0 26 20.5 40.5t53.5 14.5q38 0 60.5 -18.5t22.5 -57.5v-6q0 -51 -35.5 -81t-115.5 -32v49z" />
    <glyph glyph-name="tcommaaccent.alt1" horiz-adv-x="396" 
d="M265 -12q-93 0 -143 44t-50 143v216h-61v132h61v107h197v-107h100v-132h-100v-197q0 -27 13.5 -39t37.5 -12q26 0 49 8v-148q-18 -5 -45 -10t-59 -5zM150 -176q32 2 51 11t21 26q-38 -2 -58 12t-20 42q0 26 20.5 40.5t53.5 14.5q38 0 60.5 -18.5t22.5 -57.5v-6
q0 -51 -35.5 -81t-115.5 -32v49z" />
    <glyph glyph-name="lcommaaccent.alt1" horiz-adv-x="300" 
d="M52 750h196v-750h-196v750zM79 -176q32 2 51 11t21 26q-38 -2 -58 12t-20 42q0 26 20.5 40.5t53.5 14.5q38 0 60.5 -18.5t22.5 -57.5v-6q0 -51 -35.5 -81t-115.5 -32v49z" />
    <glyph glyph-name="Rcommaaccent.alt1" horiz-adv-x="710" 
d="M65 715h292q149 0 224 -58.5t75 -173.5v-4q0 -74 -34 -118.5t-87 -68.5l163 -292h-238l-133 245h-36v-245h-226v715zM344 391q93 0 93 78v4q0 39 -23 55.5t-69 16.5h-54v-154h53zM287 -176q32 2 51 11t21 26q-38 -2 -58 12t-20 42q0 26 20.5 40.5t53.5 14.5
q38 0 60.5 -18.5t22.5 -57.5v-6q0 -51 -35.5 -81t-115.5 -32v49z" />
    <glyph glyph-name="quotesinglbase.alt1" horiz-adv-x="267" 
d="M41 -20q75 6 78 47q-43 2 -65 25t-22 61q0 41 28.5 64.5t69.5 23.5q46 0 76 -30t30 -82v-13q0 -78 -50 -121.5t-145 -45.5v71z" />
    <glyph glyph-name="Lcommaaccent.alt1" horiz-adv-x="582" 
d="M65 715h227v-540h260v-175h-487v715zM237 -176q32 2 51 11t21 26q-38 -2 -58 12t-20 42q0 26 20.5 40.5t53.5 14.5q38 0 60.5 -18.5t22.5 -57.5v-6q0 -51 -35.5 -81t-115.5 -32v49z" />
    <glyph glyph-name="Tcommaaccent.alt1" horiz-adv-x="629" 
d="M200 541h-180v174h589v-174h-181v-541h-228v541zM238 -176q32 2 51 11t21 26q-38 -2 -58 12t-20 42q0 26 20.5 40.5t53.5 14.5q38 0 60.5 -18.5t22.5 -57.5v-6q0 -51 -35.5 -81t-115.5 -32v49z" />
    <glyph glyph-name="Gcommaaccent.alt1" horiz-adv-x="790" 
d="M407 -13q-93 0 -164 27t-119 75.5t-72.5 115.5t-24.5 148v8q0 82 29 149.5t80 115.5t120.5 74t150.5 26q65 0 124.5 -15.5t106 -48t75.5 -83.5t34 -123h-224q-6 45 -34 68.5t-81 23.5q-68 0 -106.5 -50t-38.5 -141v-8q0 -39 7.5 -74t24.5 -60.5t46 -40.5t73 -15
q34 0 57.5 7.5t39 20.5t23 29t9.5 34h-122v149h343v-92q0 -67 -22 -125t-66.5 -101.5t-111.5 -68.5t-157 -25zM325 -176q32 2 51 11t21 26q-38 -2 -58 12t-20 42q0 26 20.5 40.5t53.5 14.5q38 0 60.5 -18.5t22.5 -57.5v-6q0 -51 -35.5 -81t-115.5 -32v49z" />
    <glyph glyph-name="gcommaaccent.alt1" horiz-adv-x="645" 
d="M299 -194q-136 0 -203 52.5t-77 145.5h195q3 -12 8 -23t14.5 -20t25 -14t38.5 -5q56 0 78 29t22 71v81q-20 -38 -60 -65t-99 -27q-45 0 -84.5 16t-69.5 47.5t-47.5 77.5t-17.5 107v8q0 59 17.5 105.5t47 79t69 49.5t84.5 17q62 0 100 -23.5t60 -63.5v72h197v-478
q0 -118 -75.5 -178.5t-222.5 -60.5zM314 171q44 0 68 29t24 79v7q0 48 -23.5 77t-68.5 29t-68.5 -28.5t-23.5 -78.5v-8q0 -48 23.5 -77t68.5 -29zM317 571q-39 0 -61.5 18.5t-22.5 57.5v5q0 52 35.5 82t116.5 32v-49q-32 -2 -51.5 -11t-21.5 -26q38 2 58 -12t20 -42
q0 -26 -20 -40.5t-53 -14.5z" />
    <glyph glyph-name="Kcommaaccent.alt1" horiz-adv-x="745" 
d="M65 715h227v-271l198 271h235l-251 -330l265 -385h-261l-186 286v-286h-227v715zM306 -176q32 2 51 11t21 26q-38 -2 -58 12t-20 42q0 26 20.5 40.5t53.5 14.5q38 0 60.5 -18.5t22.5 -57.5v-6q0 -51 -35.5 -81t-115.5 -32v49z" />
    <glyph glyph-name="scommaaccent.alt1" horiz-adv-x="521" 
d="M259 -13q-115 0 -179.5 46t-66.5 135h180q5 -26 18 -40t47 -14q29 0 42 10t13 27t-19.5 27t-72.5 17q-53 6 -91.5 17t-63 30t-36.5 48t-12 71q0 45 18.5 78.5t50 55t74 32.5t90.5 11q51 0 93 -9t73 -29.5t49.5 -53.5t23.5 -81h-177q-5 23 -18.5 36t-40.5 13t-39.5 -10.5
t-12.5 -25.5q0 -18 19 -26.5t63 -13.5q57 -7 98.5 -18t68.5 -30t40.5 -48t13.5 -71q0 -48 -17.5 -83t-50 -57.5t-78 -33t-100.5 -10.5zM190 -176q32 2 51 11t21 26q-38 -2 -58 12t-20 42q0 26 20.5 40.5t53.5 14.5q38 0 60.5 -18.5t22.5 -57.5v-6q0 -51 -35.5 -81
t-115.5 -32v49z" />
    <glyph glyph-name="rcommaaccent.alt1" horiz-adv-x="438" 
d="M47 523h197v-106q25 61 67 87.5t101 25.5v-184q-82 5 -125 -21.5t-43 -83.5v-241h-197v523zM72 -176q32 2 51 11t21 26q-38 -2 -58 12t-20 42q0 26 20.5 40.5t53.5 14.5q38 0 60.5 -18.5t22.5 -57.5v-6q0 -51 -35.5 -81t-115.5 -32v49z" />
    <glyph glyph-name="ncommaaccent.alt1" horiz-adv-x="629" 
d="M47 523h197v-84q22 42 64.5 70t108.5 28q37 0 68 -12t53 -36t34.5 -60t12.5 -85v-344h-197v300q0 40 -15.5 60t-50.5 20q-37 0 -57.5 -22t-20.5 -69v-289h-197v523zM241 -176q32 2 51 11t21 26q-38 -2 -58 12t-20 42q0 26 20.5 40.5t53.5 14.5q38 0 60.5 -18.5
t22.5 -57.5v-6q0 -51 -35.5 -81t-115.5 -32v49z" />
    <glyph glyph-name="Ncommaaccent.alt1" horiz-adv-x="787" 
d="M65 715h254l203 -378v378h199v-715h-217l-239 428v-428h-200v715zM308 -176q32 2 51 11t21 26q-38 -2 -58 12t-20 42q0 26 20.5 40.5t53.5 14.5q38 0 60.5 -18.5t22.5 -57.5v-6q0 -51 -35.5 -81t-115.5 -32v49z" />
    </font>
</defs>
</svg>
