<?xml version="1.0" standalone="no"?>
<!DOCTYPE svg PUBLIC "-//W3C//DTD SVG 1.1//EN" "http://www.w3.org/Graphics/SVG/1.1/DTD/svg11.dtd" >
<svg xmlns="http://www.w3.org/2000/svg" xmlns:xlink="http://www.w3.org/1999/xlink" version="1.1">
<metadata>
Created by FontForge 20201107 at Thu Sep  7 13:19:47 2023
 By 
Copyright 2023 The Gabarito Project Authors (https://github.com/naipefoundry/gabarito)
</metadata>
<defs>
<font id="Gabarito-Medium" horiz-adv-x="547" >
  <font-face 
    font-family="Gabarito Medium"
    font-weight="500"
    font-stretch="normal"
    units-per-em="1000"
    panose-1="2 11 6 3 2 2 3 2 2 4"
    ascent="800"
    descent="-200"
    x-height="488"
    cap-height="681"
    bbox="-150 -293 1529 968"
    underline-thickness="80"
    underline-position="-235"
    unicode-range="U+0020-1F10C"
  />
<missing-glyph horiz-adv-x="834" 
d="M64 -60v607l215 215h491v-822h-706zM124 0h586v702h-405l-181 -182v-520zM174 50v398h202v204h284v-602h-486zM174 498l152 154v-154h-152zM376 269q8 0 15 6.5t7 16.5q0 9 -7 15.5t-15 6.5q-9 0 -16 -6.5t-7 -15.5q0 -10 7 -16.5t16 -6.5zM459 269q9 0 16 6.5t7 16.5
q0 9 -7 15.5t-16 6.5t-15.5 -6.5t-6.5 -15.5q0 -10 6.5 -16.5t15.5 -6.5zM315 129q20 20 45 31.5t57 11.5t57 -11.5t46 -31.5l18 21q-20 22 -50 36.5t-71 14.5t-70.5 -14.5t-50.5 -36.5z" />
    <glyph glyph-name=".notdef" horiz-adv-x="834" 
d="M64 -60v607l215 215h491v-822h-706zM124 0h586v702h-405l-181 -182v-520zM174 50v398h202v204h284v-602h-486zM174 498l152 154v-154h-152zM376 269q8 0 15 6.5t7 16.5q0 9 -7 15.5t-15 6.5q-9 0 -16 -6.5t-7 -15.5q0 -10 7 -16.5t16 -6.5zM459 269q9 0 16 6.5t7 16.5
q0 9 -7 15.5t-16 6.5t-15.5 -6.5t-6.5 -15.5q0 -10 6.5 -16.5t15.5 -6.5zM315 129q20 20 45 31.5t57 11.5t57 -11.5t46 -31.5l18 21q-20 22 -50 36.5t-71 14.5t-70.5 -14.5t-50.5 -36.5z" />
    <glyph glyph-name=".null" horiz-adv-x="0" 
 />
    <glyph glyph-name="nonmarkingreturn" horiz-adv-x="333" 
 />
    <glyph glyph-name="space" unicode=" " horiz-adv-x="260" 
 />
    <glyph glyph-name="exclam" unicode="!" horiz-adv-x="289" 
d="M74 710h141l-10 -333l-12 -158h-97l-12 158zM144 -6q-34 0 -58.5 24t-24.5 59q0 34 24.5 58.5t58.5 24.5q35 0 59.5 -24.5t24.5 -58.5q0 -35 -24.5 -59t-59.5 -24z" />
    <glyph glyph-name="quotedbl" unicode="&#x22;" horiz-adv-x="331" 
d="M58 387l-30 155v139h113v-294h-83zM221 387l-30 155v139h113v-294h-83z" />
    <glyph glyph-name="numbersign" unicode="#" horiz-adv-x="666" 
d="M580 259v-89h-127l-33 -178h-99l33 178h-121l-33 -178h-99l33 178h-97v89h114l30 164h-95v89h111l33 177h99l-33 -177h121l32 177h99l-32 -177h113v-89h-130l-30 -164h111zM250 259h120l30 164h-120z" />
    <glyph glyph-name="dollar" unicode="$" horiz-adv-x="536" 
d="M217 -117v109q-56 9 -102.5 41.5t-78.5 101.5l93 55q33 -52 69.5 -72t78.5 -20q47 0 76 23t29 57q0 20 -10 40t-40 37t-88 30q-104 21 -146 69t-42 111q0 69 42.5 120.5t118.5 66.5v105h97v-103q114 -16 176 -114l-94 -62q-31 41 -64 54t-68 13q-45 0 -69 -21t-24 -52
q0 -29 25.5 -53t103.5 -43q104 -25 152 -70t48 -119q0 -49 -23 -90t-65 -68.5t-98 -36.5v-109h-97z" />
    <glyph glyph-name="percent" unicode="%" horiz-adv-x="740" 
d="M182 360q-43 0 -79 20.5t-58 56t-22 78.5q0 44 22 79t58 56t79 21t79.5 -21t57.5 -56.5t21 -78.5t-21.5 -78.5t-57.5 -56t-79 -20.5zM133 -11l-71 54l543 626l72 -55zM182 450q27 0 45.5 18t18.5 47t-18.5 47.5t-45.5 18.5q-28 0 -45.5 -18.5t-17.5 -47.5t17.5 -47
t45.5 -18zM558 -11q-42 0 -78.5 20.5t-58 56t-21.5 78.5q0 44 21.5 79.5t57.5 56t79 20.5q44 0 80 -21t57.5 -56.5t21.5 -78.5t-22 -78.5t-58 -56t-79 -20.5zM558 79q28 0 46 18.5t18 46.5q0 30 -18 48.5t-46 18.5t-45.5 -18.5t-17.5 -48.5q0 -28 17.5 -46.5t45.5 -18.5z
" />
    <glyph glyph-name="ampersand" unicode="&#x26;" horiz-adv-x="645" 
d="M625 315h-95v-68q0 -79 -23 -129.5t-59 -78.5t-76.5 -39t-74.5 -11q-78 0 -131.5 29.5t-81.5 78.5t-28 109q0 52 30.5 96.5t84.5 71.5q-38 23 -58.5 61t-20.5 86q0 45 22.5 89t67 72.5t109.5 28.5q41 0 90.5 -15t96.5 -68l-79 -72q-24 23 -48.5 32t-50.5 9q-45 0 -68 -25
t-23 -58q0 -40 30 -66.5t91 -26.5h295v-106zM293 104q64 0 92.5 38t28.5 115v58h-120q-56 0 -88 -28.5t-32 -77.5t32 -77t87 -28z" />
    <glyph glyph-name="quotesingle" unicode="'" horiz-adv-x="168" 
d="M58 387l-30 155v139h113v-294h-83z" />
    <glyph glyph-name="parenleft" unicode="(" horiz-adv-x="351" 
d="M174 325q0 -127 44.5 -224.5t123.5 -178.5l-79 -72q-58 53 -104 122.5t-73 157.5t-27 195t27 194.5t73 157t104 122.5l79 -72q-79 -80 -123.5 -177.5t-44.5 -224.5z" />
    <glyph glyph-name="parenright" unicode=")" horiz-adv-x="351" 
d="M177 325q0 127 -45 224.5t-124 177.5l80 72q58 -53 104 -122.5t72.5 -157t26.5 -194.5t-26.5 -195t-72.5 -157.5t-104 -122.5l-80 72q79 81 124 178.5t45 224.5z" />
    <glyph glyph-name="asterisk" unicode="*" horiz-adv-x="450" 
d="M171 362l-82 46l80 108l-132 -14v91l132 -15l-80 108l81 44l56 -121l55 121l81 -45l-79 -106l130 14v-91l-131 14l80 -107l-81 -46l-55 120z" />
    <glyph glyph-name="plus" unicode="+" horiz-adv-x="670" 
d="M276 97v185h-179v108h179v193h108v-193h190v-108h-190v-185h-108z" />
    <glyph glyph-name="comma" unicode="," horiz-adv-x="277" 
d="M229 66q0 -55 -35 -113t-108 -109l-44 41q33 31 50.5 68t17.5 62q0 42 -20 65t-46 37q15 33 38.5 45.5t53.5 12.5q36 0 64.5 -29.5t28.5 -79.5z" />
    <glyph glyph-name="hyphen" unicode="-" horiz-adv-x="368" 
d="M337 234h-305v107h305v-107z" />
    <glyph glyph-name="period" unicode="." horiz-adv-x="273" 
d="M136 -7q-35 0 -61 26t-26 61t26 61t61 26q37 0 62.5 -26t25.5 -61t-25.5 -61t-62.5 -26z" />
    <glyph glyph-name="slash" unicode="/" horiz-adv-x="468" 
d="M94 -81l-94 43l374 768l94 -44z" />
    <glyph glyph-name="zero" unicode="0" horiz-adv-x="548" 
d="M274 -11q-73 0 -126.5 42t-82.5 121t-29 188q0 108 29 186.5t82.5 121.5t126.5 43t126.5 -43t82.5 -121.5t29 -186.5q0 -109 -29 -188t-82.5 -121t-126.5 -42zM274 101q43 0 69.5 32t38.5 86t12 121q0 59 -12 114t-38.5 89.5t-69.5 34.5q-44 0 -71 -34.5t-38.5 -89.5
t-11.5 -114q0 -67 11.5 -121t38.5 -86t71 -32z" />
    <glyph glyph-name="one" unicode="1" horiz-adv-x="353" 
d="M273 681v-681h-116v500q-21 -13 -52 -21.5t-72 -8.5v110q61 0 101.5 27.5t55.5 73.5h83z" />
    <glyph glyph-name="two" unicode="2" horiz-adv-x="503" 
d="M454 504q0 -62 -28 -119.5t-89 -127.5l-128 -147h256v-110h-417v96l184 208q41 46 64.5 78.5t33 58.5t9.5 51q0 42 -25 64.5t-58 22.5q-35 0 -69 -21t-72 -74l-84 61q43 71 97.5 108.5t126.5 37.5q62 0 106.5 -24.5t68.5 -67t24 -95.5z" />
    <glyph glyph-name="three" unicode="3" horiz-adv-x="509" 
d="M256 -11q-76 0 -130.5 26.5t-99.5 81.5l74 74q34 -36 68 -53t76 -17q58 0 88 28.5t30 71.5q0 42 -20.5 65.5t-55 34t-75.5 10.5q-25 0 -50 -3v102q17 -1 24.5 -1.5t18.5 -0.5q62 0 96.5 24t34.5 67q0 37 -24 58.5t-67 21.5q-74 0 -132 -69l-75 72q51 59 101.5 84
t116.5 25q90 0 142.5 -50t52.5 -130q0 -48 -21 -86t-60 -61q51 -23 80.5 -66t29.5 -105q0 -55 -26 -101.5t-76 -74.5t-121 -28z" />
    <glyph glyph-name="four" unicode="4" horiz-adv-x="563" 
d="M37 166v71l172 444h117l-153 -403h138l62 164h72v-164h94v-112h-94v-166h-118v166h-290z" />
    <glyph glyph-name="five" unicode="5" horiz-adv-x="525" 
d="M147 272l-86 21v388h392v-112h-281v-157q47 33 118 33q56 0 103 -27.5t75.5 -78.5t28.5 -119q0 -75 -31.5 -126.5t-83.5 -78t-115 -26.5q-79 0 -135.5 30.5t-90.5 81.5l90 64q25 -33 58 -49t67 -16q58 0 90 32.5t32 85.5q0 51 -34 81.5t-82 30.5q-33 0 -62 -13t-53 -45z
" />
    <glyph glyph-name="six" unicode="6" horiz-adv-x="544" 
d="M30 321q0 116 34.5 198.5t97.5 127t149 44.5q54 0 102 -18t89 -52l-63 -84q-58 45 -126 45q-63 0 -109 -54t-53 -176q28 37 71.5 57.5t95.5 20.5q66 0 111.5 -28.5t69 -76.5t23.5 -107q0 -67 -27.5 -118.5t-79.5 -81t-126 -29.5q-123 0 -191 79.5t-68 252.5zM163 210
q0 -51 33 -81.5t87 -30.5q55 0 88 30.5t33 81.5t-33 82.5t-88 31.5q-54 0 -87 -31.5t-33 -82.5z" />
    <glyph glyph-name="seven" unicode="7" horiz-adv-x="485" 
d="M62 0l277 569h-312v112h441v-98l-275 -583h-131z" />
    <glyph glyph-name="eight" unicode="8" horiz-adv-x="538" 
d="M269 -11q-74 0 -124 26t-76 70.5t-26 97.5q0 58 28.5 100.5t77.5 67.5q-41 26 -63.5 65.5t-22.5 87.5q0 81 54.5 134t153.5 53q64 0 109.5 -24t70 -66.5t24.5 -96.5q0 -48 -22 -87.5t-63 -65.5q49 -25 77 -68t28 -100q0 -53 -26 -97.5t-76 -70.5t-124 -26zM269 412
q41 0 67.5 24t26.5 62q0 35 -26.5 58t-67.5 23t-67.5 -23t-26.5 -58q0 -38 26.5 -62t67.5 -24zM269 101q49 0 79 27t30 72q0 47 -30 75t-79 28t-79 -28t-30 -75q0 -45 30 -72t79 -27z" />
    <glyph glyph-name="nine" unicode="9" horiz-adv-x="543" 
d="M521 359q0 -115 -34.5 -198t-97.5 -127.5t-149 -44.5q-54 0 -102 18t-89 52l64 85q58 -46 126 -46q63 0 109 54t52 176q-28 -37 -71 -57.5t-95 -20.5q-66 0 -111.5 28.5t-69.5 76.5t-24 107q0 67 27.5 118.5t79.5 81t127 29.5q123 0 190.5 -79.5t67.5 -252.5zM389 471
q0 50 -33.5 81t-86.5 31q-56 0 -89 -31t-33 -81q0 -52 33 -83.5t89 -31.5q53 0 86.5 31.5t33.5 83.5z" />
    <glyph glyph-name="colon" unicode=":" horiz-adv-x="273" 
d="M136 322q-35 0 -61 25.5t-26 61.5q0 35 26 61t61 26q37 0 62.5 -26t25.5 -61q0 -36 -25.5 -61.5t-62.5 -25.5zM136 -7q-35 0 -61 26t-26 61t26 61t61 26q37 0 62.5 -26t25.5 -61t-25.5 -61t-62.5 -26z" />
    <glyph glyph-name="semicolon" unicode=";" horiz-adv-x="277" 
d="M135 322q-35 0 -60.5 25.5t-25.5 61.5q0 35 25.5 61t60.5 26q37 0 62.5 -26t25.5 -61q0 -36 -25.5 -61.5t-62.5 -25.5zM229 66q0 -55 -35 -113t-108 -109l-44 41q33 31 50.5 68t17.5 62q0 42 -20 65t-46 37q15 33 38.5 45.5t52.5 12.5q37 0 65.5 -29.5t28.5 -79.5z" />
    <glyph glyph-name="less" unicode="&#x3c;" horiz-adv-x="670" 
d="M493 36l-369 228v66l369 228l54 -86l-284 -175l284 -175z" />
    <glyph glyph-name="equal" unicode="=" horiz-adv-x="670" 
d="M115 340v99h441v-99h-441zM115 145v99h441v-99h-441z" />
    <glyph glyph-name="greater" unicode="&#x3e;" horiz-adv-x="670" 
d="M172 36l-48 80l289 178l-289 178l48 80l375 -228v-60z" />
    <glyph glyph-name="question" unicode="?" horiz-adv-x="540" 
d="M237 202l-59 95l67 43q47 30 76 54t42 49t13 57q0 47 -31.5 75.5t-76.5 28.5q-35 0 -71 -15.5t-74 -53.5l-20 -19l-71 80l15 16q42 45 97.5 75t129.5 30q64 0 114 -28.5t78.5 -77.5t28.5 -110q0 -42 -14.5 -82t-52.5 -80.5t-107 -83.5zM263 -8q-35 0 -59 24t-24 59t24 59
t59 24q34 0 58.5 -24t24.5 -59t-24 -59t-59 -24z" />
    <glyph glyph-name="at" unicode="@" horiz-adv-x="847" 
d="M354 150q-38 0 -68.5 19.5t-48.5 53.5t-18 78q0 66 27 119.5t72 84.5t99 31q35 0 60.5 -15t40.5 -41l25 51h69l-37 -179q-2 -12 -5.5 -33.5t-3.5 -38.5q0 -20 12 -32t31 -12q21 0 41.5 15t34.5 49t14 91q0 64 -32.5 118.5t-90.5 88t-137 33.5q-84 0 -149.5 -39
t-102.5 -106t-37 -153q0 -83 37.5 -147.5t103.5 -101.5t150 -37q71 0 120 19.5t93 52.5l57 -82q-49 -44 -118.5 -69t-145.5 -25q-88 0 -161.5 28t-128 79.5t-84.5 122.5t-30 158q0 88 31.5 162t86.5 127.5t126 83t151 29.5q79 0 146 -27.5t116.5 -75.5t76.5 -108.5
t27 -127.5q0 -70 -20 -118.5t-51.5 -77.5t-67 -42t-66.5 -13q-42 0 -73 17t-46 51q-24 -28 -56 -44.5t-70 -16.5zM379 238q31 0 53 22t33.5 55.5t11.5 69.5q0 27 -12.5 46t-37.5 19q-32 0 -54 -22t-33.5 -56t-11.5 -68q0 -28 12.5 -47t38.5 -19z" />
    <glyph glyph-name="A" unicode="A" horiz-adv-x="659" 
d="M17 0l242 681h145l239 -681h-118l-51 148h-287l-53 -148h-117zM225 256h211l-104 303z" />
    <glyph glyph-name="B" unicode="B" horiz-adv-x="596" 
d="M76 0v681h233q220 0 220 -184q0 -48 -21.5 -85t-57.5 -59q48 -20 74.5 -61.5t26.5 -100.5q0 -94 -57.5 -142.5t-167.5 -48.5h-250zM311 570h-119v-168h119q100 0 100 83q0 38 -26 61.5t-74 23.5zM329 299h-137v-188h135q51 0 78.5 26t27.5 68q0 46 -27 70t-77 24z" />
    <glyph glyph-name="C" unicode="C" horiz-adv-x="705" 
d="M372 -11q-105 0 -182.5 45.5t-120 125t-42.5 180.5q0 76 25.5 140t72 111.5t109.5 73.5t138 26q117 0 192 -49t120 -135l-110 -37q-42 61 -91.5 85t-110.5 24q-65 0 -116.5 -30.5t-81 -84.5t-29.5 -124t29.5 -124t81 -84.5t116.5 -30.5q61 0 110.5 24t91.5 85l110 -37
q-45 -86 -120 -135t-192 -49z" />
    <glyph glyph-name="D" unicode="D" horiz-adv-x="673" 
d="M76 0v681h229q101 0 177.5 -41t120 -117.5t43.5 -183.5q0 -108 -43.5 -184t-120.5 -115.5t-178 -39.5h-228zM298 571h-106v-461h105q65 0 116.5 24.5t82 75t30.5 129.5q0 77 -30 128.5t-81.5 77.5t-116.5 26z" />
    <glyph glyph-name="E" unicode="E" 
d="M497 110v-110h-421v681h421v-110h-305v-174h247v-110h-247v-177h305z" />
    <glyph glyph-name="F" unicode="F" horiz-adv-x="517" 
d="M192 0h-116v681h413v-110h-297v-179h241v-110h-241v-282z" />
    <glyph glyph-name="G" unicode="G" horiz-adv-x="723" 
d="M372 -11q-104 0 -181.5 45.5t-120.5 124.5t-43 179q0 77 25.5 141.5t72 112t109.5 73.5t138 26q116 0 191 -48.5t120 -132.5l-110 -37q-42 60 -91.5 83t-109.5 23q-65 0 -116.5 -30.5t-81 -85t-29.5 -125.5q0 -70 29.5 -123.5t80.5 -84.5t116 -31q78 0 136 41t77 109
h-220v107h333q3 -12 5 -27t2 -29q0 -66 -25.5 -122.5t-71 -99t-106 -66t-129.5 -23.5z" />
    <glyph glyph-name="H" unicode="H" horiz-adv-x="691" 
d="M76 0v681h116v-293h307v293h116v-681h-116v278h-307v-278h-116z" />
    <glyph glyph-name="I" unicode="I" horiz-adv-x="269" 
d="M192 0h-116v681h116v-681z" />
    <glyph glyph-name="J" unicode="J" horiz-adv-x="537" 
d="M253 96q45 0 69.5 27.5t24.5 75.5v482h118v-481q0 -64 -25.5 -112.5t-73 -75.5t-113.5 -27q-99 0 -155.5 55.5t-56.5 155.5v41h117v-36q0 -54 25 -79.5t70 -25.5z" />
    <glyph glyph-name="K" unicode="K" horiz-adv-x="618" 
d="M76 0v681h116v-289l272 289h145l-317 -337l321 -344h-154l-267 287v-287h-116z" />
    <glyph glyph-name="L" unicode="L" horiz-adv-x="501" 
d="M477 0h-401v681h116v-571h285v-110z" />
    <glyph glyph-name="M" unicode="M" horiz-adv-x="872" 
d="M31 0l123 681h104l178 -485l179 485h103l124 -681h-120l-52 317q-7 43 -13 85t-10 84q-12 -44 -25 -85t-28 -83l-113 -308h-90l-113 308q-15 43 -28 83t-25 84q-4 -42 -10 -84t-13 -84l-52 -317h-119z" />
    <glyph glyph-name="N" unicode="N" horiz-adv-x="728" 
d="M550 0l-358 471v-471h-116v681h102l358 -471v471h116v-681h-102z" />
    <glyph glyph-name="O" unicode="O" horiz-adv-x="757" 
d="M27 340q0 76 26 140.5t73.5 111.5t112 73t141.5 26q76 0 140 -26t111 -73t73 -111.5t26 -140.5t-26 -140t-73 -111.5t-111 -73.5t-140 -26q-77 0 -141.5 26t-112 73.5t-73.5 111.5t-26 140zM145 340q0 -70 30.5 -124t83.5 -84t121 -30q67 0 119.5 30.5t82.5 84t30 123.5
t-30 124t-82.5 84t-119.5 30q-68 0 -121 -30t-83.5 -84t-30.5 -124z" />
    <glyph glyph-name="P" unicode="P" horiz-adv-x="585" 
d="M319 209h-127v-209h-116v681h243q73 0 126.5 -30.5t83.5 -84t30 -122.5q0 -68 -30 -121.5t-84 -83.5t-126 -30zM305 571h-113v-252h112q62 0 98.5 33t36.5 92q0 63 -36 95t-98 32z" />
    <glyph glyph-name="Q" unicode="Q" horiz-adv-x="757" 
d="M27 340q0 76 26 140.5t73.5 111.5t112 73t141.5 26q76 0 140 -26t111 -73t73 -111.5t26 -140.5q0 -78 -27.5 -144t-76.5 -113l74 -125h-120l-40 67q-73 -36 -160 -36q-77 0 -141.5 26t-112 73.5t-73.5 111.5t-26 140zM145 340q0 -70 30.5 -124t83.5 -84t121 -30
q55 0 102 21l-99 166h120l60 -101q23 30 36 68.5t13 83.5q0 70 -30 124t-82.5 84t-119.5 30q-68 0 -121 -30t-83.5 -84t-30.5 -124z" />
    <glyph glyph-name="R" unicode="R" horiz-adv-x="613" 
d="M76 0v681h251q71 0 125 -29.5t84.5 -80.5t30.5 -117q0 -70 -35 -123.5t-95 -80.5l137 -250h-127l-126 229h-129v-229h-116zM312 571h-120v-232h120q62 0 98.5 30t36.5 85q0 58 -36.5 87.5t-98.5 29.5z" />
    <glyph glyph-name="S" unicode="S" horiz-adv-x="560" 
d="M295 -16q-83 0 -153 38t-112 128l94 56q33 -58 74.5 -85t101.5 -27q55 0 83.5 24t28.5 66q0 24 -12 43.5t-44 35.5t-90 30q-80 20 -125 50t-63 69t-18 86q0 57 27 100.5t78 68.5t121 25q82 0 137 -32t91 -85l-95 -63q-29 37 -63.5 52.5t-71.5 15.5q-53 0 -81 -20.5
t-28 -59.5q0 -34 26.5 -57.5t105.5 -42.5q84 -21 132.5 -49.5t69.5 -69t21 -96.5q0 -57 -29 -102t-81.5 -72t-124.5 -27z" />
    <glyph glyph-name="T" unicode="T" horiz-adv-x="562" 
d="M219 0v571h-209v110h542v-110h-217v-571h-116z" />
    <glyph glyph-name="U" unicode="U" horiz-adv-x="681" 
d="M340 -11q-122 0 -195 70t-73 206v416h116v-407q0 -82 39 -127.5t113 -45.5q75 0 114 45.5t39 127.5v407h116v-416q0 -136 -73 -206t-196 -70z" />
    <glyph glyph-name="V" unicode="V" horiz-adv-x="642" 
d="M248 0l-239 681h118l195 -556l194 556h118l-239 -681h-147z" />
    <glyph glyph-name="W" unicode="W" horiz-adv-x="974" 
d="M203 0l-186 681h117l139 -523l158 523h112l158 -523l139 523h117l-186 -681h-132l-152 497l-152 -497h-132z" />
    <glyph glyph-name="X" unicode="X" horiz-adv-x="651" 
d="M156 681l173 -255l174 255h139l-242 -343l242 -338h-140l-178 255l-175 -255h-140l244 346l-235 335h138z" />
    <glyph glyph-name="Y" unicode="Y" horiz-adv-x="572" 
d="M571 681l-228 -436v-245h-116v244l-228 437h129l157 -315l159 315h127z" />
    <glyph glyph-name="Z" unicode="Z" horiz-adv-x="564" 
d="M527 110v-110h-481v94l335 477h-327v110h469v-93l-332 -478h336z" />
    <glyph glyph-name="bracketleft" unicode="[" horiz-adv-x="319" 
d="M72 -145v930h227v-106h-111v-719h111v-105h-227z" />
    <glyph glyph-name="backslash" unicode="\" horiz-adv-x="468" 
d="M374 -81l-374 767l94 44l374 -768z" />
    <glyph glyph-name="bracketright" unicode="]" horiz-adv-x="311" 
d="M13 679v106h226v-930h-226v105h110v719h-110z" />
    <glyph glyph-name="asciicircum" unicode="^" horiz-adv-x="670" 
d="M547 367l-60 -66l-152 130l-152 -130l-60 66l212 187z" />
    <glyph glyph-name="underscore" unicode="_" horiz-adv-x="548" 
d="M529 -89h-511v94h511v-94z" />
    <glyph glyph-name="grave" unicode="`" 
d="M316 554l-155 143l57 58l155 -142z" />
    <glyph glyph-name="a" unicode="a" horiz-adv-x="498" 
d="M211 -14q-84 0 -132.5 44.5t-48.5 121.5q0 73 50 120t131 47q71 0 116 -33v36q0 30 -20.5 54t-69.5 24q-28 0 -62 -7t-70 -23l-35 86q43 21 89 32t92 11q96 0 144 -51t48 -128v-320h-89l-10 35q-49 -49 -133 -49zM238 81q40 0 64.5 18.5t24.5 52.5t-24.5 53t-64.5 19
t-64.5 -19t-24.5 -53t24.5 -52.5t64.5 -18.5z" />
    <glyph glyph-name="b" unicode="b" horiz-adv-x="570" 
d="M60 0v681h116v-232q56 50 139 50q67 0 117.5 -32t79 -89t28.5 -133t-28 -133.5t-79 -90t-118 -32.5q-47 0 -86 17t-67 49l-15 -55h-87zM296 93q56 0 91 42t35 110q0 67 -35 108.5t-91 41.5t-91 -41.5t-35 -109.5t35 -109.5t91 -41.5z" />
    <glyph glyph-name="c" unicode="c" horiz-adv-x="510" 
d="M277 -11q-75 0 -130.5 32.5t-86 90t-30.5 132.5t30.5 132.5t86 90t130.5 32.5q74 0 133 -39t85 -104l-108 -47q-32 78 -112 78q-54 0 -90.5 -37.5t-36.5 -105.5q0 -67 36.5 -105t90.5 -38q80 0 112 78l108 -46q-27 -65 -85.5 -104.5t-132.5 -39.5z" />
    <glyph glyph-name="d" unicode="d" horiz-adv-x="570" 
d="M255 -11q-67 0 -117.5 32.5t-79 90t-28.5 133.5t28.5 133t79.5 89t118 32q83 0 139 -50v232h116v-681h-88l-14 55q-29 -32 -68 -49t-86 -17zM275 93q55 0 90 41.5t35 109.5t-35 109.5t-90 41.5q-57 0 -92 -41.5t-35 -108.5q0 -68 35 -110t92 -42z" />
    <glyph glyph-name="e" unicode="e" horiz-adv-x="540" 
d="M271 -10q-72 0 -126 31.5t-84.5 88.5t-30.5 133q0 77 30.5 134.5t84.5 89.5t126 32q73 0 127.5 -32.5t84.5 -90t30 -132.5q0 -10 -0.5 -18.5t-1.5 -15.5h-367q3 -58 37.5 -91t92.5 -33q55 0 85.5 22.5t52.5 57.5l83 -50q-33 -62 -88 -94t-136 -32zM272 407
q-52 0 -85 -28.5t-41 -75.5h249q-10 47 -41 75.5t-82 28.5z" />
    <glyph glyph-name="f" unicode="f" horiz-adv-x="322" 
d="M96 0v376h-72v107h72v48q0 80 40 120.5t108 40.5q22 0 39.5 -3.5t30.5 -6.5v-107q-11 2 -21 4t-25 2q-23 0 -39.5 -14.5t-16.5 -48.5v-35h91v-107h-91v-376h-116z" />
    <glyph glyph-name="g" unicode="g" horiz-adv-x="575" 
d="M261 29q-67 0 -118 29.5t-80 82t-29 122.5t28.5 123.5t79.5 83t119 29.5q47 0 85.5 -16.5t66.5 -47.5l14 53h88v-424q0 -130 -66.5 -196.5t-172.5 -66.5q-62 0 -116.5 27t-88.5 93l-8 15l89 46q25 -42 53 -61.5t72 -19.5q55 0 88.5 35t33.5 107v34q-55 -48 -138 -48z
M279 129q56 0 91 37.5t35 97.5t-35 97.5t-91 37.5q-57 0 -92 -38t-35 -98q0 -59 35 -96.5t92 -37.5z" />
    <glyph glyph-name="h" unicode="h" horiz-adv-x="552" 
d="M60 0v681h116v-246q36 30 79.5 47t90.5 17q51 0 81.5 -17t45.5 -46.5t19.5 -66t4.5 -75.5v-294h-116v304q0 48 -20.5 65t-50.5 17q-36 0 -73 -18.5t-61 -46.5v-321h-116z" />
    <glyph glyph-name="i" unicode="i" horiz-adv-x="240" 
d="M178 0h-116v488h116v-488zM47 640q0 32 19.5 52.5t53.5 20.5q32 0 52 -20.5t20 -52.5t-20 -52t-52 -20q-34 0 -53.5 20t-19.5 52z" />
    <glyph glyph-name="j" unicode="j" horiz-adv-x="244" 
d="M58 -194q-25 0 -41 4t-20 6v98q5 -1 13 -3t18 -2q39 0 39 49v530h116v-537q0 -39 -12.5 -72t-40 -53t-72.5 -20zM53 640q0 32 19.5 52.5t53.5 20.5q32 0 52 -20.5t20 -52.5t-20 -52t-52 -20q-34 0 -53.5 20t-19.5 52z" />
    <glyph glyph-name="k" unicode="k" horiz-adv-x="478" 
d="M60 681h114v-386l177 193h134l-210 -233l213 -255h-137l-177 209v-209h-114v681z" />
    <glyph glyph-name="l" unicode="l" horiz-adv-x="255" 
d="M165 -5q-44 0 -74.5 30t-30.5 91v565h114v-524q0 -33 15 -44t35 -11v-99q-12 -4 -27.5 -6t-31.5 -2z" />
    <glyph glyph-name="m" unicode="m" horiz-adv-x="845" 
d="M60 0v488h87l17 -62q36 34 79 53.5t91 19.5q57 0 87.5 -21.5t44.5 -56.5q36 36 80.5 57t94.5 21q51 0 81 -17t44.5 -46.5t19 -66t4.5 -75.5v-294h-116v304q0 48 -20.5 65t-48.5 17q-34 0 -67 -18t-55 -46v-28v-294h-116v304q0 48 -20.5 65t-49.5 17q-34 0 -66.5 -18
t-54.5 -46v-322h-116z" />
    <glyph glyph-name="n" unicode="n" horiz-adv-x="552" 
d="M346 499q51 0 81.5 -17t45.5 -46.5t19.5 -66t4.5 -75.5v-294h-116v304q0 48 -20.5 65t-50.5 17q-36 0 -73 -18.5t-61 -46.5v-321h-116v488h87l17 -63q38 34 84.5 54t97.5 20z" />
    <glyph glyph-name="o" unicode="o" horiz-adv-x="567" 
d="M283 -11q-75 0 -132 32t-88.5 89.5t-31.5 132.5q0 77 31.5 134.5t88.5 89.5t132 32t132 -32t88.5 -89.5t31.5 -134.5q0 -75 -31.5 -132.5t-88.5 -89.5t-132 -32zM283 101q60 0 97 39.5t37 103.5t-37 103.5t-97 39.5t-97 -39t-37 -104q0 -64 37 -103.5t97 -39.5z" />
    <glyph glyph-name="p" unicode="p" horiz-adv-x="570" 
d="M60 -190v678h87l15 -54q28 31 67 48t86 17q67 0 118 -32t79 -89.5t28 -134.5q0 -75 -28.5 -132.5t-79 -89.5t-117.5 -32q-83 0 -139 50v-229h-116zM296 93q56 0 91 41.5t35 108.5q0 68 -35 110t-91 42t-91 -41.5t-35 -109.5t35 -109.5t91 -41.5z" />
    <glyph glyph-name="q" unicode="q" horiz-adv-x="570" 
d="M256 -11q-67 0 -118 32t-79.5 89.5t-28.5 132.5q0 77 28.5 134.5t79 89.5t117.5 32q47 0 86 -17t68 -48l14 54h88v-678h-116v229q-56 -50 -139 -50zM275 93q55 0 90 41.5t35 109.5t-35 109.5t-90 41.5q-57 0 -92 -42t-35 -110q0 -67 35 -108.5t92 -41.5z" />
    <glyph glyph-name="r" unicode="r" horiz-adv-x="353" 
d="M147 488l12 -53q21 23 55 43.5t70 20.5q33 0 49 -9v-105h-32q-48 0 -78 -10.5t-47 -32.5v-342h-116v488h87z" />
    <glyph glyph-name="s" unicode="s" horiz-adv-x="439" 
d="M224 -12q-54 0 -104 24t-86 81l79 60q29 -36 56.5 -52t66.5 -16q28 0 44 14t16 35t-19.5 35.5t-79.5 29.5q-74 19 -112.5 51.5t-38.5 98.5q0 41 21.5 75.5t60.5 55t94 20.5q65 0 111 -26t73 -62l-81 -64q-17 19 -45.5 35.5t-68.5 16.5q-24 0 -43 -12t-19 -34
q0 -21 19 -35t72 -26q89 -21 127 -56t38 -92q0 -48 -25 -83t-66 -54.5t-90 -19.5z" />
    <glyph glyph-name="t" unicode="t" horiz-adv-x="372" 
d="M253 -9q-70 0 -110.5 38.5t-40.5 121.5v231h-75v106h75l22 113h94v-113h106v-106h-106v-221q0 -30 15 -44t39 -14q16 0 29 2t23 5v-108q-15 -5 -31.5 -8t-39.5 -3z" />
    <glyph glyph-name="u" unicode="u" horiz-adv-x="552" 
d="M218 -11q-55 0 -87.5 17t-49 46.5t-21.5 66t-5 76.5v293h116v-304q0 -48 21 -64.5t51 -16.5q36 0 72.5 17.5t60.5 46.5v321h116v-488h-87l-17 63q-36 -34 -79.5 -54t-90.5 -20z" />
    <glyph glyph-name="v" unicode="v" horiz-adv-x="512" 
d="M498 488l-182 -488h-111l-191 488h125l121 -344l115 344h123z" />
    <glyph glyph-name="w" unicode="w" horiz-adv-x="740" 
d="M163 0l-152 488h115l91 -325l104 325h99l105 -325l91 325h113l-152 -488h-101l-105 324l-105 -324h-103z" />
    <glyph glyph-name="x" unicode="x" horiz-adv-x="503" 
d="M352 0l-101 158l-101 -158h-136l169 245l-168 243h136l100 -156l100 156h136l-167 -243l168 -245h-136z" />
    <glyph glyph-name="y" unicode="y" horiz-adv-x="518" 
d="M87 -190l114 256l-188 422h120l128 -288l129 288h120l-303 -678h-120z" />
    <glyph glyph-name="z" unicode="z" horiz-adv-x="462" 
d="M424 105v-105h-386v90l239 293h-234v105h377v-90l-240 -293h244z" />
    <glyph glyph-name="braceleft" unicode="{" horiz-adv-x="318" 
d="M274 -147q-13 -3 -27.5 -4t-28.5 -1q-83 0 -126.5 40.5t-43.5 98.5q0 31 15 60t34.5 56t35 52.5t15.5 50.5q0 44 -56 67l-42 18v73l42 17q56 24 56 67q0 26 -15.5 51.5t-35 52.5t-34.5 55.5t-15 60.5q0 57 43.5 97.5t126.5 40.5q14 0 28.5 -0.5t27.5 -3.5l-1 -101h-41
q-29 0 -48.5 -13t-19.5 -42q0 -24 14.5 -49.5t32.5 -51.5t32 -53.5t14 -56.5q0 -33 -18 -61.5t-45 -46.5q27 -18 45 -46t18 -62q0 -29 -14 -56t-32 -53.5t-32.5 -51.5t-14.5 -50q0 -29 19.5 -41.5t48.5 -12.5h41z" />
    <glyph glyph-name="bar" unicode="|" horiz-adv-x="262" 
d="M185 -122h-108v944h108v-944z" />
    <glyph glyph-name="braceright" unicode="}" horiz-adv-x="318" 
d="M270 -13q0 -58 -43.5 -98.5t-126.5 -40.5q-14 0 -28.5 1t-27.5 4l1 101h41q28 0 47.5 12.5t19.5 41.5q0 25 -14 50t-32.5 51.5t-32.5 53.5t-14 56q0 34 18 62t46 46q-28 18 -46 46.5t-18 61.5q0 29 14 56.5t32.5 53.5t32.5 51.5t14 49.5q0 29 -19.5 42t-47.5 13h-41
l-1 101q13 3 27.5 3.5t28.5 0.5q83 0 126.5 -40.5t43.5 -97.5q0 -32 -15 -60.5t-35 -55.5t-35 -52.5t-15 -51.5q0 -43 56 -67l42 -17v-73l-42 -18q-56 -23 -56 -67q0 -25 15 -50.5t35 -52.5t35 -56t15 -60z" />
    <glyph glyph-name="asciitilde" unicode="~" horiz-adv-x="670" 
d="M147 202l-85 47q29 53 68.5 89.5t107.5 36.5q34 0 59 -9.5t46 -23t41.5 -23.5t44.5 -10q32 0 53.5 21t41.5 56l85 -47q-29 -53 -68.5 -89.5t-107.5 -36.5q-34 0 -59 10t-46 23t-41.5 22.5t-44.5 9.5q-32 0 -53 -20t-42 -56z" />
    <glyph glyph-name="uni00A0" unicode="&#xa0;" horiz-adv-x="260" 
 />
    <glyph glyph-name="exclamdown" unicode="&#xa1;" horiz-adv-x="289" 
d="M145 537q35 0 59 -24t24 -59t-24 -59t-59 -24q-34 0 -59 24t-25 59t24.5 59t59.5 24zM216 -180h-141l9 333l13 158h97l12 -157z" />
    <glyph glyph-name="cent" unicode="&#xa2;" horiz-adv-x="530" 
d="M223 -2v98q-58 13 -98.5 48t-62.5 87t-22 113q0 62 23 113t64 86.5t96 48.5v109h113v-106q62 -9 107 -43.5t71 -96.5l-98 -47q-22 40 -48.5 64t-81.5 24q-61 0 -95 -41.5t-34 -109.5t34.5 -109.5t95.5 -41.5q52 0 80 24.5t49 62.5l98 -47q-26 -61 -71.5 -96t-106.5 -44
v-96h-113z" />
    <glyph glyph-name="sterling" unicode="&#xa3;" horiz-adv-x="509" 
d="M395 245h-131q2 -12 2 -23q0 -31 -8.5 -59t-23.5 -51h248v-112h-415l-23 72l41 26q37 21 53.5 58t16.5 71q0 9 -1 18h-110v103h70q-14 27 -25.5 59t-11.5 75q0 48 23.5 89t68.5 65t108 24q60 0 110.5 -25.5t89.5 -81.5l-81 -70q-26 37 -55.5 51.5t-62.5 14.5
q-36 0 -61.5 -22.5t-25.5 -62.5q0 -26 11.5 -55.5t25.5 -60.5h167v-103z" />
    <glyph glyph-name="currency" unicode="&#xa4;" horiz-adv-x="593" 
d="M117 74l-77 78l74 74q-25 46 -25 99t25 99l-74 75l77 77l73 -72q49 29 106 29q59 0 108 -29l72 72l77 -77l-73 -74q24 -46 24 -100t-24 -100l73 -73l-77 -78l-72 72q-49 -29 -108 -29q-57 0 -106 30zM296 226q43 0 70.5 28t27.5 71t-27.5 71t-70.5 28q-42 0 -70 -28
t-28 -71t28 -71t70 -28z" />
    <glyph glyph-name="yen" unicode="&#xa5;" horiz-adv-x="538" 
d="M210 0v99h-168v100h168v57h-168v101h118l-147 293h112l143 -297l145 297h112l-149 -293h119v-101h-169v-57h169v-100h-169v-99h-116z" />
    <glyph glyph-name="brokenbar" unicode="&#xa6;" horiz-adv-x="262" 
d="M185 411h-108v411h108v-411zM185 -122h-108v411h108v-411z" />
    <glyph glyph-name="section" unicode="&#xa7;" horiz-adv-x="522" 
d="M483 51q0 -54 -28.5 -96t-78 -66.5t-112.5 -24.5q-74 0 -133.5 34t-94.5 114l90 56q32 -56 67 -76.5t80 -20.5q40 0 66 19.5t26 50.5q0 19 -11 35.5t-40.5 31.5t-85.5 28q-95 21 -132 64.5t-37 101.5q0 83 72 126q-36 26 -52.5 61t-16.5 76q0 51 25 92t71 65t109 24
q76 0 127 -28t86 -80l-91 -63q-29 38 -60.5 51t-65.5 13q-38 0 -61.5 -18.5t-23.5 -49.5q0 -28 24.5 -52.5t97.5 -43.5q95 -23 140.5 -65t45.5 -113q0 -36 -19 -67t-52 -53q68 -44 68 -126zM293 226q14 -4 27 -8q23 7 37 26t14 46q0 19 -10 35.5t-39.5 31.5t-86.5 28
q-9 2 -17 5q-21 -7 -33.5 -25t-12.5 -45q0 -17 9.5 -34t35.5 -32t76 -28z" />
    <glyph glyph-name="dieresis" unicode="&#xa8;" 
d="M106 633q0 31 19.5 51.5t51.5 20.5q30 0 50 -20.5t20 -51.5q0 -30 -20 -50t-50 -20q-32 0 -51.5 20t-19.5 50zM300 633q0 31 19.5 51.5t50.5 20.5t50.5 -20.5t19.5 -51.5q0 -30 -19.5 -50t-50.5 -20t-50.5 20t-19.5 50z" />
    <glyph glyph-name="copyright" unicode="&#xa9;" horiz-adv-x="669" 
d="M334 190q-60 0 -112 22.5t-91.5 62.5t-61.5 92t-22 110q0 61 22 113.5t62 92.5t92 62.5t111 22.5t111.5 -22.5t92 -62.5t62.5 -92.5t23 -113.5q0 -58 -22.5 -110t-62 -92t-92 -62.5t-112.5 -22.5zM334 269q58 0 104.5 27.5t74 75t27.5 105.5q0 61 -27.5 108.5t-74 75
t-104.5 27.5q-57 0 -103.5 -27.5t-74.5 -75t-28 -108.5q0 -58 28 -105.5t74.5 -75t103.5 -27.5zM339 331q-62 0 -102.5 40t-40.5 105t39.5 105t103.5 40q42 0 75 -18t54 -59l-69 -35q-13 21 -28 28.5t-32 7.5q-27 0 -43.5 -18.5t-16.5 -50.5t16.5 -50t43.5 -18q16 0 31.5 7
t28.5 29l69 -35q-21 -42 -54 -60t-75 -18z" />
    <glyph glyph-name="ordfeminine" unicode="&#xaa;" horiz-adv-x="378" 
d="M168 304q-39 0 -70.5 16.5t-49.5 44.5t-18 64q0 39 19 67t51 43t69 15q28 0 48.5 -7.5t34.5 -18.5v29q0 22 -16.5 38.5t-50.5 16.5q-20 0 -45.5 -5t-53.5 -18l-27 68q36 16 67.5 25t73.5 9q72 0 108.5 -40.5t36.5 -111.5v-225h-72l-8 32q-18 -19 -43 -30.5t-54 -11.5z
M184 378q29 0 48 14.5t19 36.5q0 21 -18.5 36.5t-48.5 15.5q-28 0 -46.5 -15.5t-18.5 -36.5q0 -22 18.5 -36.5t46.5 -14.5z" />
    <glyph glyph-name="guillemotleft" unicode="&#xab;" horiz-adv-x="550" 
d="M182 92l-143 201l144 202h120l-143 -203l142 -200h-120zM396 92l-143 201l144 202h120l-143 -203l142 -200h-120z" />
    <glyph glyph-name="logicalnot" unicode="&#xac;" horiz-adv-x="670" 
d="M569 93h-108v166h-359v108h467v-274z" />
    <glyph glyph-name="registered" unicode="&#xae;" horiz-adv-x="669" 
d="M334 768q59 0 111.5 -22.5t92 -62.5t62.5 -92.5t23 -113.5q0 -58 -22.5 -110t-62 -92t-92 -62.5t-112.5 -22.5t-112 22.5t-91.5 62.5t-61.5 92t-22 110q0 61 22 113.5t62 92.5t92 62.5t111 22.5zM334 269q58 0 104.5 27.5t74 75t27.5 105.5q0 61 -27.5 108.5t-74 75
t-104.5 27.5q-57 0 -103.5 -27.5t-74.5 -75t-28 -108.5q0 -58 28 -105.5t74.5 -75t103.5 -27.5zM454 342h-81l-41 75v0h-28v-75h-74v285h102q56 0 90.5 -26.5t34.5 -78.5q0 -32 -13.5 -54.5t-37.5 -34.5zM335 558h-31v-72h31q47 0 47 36t-47 36z" />
    <glyph glyph-name="macron" unicode="&#xaf;" 
d="M413 582h-280v87h280v-87z" />
    <glyph glyph-name="degree" unicode="&#xb0;" horiz-adv-x="406" 
d="M203 343q-49 0 -88.5 23t-63.5 62t-24 86q0 49 24 88t64 62t88 23q47 0 87 -23t64.5 -62t24.5 -88t-24 -87.5t-64 -61t-88 -22.5zM203 432q33 0 56 23t23 59t-22.5 59t-56.5 23t-57 -23t-23 -59t23 -59t57 -23z" />
    <glyph glyph-name="plusminus" unicode="&#xb1;" horiz-adv-x="670" 
d="M275 202v160h-178v108h178v171h108v-171h191v-108h-191v-160h-108zM97 14v108h477v-108h-477z" />
    <glyph glyph-name="uni00B2" unicode="&#xb2;" horiz-adv-x="347" 
d="M312 657q0 -33 -20 -65.5t-58 -72.5l-57 -59h140v-92h-286v63l115 116q33 34 52 59.5t19 45.5q0 19 -13 28.5t-30 9.5q-19 0 -37.5 -10.5t-39.5 -37.5l-71 50q25 38 60.5 62.5t88.5 24.5q59 0 98 -34.5t39 -87.5z" />
    <glyph glyph-name="uni00B3" unicode="&#xb3;" horiz-adv-x="334" 
d="M162 359q-46 0 -82.5 19t-59.5 55l59 59q24 -26 40 -35.5t44 -9.5q21 0 38 10.5t17 30.5q0 15 -15 30t-57 15q-10 0 -22.5 -0.5t-22.5 -1.5v75q17 -2 23.5 -2h16.5q27 0 44 13.5t17 36.5q0 17 -14 27.5t-36 10.5q-42 0 -80 -48l-59 61q35 40 68.5 57t78.5 17
q60 0 97 -30.5t37 -76.5q0 -59 -43 -89q30 -14 47.5 -37.5t17.5 -52.5q0 -38 -20.5 -68.5t-55 -48t-78.5 -17.5z" />
    <glyph glyph-name="acute" unicode="&#xb4;" 
d="M231 554l-57 59l155 142l58 -58z" />
    <glyph glyph-name="uni00B5" unicode="&#xb5;" horiz-adv-x="552" 
d="M55 488h116v-304q0 -48 21 -64.5t51 -16.5q36 0 72.5 17.5t60.5 46.5v321h116v-488h-87l-17 63q-36 -34 -79.5 -54t-90.5 -20q-26 0 -47 4v-183h-116v678z" />
    <glyph glyph-name="paragraph" unicode="&#xb6;" horiz-adv-x="688" 
d="M465 92v511h-123v-416h-42q-68 0 -124 33.5t-89.5 92t-33.5 132.5q0 86 37.5 146t99.5 91t136 31h332v-67l-77 -39v-500q0 -115 -57.5 -181.5t-172.5 -66.5q-40 0 -80 13.5t-76.5 45.5t-65.5 89l-4 9l92 49q32 -61 62.5 -80.5t68.5 -19.5q50 0 83.5 32t33.5 95z" />
    <glyph glyph-name="periodcentered" unicode="&#xb7;" horiz-adv-x="273" 
d="M136 194q-35 0 -61 26t-26 61t26 61t61 26q37 0 62.5 -26t25.5 -61t-25.5 -61t-62.5 -26z" />
    <glyph glyph-name="cedilla" unicode="&#xb8;" 
d="M267 -208q-32 0 -58 8t-47 20l27 55q14 -8 32.5 -14t39.5 -6q46 0 46 29q0 11 -11 18t-39 7h-52l20 91h69l-7 -36q45 -4 67 -25t22 -54q0 -44 -28.5 -68.5t-80.5 -24.5z" />
    <glyph glyph-name="uni00B9" unicode="&#xb9;" horiz-adv-x="237" 
d="M201 771v-403h-97v272q-36 -20 -94 -20v91q50 0 82.5 16t40.5 44h68z" />
    <glyph glyph-name="ordmasculine" unicode="&#xba;" horiz-adv-x="442" 
d="M220 303q-57 0 -100 24.5t-67 68t-24 100.5q0 56 24 100t67 68.5t100 24.5q58 0 101 -24.5t67.5 -68.5t24.5 -100q0 -57 -24.5 -100.5t-67.5 -68t-101 -24.5zM220 395q41 0 66 28t25 73t-25 73t-66 28q-40 0 -64.5 -28t-24.5 -73t24.5 -73t64.5 -28z" />
    <glyph glyph-name="guillemotright" unicode="&#xbb;" horiz-adv-x="550" 
d="M34 92l142 200l-143 203h120l144 -202l-143 -201h-120zM248 92l142 200l-143 203h120l144 -202l-143 -201h-120z" />
    <glyph glyph-name="onequarter" unicode="&#xbc;" horiz-adv-x="844" 
d="M201 681v-403h-97v272q-36 -20 -94 -20v91q50 0 82.5 16t40.5 44h68zM159 -46l-72 45l477 704l74 -42zM487 83v45l93 275h94l-77 -229h84l25 104h69v-104h54v-91h-54v-83h-95v83h-193z" />
    <glyph glyph-name="onehalf" unicode="&#xbd;" horiz-adv-x="834" 
d="M201 681v-403h-97v272q-36 -20 -94 -20v91q50 0 82.5 16t40.5 44h68zM159 -46l-72 45l477 704l74 -42zM799 289q0 -33 -20 -65.5t-58 -72.5l-57 -59h140v-92h-286v63l115 116q33 34 52 59.5t19 45.5q0 19 -13 28.5t-30 9.5q-19 0 -37.5 -10.5t-39.5 -37.5l-71 50
q25 38 60.5 62.5t88.5 24.5q59 0 98 -34.5t39 -87.5z" />
    <glyph glyph-name="threequarters" unicode="&#xbe;" horiz-adv-x="936" 
d="M162 269q-46 0 -82.5 19t-59.5 55l59 59q24 -26 40 -35.5t44 -9.5q21 0 38 10.5t17 30.5q0 15 -15 30t-57 15q-10 0 -22.5 -0.5t-22.5 -1.5v75q17 -2 23.5 -2h16.5q27 0 44 13.5t17 36.5q0 17 -14 27.5t-36 10.5q-42 0 -80 -48l-59 61q35 40 68.5 57t78.5 17
q60 0 97 -30.5t37 -76.5q0 -59 -43 -89q30 -14 47.5 -37.5t17.5 -52.5q0 -38 -20.5 -68.5t-55 -48t-78.5 -17.5zM251 -46l-72 45l477 704l74 -42zM579 83v45l93 275h94l-77 -229h84l25 104h69v-104h54v-91h-54v-83h-95v83h-193z" />
    <glyph glyph-name="questiondown" unicode="&#xbf;" horiz-adv-x="496" 
d="M277 537q34 0 58.5 -24t24.5 -59t-24.5 -59.5t-58.5 -24.5q-35 0 -59.5 24.5t-24.5 59.5t24.5 59t59.5 24zM303 327l59 -95l-67 -43q-71 -45 -101 -79t-30 -82q0 -46 31.5 -74.5t75.5 -28.5q36 0 72 15.5t74 53.5l19 19l72 -80l-15 -16q-42 -45 -97.5 -75t-129.5 -30
q-65 0 -114.5 28.5t-78 77.5t-28.5 110q0 42 14.5 82t52.5 80.5t106 83.5z" />
    <glyph glyph-name="Agrave" unicode="&#xc0;" horiz-adv-x="659" 
d="M17 0l242 681h145l239 -681h-118l-51 148h-287l-53 -148h-117zM225 256h211l-104 303zM336 747l-155 143l57 58l155 -142z" />
    <glyph glyph-name="Aacute" unicode="&#xc1;" horiz-adv-x="659" 
d="M17 0l242 681h145l239 -681h-118l-51 148h-287l-53 -148h-117zM225 256h211l-104 303zM324 747l-57 59l155 142l58 -58z" />
    <glyph glyph-name="Acircumflex" unicode="&#xc2;" horiz-adv-x="659" 
d="M17 0l242 681h145l239 -681h-118l-51 148h-287l-53 -148h-117zM225 256h211l-104 303zM242 749l-58 57l147 140l147 -140l-58 -57l-88 87z" />
    <glyph glyph-name="Atilde" unicode="&#xc3;" horiz-adv-x="659" 
d="M17 0l242 681h145l239 -681h-118l-51 148h-287l-53 -148h-117zM225 256h211l-104 303zM397 766q-36 0 -76 27q-17 11 -27.5 16t-21.5 5q-29 0 -50 -43l-75 37q21 45 49 69.5t69 24.5q22 0 42.5 -7.5t42.5 -22.5q12 -8 22.5 -13t20.5 -5q16 0 26 10t22 38l75 -37
q-18 -47 -46.5 -73t-72.5 -26z" />
    <glyph glyph-name="Adieresis" unicode="&#xc4;" horiz-adv-x="659" 
d="M17 0l242 681h145l239 -681h-118l-51 148h-287l-53 -148h-117zM225 256h211l-104 303zM165 826q0 31 19.5 51.5t51.5 20.5q30 0 50 -20.5t20 -51.5q0 -30 -20 -50t-50 -20q-32 0 -51.5 20t-19.5 50zM359 826q0 31 19.5 51.5t50.5 20.5t50.5 -20.5t19.5 -51.5
q0 -30 -19.5 -50t-50.5 -20t-50.5 20t-19.5 50z" />
    <glyph glyph-name="Aring" unicode="&#xc5;" horiz-adv-x="659" 
d="M17 0l242 681h145l239 -681h-118l-51 148h-287l-53 -148h-117zM225 256h211l-104 303zM332 752q-46 0 -78.5 30.5t-32.5 76.5q0 47 32.5 78t78.5 31q45 0 77.5 -31t32.5 -78q0 -46 -32.5 -76.5t-77.5 -30.5zM331 823q16 0 26.5 10t10.5 26q0 17 -10.5 27.5t-26.5 10.5
t-26.5 -10.5t-10.5 -27.5q0 -16 10.5 -26t26.5 -10z" />
    <glyph glyph-name="AE" unicode="&#xc6;" horiz-adv-x="841" 
d="M17 0l268 681h485v-110h-283l16 -179h229v-110h-220l16 -172h263v-110h-368l-15 160h-211l-65 -160h-115zM241 269h157l-29 316z" />
    <glyph glyph-name="Ccedilla" unicode="&#xc7;" horiz-adv-x="705" 
d="M372 -11q-105 0 -182.5 45.5t-120 125t-42.5 180.5q0 76 25.5 140t72 111.5t109.5 73.5t138 26q117 0 192 -49t120 -135l-110 -37q-42 61 -91.5 85t-110.5 24q-65 0 -116.5 -30.5t-81 -84.5t-29.5 -124t29.5 -124t81 -84.5t116.5 -30.5q61 0 110.5 24t91.5 85l110 -37
q-45 -86 -120 -135t-192 -49zM364 -208q-32 0 -58 8t-47 20l27 55q14 -8 32.5 -14t39.5 -6q46 0 46 29q0 11 -11 18t-39 7h-52l20 91h69l-7 -36q45 -4 67 -25t22 -54q0 -44 -28.5 -68.5t-80.5 -24.5z" />
    <glyph glyph-name="Egrave" unicode="&#xc8;" 
d="M497 110v-110h-421v681h421v-110h-305v-174h247v-110h-247v-177h305zM290 747l-155 143l57 58l155 -142z" />
    <glyph glyph-name="Eacute" unicode="&#xc9;" 
d="M497 110v-110h-421v681h421v-110h-305v-174h247v-110h-247v-177h305zM278 747l-57 59l155 142l58 -58z" />
    <glyph glyph-name="Ecircumflex" unicode="&#xca;" 
d="M497 110v-110h-421v681h421v-110h-305v-174h247v-110h-247v-177h305zM197 749l-58 57l147 140l147 -140l-58 -57l-88 87z" />
    <glyph glyph-name="Edieresis" unicode="&#xcb;" 
d="M497 110v-110h-421v681h421v-110h-305v-174h247v-110h-247v-177h305zM119 826q0 31 19.5 51.5t51.5 20.5q30 0 50 -20.5t20 -51.5q0 -30 -20 -50t-50 -20q-32 0 -51.5 20t-19.5 50zM313 826q0 31 19.5 51.5t50.5 20.5t50.5 -20.5t19.5 -51.5q0 -30 -19.5 -50t-50.5 -20
t-50.5 20t-19.5 50z" />
    <glyph glyph-name="Igrave" unicode="&#xcc;" horiz-adv-x="269" 
d="M192 0h-116v681h116v-681zM138 747l-155 143l57 58l155 -142z" />
    <glyph glyph-name="Iacute" unicode="&#xcd;" horiz-adv-x="269" 
d="M192 0h-116v681h116v-681zM126 747l-57 59l155 142l58 -58z" />
    <glyph glyph-name="Icircumflex" unicode="&#xce;" horiz-adv-x="269" 
d="M192 0h-116v681h116v-681zM65 749l-64 55l132 144l132 -144l-65 -55l-67 79z" />
    <glyph glyph-name="Idieresis" unicode="&#xcf;" horiz-adv-x="269" 
d="M192 0h-116v681h116v-681zM212 756q-32 0 -51 20t-19 50q0 32 19 52t51 20q31 0 50.5 -20t19.5 -52q0 -30 -19.5 -50t-50.5 -20zM57 756q-32 0 -51 20t-19 50q0 32 19 52t51 20q31 0 50.5 -20t19.5 -52q0 -30 -19.5 -50t-50.5 -20z" />
    <glyph glyph-name="Eth" unicode="&#xd0;" horiz-adv-x="714" 
d="M99 0v287h-77v106h77v288h229q101 0 177.5 -41t120 -117.5t43.5 -183.5q0 -108 -43.5 -184t-120.5 -115.5t-178 -39.5h-228zM359 287h-144v-177h105q65 0 116.5 24.5t82 75t30.5 129.5q0 77 -30 128.5t-81.5 77.5t-116.5 26h-106v-178h144v-106z" />
    <glyph glyph-name="Ntilde" unicode="&#xd1;" horiz-adv-x="728" 
d="M550 0l-358 471v-471h-116v681h102l358 -471v471h116v-681h-102zM433 766q-36 0 -76 27q-17 11 -27.5 16t-21.5 5q-29 0 -50 -43l-75 37q21 45 49 69.5t69 24.5q22 0 42.5 -7.5t42.5 -22.5q12 -8 22.5 -13t20.5 -5q16 0 26 10t22 38l75 -37q-18 -47 -46.5 -73t-72.5 -26z
" />
    <glyph glyph-name="Ograve" unicode="&#xd2;" horiz-adv-x="757" 
d="M27 340q0 76 26 140.5t73.5 111.5t112 73t141.5 26q76 0 140 -26t111 -73t73 -111.5t26 -140.5t-26 -140t-73 -111.5t-111 -73.5t-140 -26q-77 0 -141.5 26t-112 73.5t-73.5 111.5t-26 140zM145 340q0 -70 30.5 -124t83.5 -84t121 -30q67 0 119.5 30.5t82.5 84t30 123.5
t-30 124t-82.5 84t-119.5 30q-68 0 -121 -30t-83.5 -84t-30.5 -124zM382 747l-155 143l57 58l155 -142z" />
    <glyph glyph-name="Oacute" unicode="&#xd3;" horiz-adv-x="757" 
d="M27 340q0 76 26 140.5t73.5 111.5t112 73t141.5 26q76 0 140 -26t111 -73t73 -111.5t26 -140.5t-26 -140t-73 -111.5t-111 -73.5t-140 -26q-77 0 -141.5 26t-112 73.5t-73.5 111.5t-26 140zM145 340q0 -70 30.5 -124t83.5 -84t121 -30q67 0 119.5 30.5t82.5 84t30 123.5
t-30 124t-82.5 84t-119.5 30q-68 0 -121 -30t-83.5 -84t-30.5 -124zM370 747l-57 59l155 142l58 -58z" />
    <glyph glyph-name="Ocircumflex" unicode="&#xd4;" horiz-adv-x="757" 
d="M27 340q0 76 26 140.5t73.5 111.5t112 73t141.5 26q76 0 140 -26t111 -73t73 -111.5t26 -140.5t-26 -140t-73 -111.5t-111 -73.5t-140 -26q-77 0 -141.5 26t-112 73.5t-73.5 111.5t-26 140zM145 340q0 -70 30.5 -124t83.5 -84t121 -30q67 0 119.5 30.5t82.5 84t30 123.5
t-30 124t-82.5 84t-119.5 30q-68 0 -121 -30t-83.5 -84t-30.5 -124zM288 749l-58 57l147 140l147 -140l-58 -57l-88 87z" />
    <glyph glyph-name="Otilde" unicode="&#xd5;" horiz-adv-x="757" 
d="M27 340q0 76 26 140.5t73.5 111.5t112 73t141.5 26q76 0 140 -26t111 -73t73 -111.5t26 -140.5t-26 -140t-73 -111.5t-111 -73.5t-140 -26q-77 0 -141.5 26t-112 73.5t-73.5 111.5t-26 140zM145 340q0 -70 30.5 -124t83.5 -84t121 -30q67 0 119.5 30.5t82.5 84t30 123.5
t-30 124t-82.5 84t-119.5 30q-68 0 -121 -30t-83.5 -84t-30.5 -124zM443 766q-36 0 -76 27q-17 11 -27.5 16t-21.5 5q-29 0 -50 -43l-75 37q21 45 49 69.5t69 24.5q22 0 42.5 -7.5t42.5 -22.5q12 -8 22.5 -13t20.5 -5q16 0 26 10t22 38l75 -37q-18 -47 -46.5 -73t-72.5 -26z
" />
    <glyph glyph-name="Odieresis" unicode="&#xd6;" horiz-adv-x="757" 
d="M27 340q0 76 26 140.5t73.5 111.5t112 73t141.5 26q76 0 140 -26t111 -73t73 -111.5t26 -140.5t-26 -140t-73 -111.5t-111 -73.5t-140 -26q-77 0 -141.5 26t-112 73.5t-73.5 111.5t-26 140zM145 340q0 -70 30.5 -124t83.5 -84t121 -30q67 0 119.5 30.5t82.5 84t30 123.5
t-30 124t-82.5 84t-119.5 30q-68 0 -121 -30t-83.5 -84t-30.5 -124zM211 826q0 31 19.5 51.5t51.5 20.5q30 0 50 -20.5t20 -51.5q0 -30 -20 -50t-50 -20q-32 0 -51.5 20t-19.5 50zM405 826q0 31 19.5 51.5t50.5 20.5t50.5 -20.5t19.5 -51.5q0 -30 -19.5 -50t-50.5 -20
t-50.5 20t-19.5 50z" />
    <glyph glyph-name="multiply" unicode="&#xd7;" horiz-adv-x="670" 
d="M111 190l151 151l-151 150l74 74l151 -151l150 151l74 -74l-151 -150l151 -151l-74 -74l-150 151l-151 -151z" />
    <glyph glyph-name="Oslash" unicode="&#xd8;" horiz-adv-x="757" 
d="M27 340q0 76 26 140.5t73.5 111.5t112 73t141.5 26q48 0 92 -11t82 -31l58 73l82 -62l-58 -73q44 -46 69 -109.5t25 -137.5q0 -76 -26 -140t-73 -111.5t-111 -73.5t-140 -26q-51 0 -97 12t-86 34l-60 -76l-83 61l63 79q-43 46 -66.5 107.5t-23.5 133.5zM145 340
q0 -43 12 -80.5t34 -66.5l290 364q-47 21 -101 21q-68 0 -121 -30t-83.5 -84t-30.5 -124zM612 340q0 46 -13 85t-37 69l-292 -367q50 -25 110 -25q67 0 119.5 30.5t82.5 84t30 123.5z" />
    <glyph glyph-name="Ugrave" unicode="&#xd9;" horiz-adv-x="681" 
d="M340 -11q-122 0 -195 70t-73 206v416h116v-407q0 -82 39 -127.5t113 -45.5q75 0 114 45.5t39 127.5v407h116v-416q0 -136 -73 -206t-196 -70zM344 747l-155 143l57 58l155 -142z" />
    <glyph glyph-name="Uacute" unicode="&#xda;" horiz-adv-x="681" 
d="M340 -11q-122 0 -195 70t-73 206v416h116v-407q0 -82 39 -127.5t113 -45.5q75 0 114 45.5t39 127.5v407h116v-416q0 -136 -73 -206t-196 -70zM332 747l-57 59l155 142l58 -58z" />
    <glyph glyph-name="Ucircumflex" unicode="&#xdb;" horiz-adv-x="681" 
d="M340 -11q-122 0 -195 70t-73 206v416h116v-407q0 -82 39 -127.5t113 -45.5q75 0 114 45.5t39 127.5v407h116v-416q0 -136 -73 -206t-196 -70zM250 749l-58 57l147 140l147 -140l-58 -57l-88 87z" />
    <glyph glyph-name="Udieresis" unicode="&#xdc;" horiz-adv-x="681" 
d="M340 -11q-122 0 -195 70t-73 206v416h116v-407q0 -82 39 -127.5t113 -45.5q75 0 114 45.5t39 127.5v407h116v-416q0 -136 -73 -206t-196 -70zM173 826q0 31 19.5 51.5t51.5 20.5q30 0 50 -20.5t20 -51.5q0 -30 -20 -50t-50 -20q-32 0 -51.5 20t-19.5 50zM367 826
q0 31 19.5 51.5t50.5 20.5t50.5 -20.5t19.5 -51.5q0 -30 -19.5 -50t-50.5 -20t-50.5 20t-19.5 50z" />
    <glyph glyph-name="Yacute" unicode="&#xdd;" horiz-adv-x="572" 
d="M571 681l-228 -436v-245h-116v244l-228 437h129l157 -315l159 315h127zM277 747l-57 59l155 142l58 -58z" />
    <glyph glyph-name="Thorn" unicode="&#xde;" horiz-adv-x="585" 
d="M76 0v681h116v-105h127q72 0 126 -30.5t84 -84t30 -121.5t-30 -121.5t-84 -84t-126 -30.5h-127v-104h-116zM304 466h-112v-251h112q62 0 98.5 32.5t36.5 92.5q0 62 -36.5 94t-98.5 32z" />
    <glyph glyph-name="germandbls" unicode="&#xdf;" horiz-adv-x="567" 
d="M380 -16q-49 0 -96.5 23t-80.5 77l75 65q19 -36 41 -52.5t54 -16.5q26 0 42 14t16 37q0 18 -16 39.5t-66 56.5q-41 28 -62 57t-21 62q0 34 15 56.5t40 46.5q18 17 30.5 32.5t12.5 36.5q0 27 -21.5 45t-63.5 18q-48 0 -76.5 -30t-28.5 -87v-464h-116v464q0 68 26.5 119
t76 80t120.5 29q61 0 107 -22.5t71.5 -59.5t25.5 -81t-20 -70.5t-45 -49.5q-17 -15 -27.5 -28.5t-10.5 -29.5t11.5 -29t45.5 -38q53 -37 77.5 -74.5t24.5 -82.5q0 -63 -45 -103t-116 -40z" />
    <glyph glyph-name="agrave" unicode="&#xe0;" horiz-adv-x="498" 
d="M211 -14q-84 0 -132.5 44.5t-48.5 121.5q0 73 50 120t131 47q71 0 116 -33v36q0 30 -20.5 54t-69.5 24q-28 0 -62 -7t-70 -23l-35 86q43 21 89 32t92 11q96 0 144 -51t48 -128v-320h-89l-10 35q-49 -49 -133 -49zM238 81q40 0 64.5 18.5t24.5 52.5t-24.5 53t-64.5 19
t-64.5 -19t-24.5 -53t24.5 -52.5t64.5 -18.5zM252 554l-155 143l57 58l155 -142z" />
    <glyph glyph-name="aacute" unicode="&#xe1;" horiz-adv-x="498" 
d="M211 -14q-84 0 -132.5 44.5t-48.5 121.5q0 73 50 120t131 47q71 0 116 -33v36q0 30 -20.5 54t-69.5 24q-28 0 -62 -7t-70 -23l-35 86q43 21 89 32t92 11q96 0 144 -51t48 -128v-320h-89l-10 35q-49 -49 -133 -49zM238 81q40 0 64.5 18.5t24.5 52.5t-24.5 53t-64.5 19
t-64.5 -19t-24.5 -53t24.5 -52.5t64.5 -18.5zM240 554l-57 59l155 142l58 -58z" />
    <glyph glyph-name="acircumflex" unicode="&#xe2;" horiz-adv-x="498" 
d="M211 -14q-84 0 -132.5 44.5t-48.5 121.5q0 73 50 120t131 47q71 0 116 -33v36q0 30 -20.5 54t-69.5 24q-28 0 -62 -7t-70 -23l-35 86q43 21 89 32t92 11q96 0 144 -51t48 -128v-320h-89l-10 35q-49 -49 -133 -49zM238 81q40 0 64.5 18.5t24.5 52.5t-24.5 53t-64.5 19
t-64.5 -19t-24.5 -53t24.5 -52.5t64.5 -18.5zM158 556l-58 57l147 140l147 -140l-58 -57l-88 87z" />
    <glyph glyph-name="atilde" unicode="&#xe3;" horiz-adv-x="498" 
d="M211 -14q-84 0 -132.5 44.5t-48.5 121.5q0 73 50 120t131 47q71 0 116 -33v36q0 30 -20.5 54t-69.5 24q-28 0 -62 -7t-70 -23l-35 86q43 21 89 32t92 11q96 0 144 -51t48 -128v-320h-89l-10 35q-49 -49 -133 -49zM238 81q40 0 64.5 18.5t24.5 52.5t-24.5 53t-64.5 19
t-64.5 -19t-24.5 -53t24.5 -52.5t64.5 -18.5zM314 573q-36 0 -76 27q-17 11 -27.5 16t-21.5 5q-29 0 -50 -43l-75 37q21 45 49 69.5t69 24.5q22 0 42.5 -7.5t42.5 -22.5q12 -8 22.5 -13t20.5 -5q16 0 26 10t22 38l75 -37q-18 -47 -46.5 -73t-72.5 -26z" />
    <glyph glyph-name="adieresis" unicode="&#xe4;" horiz-adv-x="498" 
d="M211 -14q-84 0 -132.5 44.5t-48.5 121.5q0 73 50 120t131 47q71 0 116 -33v36q0 30 -20.5 54t-69.5 24q-28 0 -62 -7t-70 -23l-35 86q43 21 89 32t92 11q96 0 144 -51t48 -128v-320h-89l-10 35q-49 -49 -133 -49zM238 81q40 0 64.5 18.5t24.5 52.5t-24.5 53t-64.5 19
t-64.5 -19t-24.5 -53t24.5 -52.5t64.5 -18.5zM81 633q0 31 19.5 51.5t51.5 20.5q30 0 50 -20.5t20 -51.5q0 -30 -20 -50t-50 -20q-32 0 -51.5 20t-19.5 50zM275 633q0 31 19.5 51.5t50.5 20.5t50.5 -20.5t19.5 -51.5q0 -30 -19.5 -50t-50.5 -20t-50.5 20t-19.5 50z" />
    <glyph glyph-name="aring" unicode="&#xe5;" horiz-adv-x="498" 
d="M211 -14q-84 0 -132.5 44.5t-48.5 121.5q0 73 50 120t131 47q71 0 116 -33v36q0 30 -20.5 54t-69.5 24q-28 0 -62 -7t-70 -23l-35 86q43 21 89 32t92 11q96 0 144 -51t48 -128v-320h-89l-10 35q-49 -49 -133 -49zM238 81q40 0 64.5 18.5t24.5 52.5t-24.5 53t-64.5 19
t-64.5 -19t-24.5 -53t24.5 -52.5t64.5 -18.5zM249 559q-46 0 -78.5 30.5t-32.5 76.5q0 47 32.5 78t78.5 31q45 0 77.5 -31t32.5 -78q0 -46 -32.5 -76.5t-77.5 -30.5zM248 630q16 0 26.5 10t10.5 26q0 17 -10.5 27.5t-26.5 10.5t-26.5 -10.5t-10.5 -27.5q0 -16 10.5 -26
t26.5 -10z" />
    <glyph glyph-name="ae" unicode="&#xe6;" horiz-adv-x="779" 
d="M214 -14q-87 0 -135.5 44.5t-48.5 121.5q0 73 50 120t131 47q69 0 112 -37v40q0 30 -20.5 54t-69.5 24q-27 0 -60.5 -7t-69.5 -23l-35 86q42 21 87.5 32t89.5 11q52 0 89 -16t60 -44q28 29 65.5 44.5t82.5 15.5q101 0 155.5 -64t54.5 -175q0 -14 -1 -27t-2 -24h-315
q4 -58 34 -90.5t84 -32.5q42 0 69.5 20t42.5 60l84 -50q-25 -62 -77.5 -94.5t-119.5 -32.5q-55 0 -99 20.5t-73 57.5q-26 -41 -68 -61t-97 -20zM543 407q-46 0 -75 -28.5t-33 -85.5h204q-2 55 -27.5 84.5t-68.5 29.5zM239 81q40 0 64 18.5t24 52.5t-24 53t-64 19
q-41 0 -65 -19t-24 -53t24 -52.5t65 -18.5z" />
    <glyph glyph-name="ccedilla" unicode="&#xe7;" horiz-adv-x="510" 
d="M277 -11q-75 0 -130.5 32.5t-86 90t-30.5 132.5t30.5 132.5t86 90t130.5 32.5q74 0 133 -39t85 -104l-108 -47q-32 78 -112 78q-54 0 -90.5 -37.5t-36.5 -105.5q0 -67 36.5 -105t90.5 -38q80 0 112 78l108 -46q-27 -65 -85.5 -104.5t-132.5 -39.5zM265 -208q-32 0 -58 8
t-47 20l27 55q14 -8 32.5 -14t39.5 -6q46 0 46 29q0 11 -11 18t-39 7h-52l20 91h69l-7 -36q45 -4 67 -25t22 -54q0 -44 -28.5 -68.5t-80.5 -24.5z" />
    <glyph glyph-name="egrave" unicode="&#xe8;" horiz-adv-x="540" 
d="M271 -10q-72 0 -126 31.5t-84.5 88.5t-30.5 133q0 77 30.5 134.5t84.5 89.5t126 32q73 0 127.5 -32.5t84.5 -90t30 -132.5q0 -10 -0.5 -18.5t-1.5 -15.5h-367q3 -58 37.5 -91t92.5 -33q55 0 85.5 22.5t52.5 57.5l83 -50q-33 -62 -88 -94t-136 -32zM272 407
q-52 0 -85 -28.5t-41 -75.5h249q-10 47 -41 75.5t-82 28.5zM276 554l-155 143l57 58l155 -142z" />
    <glyph glyph-name="eacute" unicode="&#xe9;" horiz-adv-x="540" 
d="M271 -10q-72 0 -126 31.5t-84.5 88.5t-30.5 133q0 77 30.5 134.5t84.5 89.5t126 32q73 0 127.5 -32.5t84.5 -90t30 -132.5q0 -10 -0.5 -18.5t-1.5 -15.5h-367q3 -58 37.5 -91t92.5 -33q55 0 85.5 22.5t52.5 57.5l83 -50q-33 -62 -88 -94t-136 -32zM272 407
q-52 0 -85 -28.5t-41 -75.5h249q-10 47 -41 75.5t-82 28.5zM264 554l-57 59l155 142l58 -58z" />
    <glyph glyph-name="ecircumflex" unicode="&#xea;" horiz-adv-x="540" 
d="M271 -10q-72 0 -126 31.5t-84.5 88.5t-30.5 133q0 77 30.5 134.5t84.5 89.5t126 32q73 0 127.5 -32.5t84.5 -90t30 -132.5q0 -10 -0.5 -18.5t-1.5 -15.5h-367q3 -58 37.5 -91t92.5 -33q55 0 85.5 22.5t52.5 57.5l83 -50q-33 -62 -88 -94t-136 -32zM272 407
q-52 0 -85 -28.5t-41 -75.5h249q-10 47 -41 75.5t-82 28.5zM182 556l-58 57l147 140l147 -140l-58 -57l-88 87z" />
    <glyph glyph-name="edieresis" unicode="&#xeb;" horiz-adv-x="540" 
d="M271 -10q-72 0 -126 31.5t-84.5 88.5t-30.5 133q0 77 30.5 134.5t84.5 89.5t126 32q73 0 127.5 -32.5t84.5 -90t30 -132.5q0 -10 -0.5 -18.5t-1.5 -15.5h-367q3 -58 37.5 -91t92.5 -33q55 0 85.5 22.5t52.5 57.5l83 -50q-33 -62 -88 -94t-136 -32zM272 407
q-52 0 -85 -28.5t-41 -75.5h249q-10 47 -41 75.5t-82 28.5zM105 633q0 31 19.5 51.5t51.5 20.5q30 0 50 -20.5t20 -51.5q0 -30 -20 -50t-50 -20q-32 0 -51.5 20t-19.5 50zM299 633q0 31 19.5 51.5t50.5 20.5t50.5 -20.5t19.5 -51.5q0 -30 -19.5 -50t-50.5 -20t-50.5 20
t-19.5 50z" />
    <glyph glyph-name="igrave" unicode="&#xec;" horiz-adv-x="240" 
d="M178 0h-116v488h116v-488zM123 554l-155 143l57 58l155 -142z" />
    <glyph glyph-name="iacute" unicode="&#xed;" horiz-adv-x="240" 
d="M178 0h-116v488h116v-488zM111 554l-57 59l155 142l58 -58z" />
    <glyph glyph-name="icircumflex" unicode="&#xee;" horiz-adv-x="240" 
d="M178 0h-116v488h116v-488zM51 556l-64 55l132 144l132 -144l-65 -55l-67 79z" />
    <glyph glyph-name="idieresis" unicode="&#xef;" horiz-adv-x="240" 
d="M178 0h-116v488h116v-488zM197 563q-32 0 -51 20t-19 50q0 32 19 52t51 20q31 0 50.5 -20t19.5 -52q0 -30 -19.5 -50t-50.5 -20zM42 563q-32 0 -51 20t-19 50q0 32 19 52t51 20q31 0 50.5 -20t19.5 -52q0 -30 -19.5 -50t-50.5 -20z" />
    <glyph glyph-name="eth" unicode="&#xf0;" horiz-adv-x="556" 
d="M273 -11q-69 0 -122 30t-82.5 82t-29.5 118q0 70 29 121.5t78 79.5t109 28q55 0 95.5 -23t61.5 -61q-11 49 -39.5 92.5t-76.5 78.5l-85 -67l-50 63l60 48q-54 26 -122 41l40 90l23 -6q77 -19 139 -53l80 63l50 -64l-60 -47q76 -63 112 -148t36 -179q0 -137 -67 -212
t-179 -75zM279 94q53 0 88 35t35 90t-35 89.5t-88 34.5q-54 0 -89 -34.5t-35 -89.5t35 -90t89 -35z" />
    <glyph glyph-name="ntilde" unicode="&#xf1;" horiz-adv-x="552" 
d="M346 499q51 0 81.5 -17t45.5 -46.5t19.5 -66t4.5 -75.5v-294h-116v304q0 48 -20.5 65t-50.5 17q-36 0 -73 -18.5t-61 -46.5v-321h-116v488h87l17 -63q38 34 84.5 54t97.5 20zM343 573q-36 0 -76 27q-17 11 -27.5 16t-21.5 5q-29 0 -50 -43l-75 37q21 45 49 69.5t69 24.5
q22 0 42.5 -7.5t42.5 -22.5q12 -8 22.5 -13t20.5 -5q16 0 26 10t22 38l75 -37q-18 -47 -46.5 -73t-72.5 -26z" />
    <glyph glyph-name="ograve" unicode="&#xf2;" horiz-adv-x="567" 
d="M283 -11q-75 0 -132 32t-88.5 89.5t-31.5 132.5q0 77 31.5 134.5t88.5 89.5t132 32t132 -32t88.5 -89.5t31.5 -134.5q0 -75 -31.5 -132.5t-88.5 -89.5t-132 -32zM283 101q60 0 97 39.5t37 103.5t-37 103.5t-97 39.5t-97 -39t-37 -104q0 -64 37 -103.5t97 -39.5zM286 554
l-155 143l57 58l155 -142z" />
    <glyph glyph-name="oacute" unicode="&#xf3;" horiz-adv-x="567" 
d="M283 -11q-75 0 -132 32t-88.5 89.5t-31.5 132.5q0 77 31.5 134.5t88.5 89.5t132 32t132 -32t88.5 -89.5t31.5 -134.5q0 -75 -31.5 -132.5t-88.5 -89.5t-132 -32zM283 101q60 0 97 39.5t37 103.5t-37 103.5t-97 39.5t-97 -39t-37 -104q0 -64 37 -103.5t97 -39.5zM274 554
l-57 59l155 142l58 -58z" />
    <glyph glyph-name="ocircumflex" unicode="&#xf4;" horiz-adv-x="567" 
d="M283 -11q-75 0 -132 32t-88.5 89.5t-31.5 132.5q0 77 31.5 134.5t88.5 89.5t132 32t132 -32t88.5 -89.5t31.5 -134.5q0 -75 -31.5 -132.5t-88.5 -89.5t-132 -32zM283 101q60 0 97 39.5t37 103.5t-37 103.5t-97 39.5t-97 -39t-37 -104q0 -64 37 -103.5t97 -39.5zM193 556
l-58 57l147 140l147 -140l-58 -57l-88 87z" />
    <glyph glyph-name="otilde" unicode="&#xf5;" horiz-adv-x="567" 
d="M283 -11q-75 0 -132 32t-88.5 89.5t-31.5 132.5q0 77 31.5 134.5t88.5 89.5t132 32t132 -32t88.5 -89.5t31.5 -134.5q0 -75 -31.5 -132.5t-88.5 -89.5t-132 -32zM283 101q60 0 97 39.5t37 103.5t-37 103.5t-97 39.5t-97 -39t-37 -104q0 -64 37 -103.5t97 -39.5zM348 573
q-36 0 -76 27q-17 11 -27.5 16t-21.5 5q-29 0 -50 -43l-75 37q21 45 49 69.5t69 24.5q22 0 42.5 -7.5t42.5 -22.5q12 -8 22.5 -13t20.5 -5q16 0 26 10t22 38l75 -37q-18 -47 -46.5 -73t-72.5 -26z" />
    <glyph glyph-name="odieresis" unicode="&#xf6;" horiz-adv-x="567" 
d="M283 -11q-75 0 -132 32t-88.5 89.5t-31.5 132.5q0 77 31.5 134.5t88.5 89.5t132 32t132 -32t88.5 -89.5t31.5 -134.5q0 -75 -31.5 -132.5t-88.5 -89.5t-132 -32zM283 101q60 0 97 39.5t37 103.5t-37 103.5t-97 39.5t-97 -39t-37 -104q0 -64 37 -103.5t97 -39.5zM115 633
q0 31 19.5 51.5t51.5 20.5q30 0 50 -20.5t20 -51.5q0 -30 -20 -50t-50 -20q-32 0 -51.5 20t-19.5 50zM309 633q0 31 19.5 51.5t50.5 20.5t50.5 -20.5t19.5 -51.5q0 -30 -19.5 -50t-50.5 -20t-50.5 20t-19.5 50z" />
    <glyph glyph-name="divide" unicode="&#xf7;" horiz-adv-x="670" 
d="M333 450q-36 0 -60 23t-24 56t24 56t60 23t60 -23t24 -56t-24 -56t-60 -23zM584 287h-497v108h497v-108zM333 73q-36 0 -60 23.5t-24 55.5q0 33 24 56t60 23t60 -23t24 -56q0 -32 -24 -55.5t-60 -23.5z" />
    <glyph glyph-name="oslash" unicode="&#xf8;" horiz-adv-x="584" 
d="M131 -30l-70 51l39 49q-29 33 -44.5 77t-15.5 96q0 77 31.5 134.5t88 89.5t132.5 32q66 0 120 -26l43 56l68 -52l-43 -55q31 -33 47.5 -78.5t16.5 -100.5q0 -75 -31.5 -132.5t-88.5 -89.5t-132 -32q-70 0 -125 28zM149 244q0 -48 20 -84l176 227q-25 9 -53 9
q-64 0 -103.5 -42t-39.5 -110zM292 93q64 0 104 41.5t40 108.5q0 52 -25 90l-177 -230q26 -10 58 -10z" />
    <glyph glyph-name="ugrave" unicode="&#xf9;" horiz-adv-x="552" 
d="M218 -11q-55 0 -87.5 17t-49 46.5t-21.5 66t-5 76.5v293h116v-304q0 -48 21 -64.5t51 -16.5q36 0 72.5 17.5t60.5 46.5v321h116v-488h-87l-17 63q-36 -34 -79.5 -54t-90.5 -20zM278 554l-155 143l57 58l155 -142z" />
    <glyph glyph-name="uacute" unicode="&#xfa;" horiz-adv-x="552" 
d="M218 -11q-55 0 -87.5 17t-49 46.5t-21.5 66t-5 76.5v293h116v-304q0 -48 21 -64.5t51 -16.5q36 0 72.5 17.5t60.5 46.5v321h116v-488h-87l-17 63q-36 -34 -79.5 -54t-90.5 -20zM266 554l-57 59l155 142l58 -58z" />
    <glyph glyph-name="ucircumflex" unicode="&#xfb;" horiz-adv-x="552" 
d="M218 -11q-55 0 -87.5 17t-49 46.5t-21.5 66t-5 76.5v293h116v-304q0 -48 21 -64.5t51 -16.5q36 0 72.5 17.5t60.5 46.5v321h116v-488h-87l-17 63q-36 -34 -79.5 -54t-90.5 -20zM184 556l-58 57l147 140l147 -140l-58 -57l-88 87z" />
    <glyph glyph-name="udieresis" unicode="&#xfc;" horiz-adv-x="552" 
d="M218 -11q-55 0 -87.5 17t-49 46.5t-21.5 66t-5 76.5v293h116v-304q0 -48 21 -64.5t51 -16.5q36 0 72.5 17.5t60.5 46.5v321h116v-488h-87l-17 63q-36 -34 -79.5 -54t-90.5 -20zM107 633q0 31 19.5 51.5t51.5 20.5q30 0 50 -20.5t20 -51.5q0 -30 -20 -50t-50 -20
q-32 0 -51.5 20t-19.5 50zM301 633q0 31 19.5 51.5t50.5 20.5t50.5 -20.5t19.5 -51.5q0 -30 -19.5 -50t-50.5 -20t-50.5 20t-19.5 50z" />
    <glyph glyph-name="yacute" unicode="&#xfd;" horiz-adv-x="518" 
d="M87 -190l114 256l-188 422h120l128 -288l129 288h120l-303 -678h-120zM253 554l-57 59l155 142l58 -58z" />
    <glyph glyph-name="thorn" unicode="&#xfe;" horiz-adv-x="570" 
d="M60 -190v871h116v-233q56 51 139 51q67 0 118 -32t79 -89.5t28 -134.5q0 -75 -28.5 -132.5t-79 -89.5t-117.5 -32q-83 0 -139 50v-229h-116zM296 93q56 0 91 41.5t35 108.5q0 68 -35 110t-91 42t-91 -41.5t-35 -109.5t35 -109.5t91 -41.5z" />
    <glyph glyph-name="ydieresis" unicode="&#xff;" horiz-adv-x="518" 
d="M87 -190l114 256l-188 422h120l128 -288l129 288h120l-303 -678h-120zM94 633q0 31 19.5 51.5t51.5 20.5q30 0 50 -20.5t20 -51.5q0 -30 -20 -50t-50 -20q-32 0 -51.5 20t-19.5 50zM288 633q0 31 19.5 51.5t50.5 20.5t50.5 -20.5t19.5 -51.5q0 -30 -19.5 -50t-50.5 -20
t-50.5 20t-19.5 50z" />
    <glyph glyph-name="Amacron" unicode="&#x100;" horiz-adv-x="659" 
d="M17 0l242 681h145l239 -681h-118l-51 148h-287l-53 -148h-117zM225 256h211l-104 303zM472 775h-280v87h280v-87z" />
    <glyph glyph-name="amacron" unicode="&#x101;" horiz-adv-x="498" 
d="M211 -14q-84 0 -132.5 44.5t-48.5 121.5q0 73 50 120t131 47q71 0 116 -33v36q0 30 -20.5 54t-69.5 24q-28 0 -62 -7t-70 -23l-35 86q43 21 89 32t92 11q96 0 144 -51t48 -128v-320h-89l-10 35q-49 -49 -133 -49zM238 81q40 0 64.5 18.5t24.5 52.5t-24.5 53t-64.5 19
t-64.5 -19t-24.5 -53t24.5 -52.5t64.5 -18.5zM389 582h-280v87h280v-87z" />
    <glyph glyph-name="Abreve" unicode="&#x102;" horiz-adv-x="659" 
d="M17 0l242 681h145l239 -681h-118l-51 148h-287l-53 -148h-117zM225 256h211l-104 303zM332 773q-61 0 -98.5 36t-41.5 99h80q1 -28 15 -47.5t45 -19.5t45 19.5t16 47.5h79q-4 -63 -41 -99t-99 -36z" />
    <glyph glyph-name="abreve" unicode="&#x103;" horiz-adv-x="498" 
d="M211 -14q-84 0 -132.5 44.5t-48.5 121.5q0 73 50 120t131 47q71 0 116 -33v36q0 30 -20.5 54t-69.5 24q-28 0 -62 -7t-70 -23l-35 86q43 21 89 32t92 11q96 0 144 -51t48 -128v-320h-89l-10 35q-49 -49 -133 -49zM238 81q40 0 64.5 18.5t24.5 52.5t-24.5 53t-64.5 19
t-64.5 -19t-24.5 -53t24.5 -52.5t64.5 -18.5zM249 580q-61 0 -98.5 36t-41.5 99h80q1 -28 15 -47.5t45 -19.5t45 19.5t16 47.5h79q-4 -63 -41 -99t-99 -36z" />
    <glyph glyph-name="Aogonek" unicode="&#x104;" horiz-adv-x="659" 
d="M17 0l242 681h145l239 -681h-118l-51 148h-287l-53 -148h-117zM225 256h211l-104 303zM585 -226q-47 0 -76.5 22t-29.5 71q0 39 23.5 76.5t59.5 61.5l80 -5q-35 -22 -57 -52.5t-22 -58.5q0 -39 42 -39q9 0 19.5 2.5t17.5 5.5l10 -70q-10 -6 -27.5 -10t-39.5 -4z" />
    <glyph glyph-name="aogonek" unicode="&#x105;" horiz-adv-x="498" 
d="M211 -14q-84 0 -132.5 44.5t-48.5 121.5q0 73 50 120t131 47q71 0 116 -33v36q0 30 -20.5 54t-69.5 24q-28 0 -62 -7t-70 -23l-35 86q43 21 89 32t92 11q96 0 144 -51t48 -128v-320q-36 -22 -57.5 -52.5t-21.5 -58.5q0 -39 41 -39q9 0 20 2.5t17 5.5l11 -70
q-10 -6 -28 -10t-39 -4q-47 0 -76.5 22t-29.5 71q0 38 21.5 73t54.5 60h-2l-10 35q-49 -49 -133 -49zM238 81q40 0 64.5 18.5t24.5 52.5t-24.5 53t-64.5 19t-64.5 -19t-24.5 -53t24.5 -52.5t64.5 -18.5z" />
    <glyph glyph-name="Cacute" unicode="&#x106;" horiz-adv-x="705" 
d="M372 -11q-105 0 -182.5 45.5t-120 125t-42.5 180.5q0 76 25.5 140t72 111.5t109.5 73.5t138 26q117 0 192 -49t120 -135l-110 -37q-42 61 -91.5 85t-110.5 24q-65 0 -116.5 -30.5t-81 -84.5t-29.5 -124t29.5 -124t81 -84.5t116.5 -30.5q61 0 110.5 24t91.5 85l110 -37
q-45 -86 -120 -135t-192 -49zM361 747l-57 59l155 142l58 -58z" />
    <glyph glyph-name="cacute" unicode="&#x107;" horiz-adv-x="510" 
d="M277 -11q-75 0 -130.5 32.5t-86 90t-30.5 132.5t30.5 132.5t86 90t130.5 32.5q74 0 133 -39t85 -104l-108 -47q-32 78 -112 78q-54 0 -90.5 -37.5t-36.5 -105.5q0 -67 36.5 -105t90.5 -38q80 0 112 78l108 -46q-27 -65 -85.5 -104.5t-132.5 -39.5zM262 554l-57 59
l155 142l58 -58z" />
    <glyph glyph-name="Cdotaccent" unicode="&#x10a;" horiz-adv-x="705" 
d="M372 -11q-105 0 -182.5 45.5t-120 125t-42.5 180.5q0 76 25.5 140t72 111.5t109.5 73.5t138 26q117 0 192 -49t120 -135l-110 -37q-42 61 -91.5 85t-110.5 24q-65 0 -116.5 -30.5t-81 -84.5t-29.5 -124t29.5 -124t81 -84.5t116.5 -30.5q61 0 110.5 24t91.5 85l110 -37
q-45 -86 -120 -135t-192 -49zM297 833q0 32 19.5 52.5t53.5 20.5q32 0 52 -20.5t20 -52.5t-20 -52t-52 -20q-34 0 -53.5 20t-19.5 52z" />
    <glyph glyph-name="cdotaccent" unicode="&#x10b;" horiz-adv-x="510" 
d="M277 -11q-75 0 -130.5 32.5t-86 90t-30.5 132.5t30.5 132.5t86 90t130.5 32.5q74 0 133 -39t85 -104l-108 -47q-32 78 -112 78q-54 0 -90.5 -37.5t-36.5 -105.5q0 -67 36.5 -105t90.5 -38q80 0 112 78l108 -46q-27 -65 -85.5 -104.5t-132.5 -39.5zM198 640
q0 32 19.5 52.5t53.5 20.5q32 0 52 -20.5t20 -52.5t-20 -52t-52 -20q-34 0 -53.5 20t-19.5 52z" />
    <glyph glyph-name="Ccaron" unicode="&#x10c;" horiz-adv-x="705" 
d="M372 -11q-105 0 -182.5 45.5t-120 125t-42.5 180.5q0 76 25.5 140t72 111.5t109.5 73.5t138 26q117 0 192 -49t120 -135l-110 -37q-42 61 -91.5 85t-110.5 24q-65 0 -116.5 -30.5t-81 -84.5t-29.5 -124t29.5 -124t81 -84.5t116.5 -30.5q61 0 110.5 24t91.5 85l110 -37
q-45 -86 -120 -135t-192 -49zM370 749l-148 140l58 57l89 -88l89 88l58 -57z" />
    <glyph glyph-name="ccaron" unicode="&#x10d;" horiz-adv-x="510" 
d="M277 -11q-75 0 -130.5 32.5t-86 90t-30.5 132.5t30.5 132.5t86 90t130.5 32.5q74 0 133 -39t85 -104l-108 -47q-32 78 -112 78q-54 0 -90.5 -37.5t-36.5 -105.5q0 -67 36.5 -105t90.5 -38q80 0 112 78l108 -46q-27 -65 -85.5 -104.5t-132.5 -39.5zM271 556l-148 140
l58 57l89 -88l89 88l58 -57z" />
    <glyph glyph-name="Dcaron" unicode="&#x10e;" horiz-adv-x="673" 
d="M76 0v681h229q101 0 177.5 -41t120 -117.5t43.5 -183.5q0 -108 -43.5 -184t-120.5 -115.5t-178 -39.5h-228zM298 571h-106v-461h105q65 0 116.5 24.5t82 75t30.5 129.5q0 77 -30 128.5t-81.5 77.5t-116.5 26zM329 749l-148 140l58 57l89 -88l89 88l58 -57z" />
    <glyph glyph-name="dcaron" unicode="&#x10f;" horiz-adv-x="651" 
d="M255 -11q-67 0 -117.5 32.5t-79 90t-28.5 133.5t28.5 133t79.5 89t118 32q83 0 139 -50v232h116v-681h-88l-14 55q-29 -32 -68 -49t-86 -17zM275 93q55 0 90 41.5t35 109.5t-35 109.5t-90 41.5q-57 0 -92 -41.5t-35 -108.5q0 -68 35 -110t92 -42zM651 681v-55l-22 -147
h-69v202h91z" />
    <glyph glyph-name="Dcroat" unicode="&#x110;" horiz-adv-x="714" 
d="M99 0v287h-77v106h77v288h229q101 0 177.5 -41t120 -117.5t43.5 -183.5q0 -108 -43.5 -184t-120.5 -115.5t-178 -39.5h-228zM359 287h-144v-177h105q65 0 116.5 24.5t82 75t30.5 129.5q0 77 -30 128.5t-81.5 77.5t-116.5 26h-106v-178h144v-106z" />
    <glyph glyph-name="dcroat" unicode="&#x111;" horiz-adv-x="570" 
d="M255 -11q-67 0 -117.5 32.5t-79 90t-28.5 133.5t28.5 133t79.5 89t118 32q41 0 76.5 -13.5t62.5 -37.5v91h-112v81h112v61h116v-61h74v-81h-74v-539h-88l-14 55q-28 -31 -67.5 -48.5t-86.5 -17.5zM148 245q0 -68 35 -110t92 -42q55 0 90 41.5t35 109.5t-35 109.5
t-90 41.5q-57 0 -92 -41.5t-35 -108.5z" />
    <glyph glyph-name="Emacron" unicode="&#x112;" 
d="M497 110v-110h-421v681h421v-110h-305v-174h247v-110h-247v-177h305zM427 775h-280v87h280v-87z" />
    <glyph glyph-name="emacron" unicode="&#x113;" horiz-adv-x="540" 
d="M271 -10q-72 0 -126 31.5t-84.5 88.5t-30.5 133q0 77 30.5 134.5t84.5 89.5t126 32q73 0 127.5 -32.5t84.5 -90t30 -132.5q0 -10 -0.5 -18.5t-1.5 -15.5h-367q3 -58 37.5 -91t92.5 -33q55 0 85.5 22.5t52.5 57.5l83 -50q-33 -62 -88 -94t-136 -32zM272 407
q-52 0 -85 -28.5t-41 -75.5h249q-10 47 -41 75.5t-82 28.5zM412 582h-280v87h280v-87z" />
    <glyph glyph-name="Edotaccent" unicode="&#x116;" 
d="M497 110v-110h-421v681h421v-110h-305v-174h247v-110h-247v-177h305zM214 833q0 32 19.5 52.5t53.5 20.5q32 0 52 -20.5t20 -52.5t-20 -52t-52 -20q-34 0 -53.5 20t-19.5 52z" />
    <glyph glyph-name="edotaccent" unicode="&#x117;" horiz-adv-x="540" 
d="M271 -10q-72 0 -126 31.5t-84.5 88.5t-30.5 133q0 77 30.5 134.5t84.5 89.5t126 32q73 0 127.5 -32.5t84.5 -90t30 -132.5q0 -10 -0.5 -18.5t-1.5 -15.5h-367q3 -58 37.5 -91t92.5 -33q55 0 85.5 22.5t52.5 57.5l83 -50q-33 -62 -88 -94t-136 -32zM272 407
q-52 0 -85 -28.5t-41 -75.5h249q-10 47 -41 75.5t-82 28.5zM199 640q0 32 19.5 52.5t53.5 20.5q32 0 52 -20.5t20 -52.5t-20 -52t-52 -20q-34 0 -53.5 20t-19.5 52z" />
    <glyph glyph-name="Eogonek" unicode="&#x118;" 
d="M497 110v-110h-421v681h421v-110h-305v-174h247v-110h-247v-177h305zM440 -226q-47 0 -76.5 22t-29.5 71q0 39 23.5 76.5t59.5 61.5l80 -5q-35 -22 -57 -52.5t-22 -58.5q0 -39 42 -39q9 0 19.5 2.5t17.5 5.5l10 -70q-10 -6 -27.5 -10t-39.5 -4z" />
    <glyph glyph-name="eogonek" unicode="&#x119;" horiz-adv-x="540" 
d="M251 -9q-67 4 -116.5 36.5t-77 87.5t-27.5 128q0 77 30.5 134.5t84.5 89.5t126 32q73 0 127.5 -32.5t84.5 -90t30 -132.5q0 -10 -0.5 -18.5t-1.5 -15.5h-366q3 -57 37 -90.5t92 -33.5q55 0 85.5 22.5t52.5 57.5l83 -50q-49 -93 -148 -118q-35 -22 -56 -52t-21 -57
q0 -39 42 -39q9 0 19.5 2.5t17.5 5.5l10 -70q-10 -6 -27.5 -10t-39.5 -4q-46 0 -76 22t-30 71q0 34 18 67t47 57zM147 303h248q-10 47 -41 75.5t-82 28.5q-52 0 -85 -28.5t-40 -75.5z" />
    <glyph glyph-name="Ecaron" unicode="&#x11a;" 
d="M497 110v-110h-421v681h421v-110h-305v-174h247v-110h-247v-177h305zM287 749l-148 140l58 57l89 -88l89 88l58 -57z" />
    <glyph glyph-name="ecaron" unicode="&#x11b;" horiz-adv-x="540" 
d="M271 -10q-72 0 -126 31.5t-84.5 88.5t-30.5 133q0 77 30.5 134.5t84.5 89.5t126 32q73 0 127.5 -32.5t84.5 -90t30 -132.5q0 -10 -0.5 -18.5t-1.5 -15.5h-367q3 -58 37.5 -91t92.5 -33q55 0 85.5 22.5t52.5 57.5l83 -50q-33 -62 -88 -94t-136 -32zM272 407
q-52 0 -85 -28.5t-41 -75.5h249q-10 47 -41 75.5t-82 28.5zM272 556l-148 140l58 57l89 -88l89 88l58 -57z" />
    <glyph glyph-name="Gbreve" unicode="&#x11e;" horiz-adv-x="723" 
d="M372 -11q-104 0 -181.5 45.5t-120.5 124.5t-43 179q0 77 25.5 141.5t72 112t109.5 73.5t138 26q116 0 191 -48.5t120 -132.5l-110 -37q-42 60 -91.5 83t-109.5 23q-65 0 -116.5 -30.5t-81 -85t-29.5 -125.5q0 -70 29.5 -123.5t80.5 -84.5t116 -31q78 0 136 41t77 109
h-220v107h333q3 -12 5 -27t2 -29q0 -66 -25.5 -122.5t-71 -99t-106 -66t-129.5 -23.5zM373 773q-61 0 -98.5 36t-41.5 99h80q1 -28 15 -47.5t45 -19.5t45 19.5t16 47.5h79q-4 -63 -41 -99t-99 -36z" />
    <glyph glyph-name="gbreve" unicode="&#x11f;" horiz-adv-x="575" 
d="M261 29q-67 0 -118 29.5t-80 82t-29 122.5t28.5 123.5t79.5 83t119 29.5q47 0 85.5 -16.5t66.5 -47.5l14 53h88v-424q0 -130 -66.5 -196.5t-172.5 -66.5q-62 0 -116.5 27t-88.5 93l-8 15l89 46q25 -42 53 -61.5t72 -19.5q55 0 88.5 35t33.5 107v34q-55 -48 -138 -48z
M279 129q56 0 91 37.5t35 97.5t-35 97.5t-91 37.5q-57 0 -92 -38t-35 -98q0 -59 35 -96.5t92 -37.5zM282 580q-61 0 -98.5 36t-41.5 99h80q1 -28 15 -47.5t45 -19.5t45 19.5t16 47.5h79q-4 -63 -41 -99t-99 -36z" />
    <glyph glyph-name="Gdotaccent" unicode="&#x120;" horiz-adv-x="723" 
d="M372 -11q-104 0 -181.5 45.5t-120.5 124.5t-43 179q0 77 25.5 141.5t72 112t109.5 73.5t138 26q116 0 191 -48.5t120 -132.5l-110 -37q-42 60 -91.5 83t-109.5 23q-65 0 -116.5 -30.5t-81 -85t-29.5 -125.5q0 -70 29.5 -123.5t80.5 -84.5t116 -31q78 0 136 41t77 109
h-220v107h333q3 -12 5 -27t2 -29q0 -66 -25.5 -122.5t-71 -99t-106 -66t-129.5 -23.5zM301 833q0 32 19.5 52.5t53.5 20.5q32 0 52 -20.5t20 -52.5t-20 -52t-52 -20q-34 0 -53.5 20t-19.5 52z" />
    <glyph glyph-name="gdotaccent" unicode="&#x121;" horiz-adv-x="575" 
d="M261 29q-67 0 -118 29.5t-80 82t-29 122.5t28.5 123.5t79.5 83t119 29.5q47 0 85.5 -16.5t66.5 -47.5l14 53h88v-424q0 -130 -66.5 -196.5t-172.5 -66.5q-62 0 -116.5 27t-88.5 93l-8 15l89 46q25 -42 53 -61.5t72 -19.5q55 0 88.5 35t33.5 107v34q-55 -48 -138 -48z
M279 129q56 0 91 37.5t35 97.5t-35 97.5t-91 37.5q-57 0 -92 -38t-35 -98q0 -59 35 -96.5t92 -37.5zM210 640q0 32 19.5 52.5t53.5 20.5q32 0 52 -20.5t20 -52.5t-20 -52t-52 -20q-34 0 -53.5 20t-19.5 52z" />
    <glyph glyph-name="uni0122" unicode="&#x122;" horiz-adv-x="723" 
d="M372 -11q-104 0 -181.5 45.5t-120.5 124.5t-43 179q0 77 25.5 141.5t72 112t109.5 73.5t138 26q116 0 191 -48.5t120 -132.5l-110 -37q-42 60 -91.5 83t-109.5 23q-65 0 -116.5 -30.5t-81 -85t-29.5 -125.5q0 -70 29.5 -123.5t80.5 -84.5t116 -31q78 0 136 41t77 109
h-220v107h333q3 -12 5 -27t2 -29q0 -66 -25.5 -122.5t-71 -99t-106 -66t-129.5 -23.5zM304 -292l-7 31q35 12 49 33t14 47q0 36 -22 59t-43 35q26 41 68 41q31 0 56.5 -24.5t25.5 -67.5q0 -39 -20 -71.5t-52 -54t-69 -28.5z" />
    <glyph glyph-name="uni0123" unicode="&#x123;" horiz-adv-x="575" 
d="M261 29q-67 0 -118 29.5t-80 82t-29 122.5t28.5 123.5t79.5 83t119 29.5q47 0 85.5 -16.5t66.5 -47.5l14 53h88v-424q0 -130 -66.5 -196.5t-172.5 -66.5q-62 0 -116.5 27t-88.5 93l-8 15l89 46q25 -42 53 -61.5t72 -19.5q55 0 88.5 35t33.5 107v34q-55 -48 -138 -48z
M279 129q56 0 91 37.5t35 97.5t-35 97.5t-91 37.5q-57 0 -92 -38t-35 -98q0 -59 35 -96.5t92 -37.5zM288 546q-31 0 -56.5 24t-25.5 67q0 40 20 72.5t52 54t69 27.5l7 -31q-35 -11 -49 -32t-14 -47q0 -36 22 -59.5t43 -34.5q-26 -41 -68 -41z" />
    <glyph glyph-name="Hbar" unicode="&#x126;" horiz-adv-x="691" 
d="M76 0v681h116v-293h307v293h116v-681h-116v278h-307v-278h-116zM688 505h-686v81h686v-81z" />
    <glyph glyph-name="hbar" unicode="&#x127;" horiz-adv-x="552" 
d="M60 0v539h-74v81h74v61h116v-61h111v-81h-111v-105q36 31 79.5 48t90.5 17q51 0 81.5 -17t45.5 -46.5t19.5 -66t4.5 -75.5v-294h-116v304q0 48 -20.5 65t-50.5 17q-36 0 -72.5 -18.5t-61.5 -46.5v-321h-116z" />
    <glyph glyph-name="Imacron" unicode="&#x12a;" horiz-adv-x="269" 
d="M192 0h-116v681h116v-681zM246 775h-222v87h222v-87z" />
    <glyph glyph-name="imacron" unicode="&#x12b;" horiz-adv-x="240" 
d="M178 0h-116v488h116v-488zM231 582h-222v87h222v-87z" />
    <glyph glyph-name="Iogonek" unicode="&#x12e;" horiz-adv-x="269" 
d="M192 0h-116v681h116v-681zM135 -226q-47 0 -76.5 22t-29.5 71q0 39 23.5 76.5t59.5 61.5l80 -5q-35 -22 -57 -52.5t-22 -58.5q0 -39 42 -39q9 0 19.5 2.5t17.5 5.5l10 -70q-10 -6 -27.5 -10t-39.5 -4z" />
    <glyph glyph-name="iogonek" unicode="&#x12f;" horiz-adv-x="240" 
d="M178 0h-116v488h116v-488zM47 640q0 32 19.5 52.5t53.5 20.5q32 0 52 -20.5t20 -52.5t-20 -52t-52 -20q-34 0 -53.5 20t-19.5 52zM121 -226q-47 0 -76.5 22t-29.5 71q0 39 23.5 76.5t59.5 61.5l80 -5q-35 -22 -57 -52.5t-22 -58.5q0 -39 42 -39q9 0 19.5 2.5t17.5 5.5
l10 -70q-10 -6 -27.5 -10t-39.5 -4z" />
    <glyph glyph-name="Idotaccent" unicode="&#x130;" horiz-adv-x="269" 
d="M192 0h-116v681h116v-681zM62 833q0 32 19.5 52.5t53.5 20.5q32 0 52 -20.5t20 -52.5t-20 -52t-52 -20q-34 0 -53.5 20t-19.5 52z" />
    <glyph glyph-name="dotlessi" unicode="&#x131;" horiz-adv-x="240" 
d="M178 0h-116v488h116v-488z" />
    <glyph glyph-name="IJ" unicode="&#x132;" horiz-adv-x="806" 
d="M192 0h-116v681h116v-681zM522 96q45 0 69.5 27.5t24.5 75.5v482h118v-481q0 -64 -25.5 -112.5t-73 -75.5t-113.5 -27q-99 0 -155.5 55.5t-56.5 155.5v41h117v-36q0 -54 25 -79.5t70 -25.5z" />
    <glyph glyph-name="ij" unicode="&#x133;" horiz-adv-x="484" 
d="M178 0h-116v488h116v-488zM47 640q0 32 19.5 52.5t53.5 20.5q32 0 52 -20.5t20 -52.5t-20 -52t-52 -20q-34 0 -53.5 20t-19.5 52zM298 -194q-25 0 -41 4t-20 6v98q5 -1 13 -3t18 -2q39 0 39 49v530h116v-537q0 -39 -12.5 -72t-40 -53t-72.5 -20zM292 640q0 32 19.5 52.5
t53.5 20.5q32 0 52 -20.5t20 -52.5t-20 -52t-52 -20q-34 0 -53.5 20t-19.5 52z" />
    <glyph glyph-name="uni0136" unicode="&#x136;" horiz-adv-x="618" 
d="M76 0v681h116v-289l272 289h145l-317 -337l321 -344h-154l-267 287v-287h-116zM259 -292l-7 31q35 12 49 33t14 47q0 36 -22 59t-43 35q26 41 68 41q31 0 56.5 -24.5t25.5 -67.5q0 -39 -20 -71.5t-52 -54t-69 -28.5z" />
    <glyph glyph-name="uni0137" unicode="&#x137;" horiz-adv-x="478" 
d="M60 681h114v-386l177 193h134l-210 -233l213 -255h-137l-177 209v-209h-114v681zM200 -292l-7 31q35 12 49 33t14 47q0 36 -22 59t-43 35q26 41 68 41q31 0 56.5 -24.5t25.5 -67.5q0 -39 -20 -71.5t-52 -54t-69 -28.5z" />
    <glyph glyph-name="Lacute" unicode="&#x139;" horiz-adv-x="501" 
d="M477 0h-401v681h116v-571h285v-110zM126 747l-57 59l155 142l58 -58z" />
    <glyph glyph-name="lacute" unicode="&#x13a;" horiz-adv-x="255" 
d="M165 -5q-44 0 -74.5 30t-30.5 91v565h114v-524q0 -33 15 -44t35 -11v-99q-12 -4 -27.5 -6t-31.5 -2zM109 747l-57 59l155 142l58 -58z" />
    <glyph glyph-name="uni013B" unicode="&#x13b;" horiz-adv-x="501" 
d="M477 0h-401v681h116v-571h285v-110zM217 -292l-7 31q35 12 49 33t14 47q0 36 -22 59t-43 35q26 41 68 41q31 0 56.5 -24.5t25.5 -67.5q0 -39 -20 -71.5t-52 -54t-69 -28.5z" />
    <glyph glyph-name="uni013C" unicode="&#x13c;" horiz-adv-x="255" 
d="M165 -5q-44 0 -74.5 30t-30.5 91v565h114v-524q0 -33 15 -44t35 -11v-99q-12 -4 -27.5 -6t-31.5 -2zM77 -292l-7 31q35 12 49 33t14 47q0 36 -22 59t-43 35q26 41 68 41q31 0 56.5 -24.5t25.5 -67.5q0 -39 -20 -71.5t-52 -54t-69 -28.5z" />
    <glyph glyph-name="Lcaron" unicode="&#x13d;" horiz-adv-x="501" 
d="M477 0h-401v681h116v-571h285v-110zM373 681v-55l-22 -147h-69v202h91z" />
    <glyph glyph-name="lcaron" unicode="&#x13e;" horiz-adv-x="315" 
d="M165 -5q-44 0 -74.5 30t-30.5 91v565h114v-524q0 -33 15 -44t35 -11v-99q-12 -4 -27.5 -6t-31.5 -2zM315 681v-55l-22 -147h-69v202h91z" />
    <glyph glyph-name="Lslash" unicode="&#x141;" horiz-adv-x="512" 
d="M45 244l-39 73l82 39v325h116v-270l195 94l41 -73l-236 -112v-210h285v-110h-401v264z" />
    <glyph glyph-name="lslash" unicode="&#x142;" horiz-adv-x="286" 
d="M176 -5q-45 0 -75.5 30t-30.5 91v150l-24 -14l-41 70l65 39v320h115v-251l58 35l42 -70l-100 -60v-178q0 -33 14.5 -44t35.5 -11v-99q-12 -4 -28 -6t-31 -2z" />
    <glyph glyph-name="Nacute" unicode="&#x143;" horiz-adv-x="728" 
d="M550 0l-358 471v-471h-116v681h102l358 -471v471h116v-681h-102zM359 747l-57 59l155 142l58 -58z" />
    <glyph glyph-name="nacute" unicode="&#x144;" horiz-adv-x="552" 
d="M346 499q51 0 81.5 -17t45.5 -46.5t19.5 -66t4.5 -75.5v-294h-116v304q0 48 -20.5 65t-50.5 17q-36 0 -73 -18.5t-61 -46.5v-321h-116v488h87l17 -63q38 34 84.5 54t97.5 20zM269 554l-57 59l155 142l58 -58z" />
    <glyph glyph-name="uni0145" unicode="&#x145;" horiz-adv-x="728" 
d="M550 0l-358 471v-471h-116v681h102l358 -471v471h116v-681h-102zM301 -292l-7 31q35 12 49 33t14 47q0 36 -22 59t-43 35q26 41 68 41q31 0 56.5 -24.5t25.5 -67.5q0 -39 -20 -71.5t-52 -54t-69 -28.5z" />
    <glyph glyph-name="uni0146" unicode="&#x146;" horiz-adv-x="552" 
d="M346 499q51 0 81.5 -17t45.5 -46.5t19.5 -66t4.5 -75.5v-294h-116v304q0 48 -20.5 65t-50.5 17q-36 0 -73 -18.5t-61 -46.5v-321h-116v488h87l17 -63q38 34 84.5 54t97.5 20zM211 -292l-7 31q35 12 49 33t14 47q0 36 -22 59t-43 35q26 41 68 41q31 0 56.5 -24.5
t25.5 -67.5q0 -39 -20 -71.5t-52 -54t-69 -28.5z" />
    <glyph glyph-name="Ncaron" unicode="&#x147;" horiz-adv-x="728" 
d="M550 0l-358 471v-471h-116v681h102l358 -471v471h116v-681h-102zM368 749l-148 140l58 57l89 -88l89 88l58 -57z" />
    <glyph glyph-name="ncaron" unicode="&#x148;" horiz-adv-x="552" 
d="M346 499q51 0 81.5 -17t45.5 -46.5t19.5 -66t4.5 -75.5v-294h-116v304q0 48 -20.5 65t-50.5 17q-36 0 -73 -18.5t-61 -46.5v-321h-116v488h87l17 -63q38 34 84.5 54t97.5 20zM278 556l-148 140l58 57l89 -88l89 88l58 -57z" />
    <glyph glyph-name="Eng" unicode="&#x14a;" horiz-adv-x="728" 
d="M76 0v681h102l358 -470v470h116v-722q0 -39 -13 -72.5t-40.5 -53.5t-71.5 -20q-26 0 -41.5 4.5t-20.5 6.5v98q6 -2 13.5 -3.5t18.5 -1.5q39 0 39 49v53l-344 451v-470h-116z" />
    <glyph glyph-name="eng" unicode="&#x14b;" horiz-adv-x="552" 
d="M372 -194q-26 0 -41.5 4t-20.5 6v98q6 -1 13.5 -3t18.5 -2q39 0 39 49v346q0 48 -20.5 65t-50.5 17q-36 0 -73 -18.5t-61 -46.5v-321h-116v488h87l17 -63q38 34 84.5 54t97.5 20t81.5 -17t45.5 -46.5t19.5 -66t4.5 -75.5v-343q0 -39 -13 -72t-40.5 -53t-71.5 -20z" />
    <glyph glyph-name="Omacron" unicode="&#x14c;" horiz-adv-x="757" 
d="M27 340q0 76 26 140.5t73.5 111.5t112 73t141.5 26q76 0 140 -26t111 -73t73 -111.5t26 -140.5t-26 -140t-73 -111.5t-111 -73.5t-140 -26q-77 0 -141.5 26t-112 73.5t-73.5 111.5t-26 140zM145 340q0 -70 30.5 -124t83.5 -84t121 -30q67 0 119.5 30.5t82.5 84t30 123.5
t-30 124t-82.5 84t-119.5 30q-68 0 -121 -30t-83.5 -84t-30.5 -124zM518 775h-280v87h280v-87z" />
    <glyph glyph-name="omacron" unicode="&#x14d;" horiz-adv-x="567" 
d="M283 -11q-75 0 -132 32t-88.5 89.5t-31.5 132.5q0 77 31.5 134.5t88.5 89.5t132 32t132 -32t88.5 -89.5t31.5 -134.5q0 -75 -31.5 -132.5t-88.5 -89.5t-132 -32zM283 101q60 0 97 39.5t37 103.5t-37 103.5t-97 39.5t-97 -39t-37 -104q0 -64 37 -103.5t97 -39.5zM423 582
h-280v87h280v-87z" />
    <glyph glyph-name="Ohungarumlaut" unicode="&#x150;" horiz-adv-x="757" 
d="M27 340q0 76 26 140.5t73.5 111.5t112 73t141.5 26q76 0 140 -26t111 -73t73 -111.5t26 -140.5t-26 -140t-73 -111.5t-111 -73.5t-140 -26q-77 0 -141.5 26t-112 73.5t-73.5 111.5t-26 140zM145 340q0 -70 30.5 -124t83.5 -84t121 -30q67 0 119.5 30.5t82.5 84t30 123.5
t-30 124t-82.5 84t-119.5 30q-68 0 -121 -30t-83.5 -84t-30.5 -124zM326 743l-73 31l82 182l76 -30zM472 743l-74 31l83 182l75 -30z" />
    <glyph glyph-name="ohungarumlaut" unicode="&#x151;" horiz-adv-x="567" 
d="M283 -11q-75 0 -132 32t-88.5 89.5t-31.5 132.5q0 77 31.5 134.5t88.5 89.5t132 32t132 -32t88.5 -89.5t31.5 -134.5q0 -75 -31.5 -132.5t-88.5 -89.5t-132 -32zM283 101q60 0 97 39.5t37 103.5t-37 103.5t-97 39.5t-97 -39t-37 -104q0 -64 37 -103.5t97 -39.5zM231 550
l-73 31l82 182l76 -30zM377 550l-74 31l83 182l75 -30z" />
    <glyph glyph-name="OE" unicode="&#x152;" horiz-adv-x="1033" 
d="M344 -11q-92 0 -163.5 45.5t-112.5 125t-41 180.5q0 102 41 181.5t112.5 125t163.5 45.5q71 0 130 -30t101 -81v100h408v-110h-297v-174h239v-110h-239v-177h297v-110h-408v100q-42 -51 -101 -81t-130 -30zM356 102q62 0 111 30.5t77 84t28 123.5q0 71 -28 124.5t-77 84
t-111 30.5q-61 0 -108.5 -30.5t-75 -84.5t-27.5 -124t27.5 -124t75 -84t108.5 -30z" />
    <glyph glyph-name="oe" unicode="&#x153;" horiz-adv-x="895" 
d="M276 -11q-70 0 -123.5 32t-83 89.5t-29.5 132.5q0 77 29.5 134.5t83 89.5t123.5 32q59 0 106 -23t78 -64q31 41 76.5 64t102.5 23q71 0 122.5 -32.5t79.5 -90t28 -132.5q0 -10 -1 -19.5t-2 -15.5h-350q8 -52 41 -87.5t93 -35.5q48 0 77 22.5t49 57.5l83 -50
q-65 -127 -220 -127q-57 0 -102.5 23t-76.5 64q-31 -41 -78 -64t-106 -23zM640 407q-49 0 -79 -29.5t-41 -76.5h232q-9 48 -36.5 77t-75.5 29zM284 101q56 0 91 39.5t35 103.5t-35 103.5t-91 39.5t-91 -39t-35 -104q0 -64 35 -103.5t91 -39.5z" />
    <glyph glyph-name="Racute" unicode="&#x154;" horiz-adv-x="613" 
d="M76 0v681h251q71 0 125 -29.5t84.5 -80.5t30.5 -117q0 -70 -35 -123.5t-95 -80.5l137 -250h-127l-126 229h-129v-229h-116zM312 571h-120v-232h120q62 0 98.5 30t36.5 85q0 58 -36.5 87.5t-98.5 29.5zM297 747l-57 59l155 142l58 -58z" />
    <glyph glyph-name="racute" unicode="&#x155;" horiz-adv-x="353" 
d="M147 488l12 -53q21 23 55 43.5t70 20.5q33 0 49 -9v-105h-32q-48 0 -78 -10.5t-47 -32.5v-342h-116v488h87zM192 554l-57 59l155 142l58 -58z" />
    <glyph glyph-name="uni0156" unicode="&#x156;" horiz-adv-x="613" 
d="M76 0v681h251q71 0 125 -29.5t84.5 -80.5t30.5 -117q0 -70 -35 -123.5t-95 -80.5l137 -250h-127l-126 229h-129v-229h-116zM312 571h-120v-232h120q62 0 98.5 30t36.5 85q0 58 -36.5 87.5t-98.5 29.5zM249 -292l-7 31q35 12 49 33t14 47q0 36 -22 59t-43 35q26 41 68 41
q31 0 56.5 -24.5t25.5 -67.5q0 -39 -20 -71.5t-52 -54t-69 -28.5z" />
    <glyph glyph-name="uni0157" unicode="&#x157;" horiz-adv-x="353" 
d="M147 488l12 -53q21 23 55 43.5t70 20.5q33 0 49 -9v-105h-32q-48 0 -78 -10.5t-47 -32.5v-342h-116v488h87zM50 -292l-7 31q35 12 49 33t14 47q0 36 -22 59t-43 35q26 41 68 41q31 0 56.5 -24.5t25.5 -67.5q0 -39 -20 -71.5t-52 -54t-69 -28.5z" />
    <glyph glyph-name="Rcaron" unicode="&#x158;" horiz-adv-x="613" 
d="M76 0v681h251q71 0 125 -29.5t84.5 -80.5t30.5 -117q0 -70 -35 -123.5t-95 -80.5l137 -250h-127l-126 229h-129v-229h-116zM312 571h-120v-232h120q62 0 98.5 30t36.5 85q0 58 -36.5 87.5t-98.5 29.5zM306 749l-148 140l58 57l89 -88l89 88l58 -57z" />
    <glyph glyph-name="rcaron" unicode="&#x159;" horiz-adv-x="353" 
d="M147 488l12 -53q21 23 55 43.5t70 20.5q33 0 49 -9v-105h-32q-48 0 -78 -10.5t-47 -32.5v-342h-116v488h87zM200 556l-148 140l58 57l89 -88l89 88l58 -57z" />
    <glyph glyph-name="Sacute" unicode="&#x15a;" horiz-adv-x="560" 
d="M295 -16q-83 0 -153 38t-112 128l94 56q33 -58 74.5 -85t101.5 -27q55 0 83.5 24t28.5 66q0 24 -12 43.5t-44 35.5t-90 30q-80 20 -125 50t-63 69t-18 86q0 57 27 100.5t78 68.5t121 25q82 0 137 -32t91 -85l-95 -63q-29 37 -63.5 52.5t-71.5 15.5q-53 0 -81 -20.5
t-28 -59.5q0 -34 26.5 -57.5t105.5 -42.5q84 -21 132.5 -49.5t69.5 -69t21 -96.5q0 -57 -29 -102t-81.5 -72t-124.5 -27zM279 747l-57 59l155 142l58 -58z" />
    <glyph glyph-name="sacute" unicode="&#x15b;" horiz-adv-x="439" 
d="M224 -12q-54 0 -104 24t-86 81l79 60q29 -36 56.5 -52t66.5 -16q28 0 44 14t16 35t-19.5 35.5t-79.5 29.5q-74 19 -112.5 51.5t-38.5 98.5q0 41 21.5 75.5t60.5 55t94 20.5q65 0 111 -26t73 -62l-81 -64q-17 19 -45.5 35.5t-68.5 16.5q-24 0 -43 -12t-19 -34
q0 -21 19 -35t72 -26q89 -21 127 -56t38 -92q0 -48 -25 -83t-66 -54.5t-90 -19.5zM215 554l-57 59l155 142l58 -58z" />
    <glyph glyph-name="Scedilla" unicode="&#x15e;" horiz-adv-x="560" 
d="M295 -16q-83 0 -153 38t-112 128l94 56q33 -58 74.5 -85t101.5 -27q55 0 83.5 24t28.5 66q0 24 -12 43.5t-44 35.5t-90 30q-80 20 -125 50t-63 69t-18 86q0 57 27 100.5t78 68.5t121 25q82 0 137 -32t91 -85l-95 -63q-29 37 -63.5 52.5t-71.5 15.5q-53 0 -81 -20.5
t-28 -59.5q0 -34 26.5 -57.5t105.5 -42.5q84 -21 132.5 -49.5t69.5 -69t21 -96.5q0 -57 -29 -102t-81.5 -72t-124.5 -27zM289 -209q-32 0 -58 8t-47 20l27 55q14 -8 32.5 -14t39.5 -6q46 0 46 29q0 11 -11 18t-39 7h-52l20 91h69l-7 -36q45 -4 67 -25t22 -54
q0 -44 -28.5 -68.5t-80.5 -24.5z" />
    <glyph glyph-name="scedilla" unicode="&#x15f;" horiz-adv-x="439" 
d="M224 -12q-54 0 -104 24t-86 81l79 60q29 -36 56.5 -52t66.5 -16q28 0 44 14t16 35t-19.5 35.5t-79.5 29.5q-74 19 -112.5 51.5t-38.5 98.5q0 41 21.5 75.5t60.5 55t94 20.5q65 0 111 -26t73 -62l-81 -64q-17 19 -45.5 35.5t-68.5 16.5q-24 0 -43 -12t-19 -34
q0 -21 19 -35t72 -26q89 -21 127 -56t38 -92q0 -48 -25 -83t-66 -54.5t-90 -19.5zM226 -208q-32 0 -58 8t-47 20l27 55q14 -8 32.5 -14t39.5 -6q46 0 46 29q0 11 -11 18t-39 7h-52l20 91h69l-7 -36q45 -4 67 -25t22 -54q0 -44 -28.5 -68.5t-80.5 -24.5z" />
    <glyph glyph-name="Scaron" unicode="&#x160;" horiz-adv-x="560" 
d="M295 -16q-83 0 -153 38t-112 128l94 56q33 -58 74.5 -85t101.5 -27q55 0 83.5 24t28.5 66q0 24 -12 43.5t-44 35.5t-90 30q-80 20 -125 50t-63 69t-18 86q0 57 27 100.5t78 68.5t121 25q82 0 137 -32t91 -85l-95 -63q-29 37 -63.5 52.5t-71.5 15.5q-53 0 -81 -20.5
t-28 -59.5q0 -34 26.5 -57.5t105.5 -42.5q84 -21 132.5 -49.5t69.5 -69t21 -96.5q0 -57 -29 -102t-81.5 -72t-124.5 -27zM288 749l-148 140l58 57l89 -88l89 88l58 -57z" />
    <glyph glyph-name="scaron" unicode="&#x161;" horiz-adv-x="439" 
d="M224 -12q-54 0 -104 24t-86 81l79 60q29 -36 56.5 -52t66.5 -16q28 0 44 14t16 35t-19.5 35.5t-79.5 29.5q-74 19 -112.5 51.5t-38.5 98.5q0 41 21.5 75.5t60.5 55t94 20.5q65 0 111 -26t73 -62l-81 -64q-17 19 -45.5 35.5t-68.5 16.5q-24 0 -43 -12t-19 -34
q0 -21 19 -35t72 -26q89 -21 127 -56t38 -92q0 -48 -25 -83t-66 -54.5t-90 -19.5zM224 556l-148 140l58 57l89 -88l89 88l58 -57z" />
    <glyph glyph-name="Tcaron" unicode="&#x164;" horiz-adv-x="562" 
d="M219 0v571h-209v110h542v-110h-217v-571h-116zM277 749l-148 140l58 57l89 -88l89 88l58 -57z" />
    <glyph glyph-name="tcaron" unicode="&#x165;" horiz-adv-x="372" 
d="M253 -9q-70 0 -110.5 38.5t-40.5 121.5v231h-75v106h75l22 113h94v-113h106v-106h-106v-221q0 -30 15 -44t39 -14q16 0 29 2t23 5v-108q-15 -5 -31.5 -8t-39.5 -3zM359 739v-55l-22 -147h-69v202h91z" />
    <glyph glyph-name="Umacron" unicode="&#x16a;" horiz-adv-x="681" 
d="M340 -11q-122 0 -195 70t-73 206v416h116v-407q0 -82 39 -127.5t113 -45.5q75 0 114 45.5t39 127.5v407h116v-416q0 -136 -73 -206t-196 -70zM481 775h-280v87h280v-87z" />
    <glyph glyph-name="umacron" unicode="&#x16b;" horiz-adv-x="552" 
d="M218 -11q-55 0 -87.5 17t-49 46.5t-21.5 66t-5 76.5v293h116v-304q0 -48 21 -64.5t51 -16.5q36 0 72.5 17.5t60.5 46.5v321h116v-488h-87l-17 63q-36 -34 -79.5 -54t-90.5 -20zM414 582h-280v87h280v-87z" />
    <glyph glyph-name="Ubreve" unicode="&#x16c;" horiz-adv-x="681" 
d="M340 -11q-122 0 -195 70t-73 206v416h116v-407q0 -82 39 -127.5t113 -45.5q75 0 114 45.5t39 127.5v407h116v-416q0 -136 -73 -206t-196 -70zM341 773q-61 0 -98.5 36t-41.5 99h80q1 -28 15 -47.5t45 -19.5t45 19.5t16 47.5h79q-4 -63 -41 -99t-99 -36z" />
    <glyph glyph-name="ubreve" unicode="&#x16d;" horiz-adv-x="552" 
d="M218 -11q-55 0 -87.5 17t-49 46.5t-21.5 66t-5 76.5v293h116v-304q0 -48 21 -64.5t51 -16.5q36 0 72.5 17.5t60.5 46.5v321h116v-488h-87l-17 63q-36 -34 -79.5 -54t-90.5 -20zM274 580q-61 0 -98.5 36t-41.5 99h80q1 -28 15 -47.5t45 -19.5t45 19.5t16 47.5h79
q-4 -63 -41 -99t-99 -36z" />
    <glyph glyph-name="Uring" unicode="&#x16e;" horiz-adv-x="681" 
d="M340 -11q-122 0 -195 70t-73 206v416h116v-407q0 -82 39 -127.5t113 -45.5q75 0 114 45.5t39 127.5v407h116v-416q0 -136 -73 -206t-196 -70zM341 752q-46 0 -78.5 30.5t-32.5 76.5q0 47 32.5 78t78.5 31q45 0 77.5 -31t32.5 -78q0 -46 -32.5 -76.5t-77.5 -30.5zM340 823
q16 0 26.5 10t10.5 26q0 17 -10.5 27.5t-26.5 10.5t-26.5 -10.5t-10.5 -27.5q0 -16 10.5 -26t26.5 -10z" />
    <glyph glyph-name="uring" unicode="&#x16f;" horiz-adv-x="552" 
d="M218 -11q-55 0 -87.5 17t-49 46.5t-21.5 66t-5 76.5v293h116v-304q0 -48 21 -64.5t51 -16.5q36 0 72.5 17.5t60.5 46.5v321h116v-488h-87l-17 63q-36 -34 -79.5 -54t-90.5 -20zM274 559q-46 0 -78.5 30.5t-32.5 76.5q0 47 32.5 78t78.5 31q45 0 77.5 -31t32.5 -78
q0 -46 -32.5 -76.5t-77.5 -30.5zM273 630q16 0 26.5 10t10.5 26q0 17 -10.5 27.5t-26.5 10.5t-26.5 -10.5t-10.5 -27.5q0 -16 10.5 -26t26.5 -10z" />
    <glyph glyph-name="Uhungarumlaut" unicode="&#x170;" horiz-adv-x="681" 
d="M340 -11q-122 0 -195 70t-73 206v416h116v-407q0 -82 39 -127.5t113 -45.5q75 0 114 45.5t39 127.5v407h116v-416q0 -136 -73 -206t-196 -70zM289 743l-73 31l82 182l76 -30zM435 743l-74 31l83 182l75 -30z" />
    <glyph glyph-name="uhungarumlaut" unicode="&#x171;" horiz-adv-x="552" 
d="M218 -11q-55 0 -87.5 17t-49 46.5t-21.5 66t-5 76.5v293h116v-304q0 -48 21 -64.5t51 -16.5q36 0 72.5 17.5t60.5 46.5v321h116v-488h-87l-17 63q-36 -34 -79.5 -54t-90.5 -20zM222 550l-73 31l82 182l76 -30zM368 550l-74 31l83 182l75 -30z" />
    <glyph glyph-name="Uogonek" unicode="&#x172;" horiz-adv-x="681" 
d="M322 -10q-114 5 -182 74.5t-68 200.5v416h116v-407q0 -82 39 -127.5t113 -45.5q75 0 114 45.5t39 127.5v407h116v-416q0 -113 -51.5 -180.5t-140.5 -87.5q-33 -23 -53.5 -52t-20.5 -56q0 -39 42 -39q9 0 19.5 2.5t16.5 5.5l11 -70q-10 -6 -27.5 -10t-39.5 -4
q-47 0 -76.5 22t-29.5 71q0 33 17.5 66t45.5 57z" />
    <glyph glyph-name="uogonek" unicode="&#x173;" horiz-adv-x="552" 
d="M218 -11q-55 0 -87.5 17t-49 46.5t-21.5 66t-5 76.5v293h116v-304q0 -48 21 -64.5t51 -16.5q37 0 72.5 17.5t60.5 46.5v321h116v-488q-35 -22 -57 -52.5t-22 -58.5q0 -39 42 -39q9 0 19.5 2.5t17.5 5.5l10 -70q-10 -6 -27.5 -10t-39.5 -4q-47 0 -76.5 22t-29.5 71
q0 37 21.5 73t54.5 60l-16 63q-37 -34 -80.5 -54t-90.5 -20z" />
    <glyph glyph-name="Wcircumflex" unicode="&#x174;" horiz-adv-x="974" 
d="M203 0l-186 681h117l139 -523l158 523h112l158 -523l139 523h117l-186 -681h-132l-152 497l-152 -497h-132zM397 749l-58 57l147 140l147 -140l-58 -57l-88 87z" />
    <glyph glyph-name="wcircumflex" unicode="&#x175;" horiz-adv-x="740" 
d="M163 0l-152 488h115l91 -325l104 325h99l105 -325l91 325h113l-152 -488h-101l-105 324l-105 -324h-103zM281 556l-58 57l147 140l147 -140l-58 -57l-88 87z" />
    <glyph glyph-name="Ycircumflex" unicode="&#x176;" horiz-adv-x="572" 
d="M571 681l-228 -436v-245h-116v244l-228 437h129l157 -315l159 315h127zM195 749l-58 57l147 140l147 -140l-58 -57l-88 87z" />
    <glyph glyph-name="ycircumflex" unicode="&#x177;" horiz-adv-x="518" 
d="M87 -190l114 256l-188 422h120l128 -288l129 288h120l-303 -678h-120zM171 556l-58 57l147 140l147 -140l-58 -57l-88 87z" />
    <glyph glyph-name="Ydieresis" unicode="&#x178;" horiz-adv-x="572" 
d="M571 681l-228 -436v-245h-116v244l-228 437h129l157 -315l159 315h127zM118 826q0 31 19.5 51.5t51.5 20.5q30 0 50 -20.5t20 -51.5q0 -30 -20 -50t-50 -20q-32 0 -51.5 20t-19.5 50zM312 826q0 31 19.5 51.5t50.5 20.5t50.5 -20.5t19.5 -51.5q0 -30 -19.5 -50t-50.5 -20
t-50.5 20t-19.5 50z" />
    <glyph glyph-name="Zacute" unicode="&#x179;" horiz-adv-x="564" 
d="M527 110v-110h-481v94l335 477h-327v110h469v-93l-332 -478h336zM285 747l-57 59l155 142l58 -58z" />
    <glyph glyph-name="zacute" unicode="&#x17a;" horiz-adv-x="462" 
d="M424 105v-105h-386v90l239 293h-234v105h377v-90l-240 -293h244zM224 554l-57 59l155 142l58 -58z" />
    <glyph glyph-name="Zdotaccent" unicode="&#x17b;" horiz-adv-x="564" 
d="M527 110v-110h-481v94l335 477h-327v110h469v-93l-332 -478h336zM221 833q0 32 19.5 52.5t53.5 20.5q32 0 52 -20.5t20 -52.5t-20 -52t-52 -20q-34 0 -53.5 20t-19.5 52z" />
    <glyph glyph-name="zdotaccent" unicode="&#x17c;" horiz-adv-x="462" 
d="M424 105v-105h-386v90l239 293h-234v105h377v-90l-240 -293h244zM160 640q0 32 19.5 52.5t53.5 20.5q32 0 52 -20.5t20 -52.5t-20 -52t-52 -20q-34 0 -53.5 20t-19.5 52z" />
    <glyph glyph-name="Zcaron" unicode="&#x17d;" horiz-adv-x="564" 
d="M527 110v-110h-481v94l335 477h-327v110h469v-93l-332 -478h336zM294 749l-148 140l58 57l89 -88l89 88l58 -57z" />
    <glyph glyph-name="zcaron" unicode="&#x17e;" horiz-adv-x="462" 
d="M424 105v-105h-386v90l239 293h-234v105h377v-90l-240 -293h244zM233 556l-148 140l58 57l89 -88l89 88l58 -57z" />
    <glyph glyph-name="uni01CD" unicode="&#x1cd;" horiz-adv-x="659" 
d="M17 0l242 681h145l239 -681h-118l-51 148h-287l-53 -148h-117zM225 256h211l-104 303zM332 749l-148 140l58 57l89 -88l89 88l58 -57z" />
    <glyph glyph-name="uni01CE" unicode="&#x1ce;" horiz-adv-x="498" 
d="M211 -14q-84 0 -132.5 44.5t-48.5 121.5q0 73 50 120t131 47q71 0 116 -33v36q0 30 -20.5 54t-69.5 24q-28 0 -62 -7t-70 -23l-35 86q43 21 89 32t92 11q96 0 144 -51t48 -128v-320h-89l-10 35q-49 -49 -133 -49zM238 81q40 0 64.5 18.5t24.5 52.5t-24.5 53t-64.5 19
t-64.5 -19t-24.5 -53t24.5 -52.5t64.5 -18.5zM249 556l-148 140l58 57l89 -88l89 88l58 -57z" />
    <glyph glyph-name="uni0218" unicode="&#x218;" horiz-adv-x="560" 
d="M295 -16q-83 0 -153 38t-112 128l94 56q33 -58 74.5 -85t101.5 -27q55 0 83.5 24t28.5 66q0 24 -12 43.5t-44 35.5t-90 30q-80 20 -125 50t-63 69t-18 86q0 57 27 100.5t78 68.5t121 25q82 0 137 -32t91 -85l-95 -63q-29 37 -63.5 52.5t-71.5 15.5q-53 0 -81 -20.5
t-28 -59.5q0 -34 26.5 -57.5t105.5 -42.5q84 -21 132.5 -49.5t69.5 -69t21 -96.5q0 -57 -29 -102t-81.5 -72t-124.5 -27zM227 -293l-7 31q35 12 49 33t14 47q0 36 -22 59t-43 35q26 41 68 41q31 0 56.5 -24.5t25.5 -67.5q0 -39 -20 -71.5t-52 -54t-69 -28.5z" />
    <glyph glyph-name="uni0219" unicode="&#x219;" horiz-adv-x="439" 
d="M224 -12q-54 0 -104 24t-86 81l79 60q29 -36 56.5 -52t66.5 -16q28 0 44 14t16 35t-19.5 35.5t-79.5 29.5q-74 19 -112.5 51.5t-38.5 98.5q0 41 21.5 75.5t60.5 55t94 20.5q65 0 111 -26t73 -62l-81 -64q-17 19 -45.5 35.5t-68.5 16.5q-24 0 -43 -12t-19 -34
q0 -21 19 -35t72 -26q89 -21 127 -56t38 -92q0 -48 -25 -83t-66 -54.5t-90 -19.5zM165 -292l-7 31q35 12 49 33t14 47q0 36 -22 59t-43 35q26 41 68 41q31 0 56.5 -24.5t25.5 -67.5q0 -39 -20 -71.5t-52 -54t-69 -28.5z" />
    <glyph glyph-name="uni021A" unicode="&#x21a;" horiz-adv-x="562" 
d="M219 0v571h-209v110h542v-110h-217v-571h-116zM209 -292l-7 31q35 12 49 33t14 47q0 36 -22 59t-43 35q26 41 68 41q31 0 56.5 -24.5t25.5 -67.5q0 -39 -20 -71.5t-52 -54t-69 -28.5z" />
    <glyph glyph-name="uni021B" unicode="&#x21b;" horiz-adv-x="372" 
d="M253 -9q-70 0 -110.5 38.5t-40.5 121.5v231h-75v106h75l22 113h94v-113h106v-106h-106v-221q0 -30 15 -44t39 -14q16 0 29 2t23 5v-108q-15 -5 -31.5 -8t-39.5 -3zM152 -292l-7 31q35 12 49 33t14 47q0 36 -22 59t-43 35q26 41 68 41q31 0 56.5 -24.5t25.5 -67.5
q0 -39 -20 -71.5t-52 -54t-69 -28.5z" />
    <glyph glyph-name="uni0237" unicode="&#x237;" horiz-adv-x="244" 
d="M58 -194q-25 0 -41 4t-20 6v98q5 -1 13 -3t18 -2q39 0 39 49v530h116v-537q0 -39 -12.5 -72t-40 -53t-72.5 -20z" />
    <glyph glyph-name="circumflex" unicode="&#x2c6;" 
d="M185 556l-58 57l147 140l147 -140l-58 -57l-88 87z" />
    <glyph glyph-name="caron" unicode="&#x2c7;" 
d="M274 556l-148 140l58 57l89 -88l89 88l58 -57z" />
    <glyph glyph-name="breve" unicode="&#x2d8;" 
d="M273 580q-61 0 -98.5 36t-41.5 99h80q1 -28 15 -47.5t45 -19.5t45 19.5t16 47.5h79q-4 -63 -41 -99t-99 -36z" />
    <glyph glyph-name="dotaccent" unicode="&#x2d9;" 
d="M201 640q0 32 19.5 52.5t53.5 20.5q32 0 52 -20.5t20 -52.5t-20 -52t-52 -20q-34 0 -53.5 20t-19.5 52z" />
    <glyph glyph-name="ring" unicode="&#x2da;" 
d="M274 559q-46 0 -78.5 30.5t-32.5 76.5q0 47 32.5 78t78.5 31q45 0 77.5 -31t32.5 -78q0 -46 -32.5 -76.5t-77.5 -30.5zM273 630q16 0 26.5 10t10.5 26q0 17 -10.5 27.5t-26.5 10.5t-26.5 -10.5t-10.5 -27.5q0 -16 10.5 -26t26.5 -10z" />
    <glyph glyph-name="ogonek" unicode="&#x2db;" 
d="M276 -226q-47 0 -76.5 22t-29.5 71q0 39 23.5 76.5t59.5 61.5l80 -5q-35 -22 -57 -52.5t-22 -58.5q0 -39 42 -39q9 0 19.5 2.5t17.5 5.5l10 -70q-10 -6 -27.5 -10t-39.5 -4z" />
    <glyph glyph-name="tilde" unicode="&#x2dc;" 
d="M339 573q-36 0 -76 27q-17 11 -27.5 16t-21.5 5q-29 0 -50 -43l-75 37q21 45 49 69.5t69 24.5q22 0 42.5 -7.5t42.5 -22.5q12 -8 22.5 -13t20.5 -5q16 0 26 10t22 38l75 -37q-18 -47 -46.5 -73t-72.5 -26z" />
    <glyph glyph-name="hungarumlaut" unicode="&#x2dd;" 
d="M216 550l-73 31l82 182l76 -30zM362 550l-74 31l83 182l75 -30z" />
    <glyph glyph-name="gravecomb" unicode="&#x300;" horiz-adv-x="0" 
d="M316 554l-155 143l57 58l155 -142z" />
    <glyph glyph-name="acutecomb" unicode="&#x301;" horiz-adv-x="0" 
d="M231 554l-57 59l155 142l58 -58z" />
    <glyph glyph-name="uni0302" unicode="&#x302;" horiz-adv-x="0" 
d="M185 556l-58 57l147 140l147 -140l-58 -57l-88 87z" />
    <glyph glyph-name="tildecomb" unicode="&#x303;" horiz-adv-x="0" 
d="M339 573q-36 0 -76 27q-17 11 -27.5 16t-21.5 5q-29 0 -50 -43l-75 37q21 45 49 69.5t69 24.5q22 0 42.5 -7.5t42.5 -22.5q12 -8 22.5 -13t20.5 -5q16 0 26 10t22 38l75 -37q-18 -47 -46.5 -73t-72.5 -26z" />
    <glyph glyph-name="uni0304" unicode="&#x304;" horiz-adv-x="0" 
d="M413 582h-280v87h280v-87z" />
    <glyph glyph-name="uni0305" unicode="&#x305;" horiz-adv-x="0" 
d="M569 801h-584v112h584v-112z" />
    <glyph glyph-name="uni0306" unicode="&#x306;" horiz-adv-x="0" 
d="M273 580q-61 0 -98.5 36t-41.5 99h80q1 -28 15 -47.5t45 -19.5t45 19.5t16 47.5h79q-4 -63 -41 -99t-99 -36z" />
    <glyph glyph-name="uni0307" unicode="&#x307;" horiz-adv-x="0" 
d="M201 640q0 32 19.5 52.5t53.5 20.5q32 0 52 -20.5t20 -52.5t-20 -52t-52 -20q-34 0 -53.5 20t-19.5 52z" />
    <glyph glyph-name="uni0308" unicode="&#x308;" horiz-adv-x="0" 
d="M106 633q0 31 19.5 51.5t51.5 20.5q30 0 50 -20.5t20 -51.5q0 -30 -20 -50t-50 -20q-32 0 -51.5 20t-19.5 50zM300 633q0 31 19.5 51.5t50.5 20.5t50.5 -20.5t19.5 -51.5q0 -30 -19.5 -50t-50.5 -20t-50.5 20t-19.5 50z" />
    <glyph glyph-name="uni030A" unicode="&#x30a;" horiz-adv-x="0" 
d="M274 559q-46 0 -78.5 30.5t-32.5 76.5q0 47 32.5 78t78.5 31q45 0 77.5 -31t32.5 -78q0 -46 -32.5 -76.5t-77.5 -30.5zM273 630q16 0 26.5 10t10.5 26q0 17 -10.5 27.5t-26.5 10.5t-26.5 -10.5t-10.5 -27.5q0 -16 10.5 -26t26.5 -10z" />
    <glyph glyph-name="uni030B" unicode="&#x30b;" horiz-adv-x="0" 
d="M216 550l-73 31l82 182l76 -30zM362 550l-74 31l83 182l75 -30z" />
    <glyph glyph-name="uni030C" unicode="&#x30c;" horiz-adv-x="0" 
d="M274 556l-148 140l58 57l89 -88l89 88l58 -57z" />
    <glyph glyph-name="uni0312" unicode="&#x312;" horiz-adv-x="0" 
d="M282 546q-31 0 -56.5 24t-25.5 67q0 40 20 72.5t52 54t69 27.5l7 -31q-35 -11 -49 -32t-14 -47q0 -36 22 -59.5t43 -34.5q-26 -41 -68 -41z" />
    <glyph glyph-name="dotbelowcomb" unicode="&#x323;" horiz-adv-x="0" 
d="M199 -141q0 32 22 54t53 22t52.5 -22t21.5 -54q0 -30 -21.5 -51.5t-52.5 -21.5t-53 21.5t-22 51.5z" />
    <glyph glyph-name="uni0326" unicode="&#x326;" horiz-adv-x="0" 
d="M206 -292l-7 31q35 12 49 33t14 47q0 36 -22 59t-43 35q26 41 68 41q31 0 56.5 -24.5t25.5 -67.5q0 -39 -20 -71.5t-52 -54t-69 -28.5z" />
    <glyph glyph-name="uni0327" unicode="&#x327;" horiz-adv-x="0" 
d="M267 -208q-32 0 -58 8t-47 20l27 55q14 -8 32.5 -14t39.5 -6q46 0 46 29q0 11 -11 18t-39 7h-52l20 91h69l-7 -36q45 -4 67 -25t22 -54q0 -44 -28.5 -68.5t-80.5 -24.5z" />
    <glyph glyph-name="uni0328" unicode="&#x328;" horiz-adv-x="0" 
d="M276 -226q-47 0 -76.5 22t-29.5 71q0 39 23.5 76.5t59.5 61.5l80 -5q-35 -22 -57 -52.5t-22 -58.5q0 -39 42 -39q9 0 19.5 2.5t17.5 5.5l10 -70q-10 -6 -27.5 -10t-39.5 -4z" />
    <glyph glyph-name="uni0335" unicode="&#x335;" horiz-adv-x="0" 
d="M424 539h-301v81h301v-81z" />
    <glyph glyph-name="uni0336" unicode="&#x336;" horiz-adv-x="0" 
d="M706 505h-686v81h686v-81z" />
    <glyph glyph-name="uni0337" unicode="&#x337;" horiz-adv-x="0" 
d="M45 252l-41 70l238 143l42 -70z" />
    <glyph glyph-name="pi" unicode="&#x3c0;" horiz-adv-x="644" 
d="M232 0h-116v382h-92v106h584v-106h-97v-221q0 -30 14 -44t36 -14q16 0 29 2t23 5v-108q-14 -5 -30.5 -8t-36.5 -3q-70 0 -110.5 38.5t-40.5 121.5v231h-163v-382z" />
    <glyph glyph-name="Wgrave" unicode="&#x1e80;" horiz-adv-x="974" 
d="M203 0l-186 681h117l139 -523l158 523h112l158 -523l139 523h117l-186 -681h-132l-152 497l-152 -497h-132zM491 747l-155 143l57 58l155 -142z" />
    <glyph glyph-name="wgrave" unicode="&#x1e81;" horiz-adv-x="740" 
d="M163 0l-152 488h115l91 -325l104 325h99l105 -325l91 325h113l-152 -488h-101l-105 324l-105 -324h-103zM375 554l-155 143l57 58l155 -142z" />
    <glyph glyph-name="Wacute" unicode="&#x1e82;" horiz-adv-x="974" 
d="M203 0l-186 681h117l139 -523l158 523h112l158 -523l139 523h117l-186 -681h-132l-152 497l-152 -497h-132zM479 747l-57 59l155 142l58 -58z" />
    <glyph glyph-name="wacute" unicode="&#x1e83;" horiz-adv-x="740" 
d="M163 0l-152 488h115l91 -325l104 325h99l105 -325l91 325h113l-152 -488h-101l-105 324l-105 -324h-103zM363 554l-57 59l155 142l58 -58z" />
    <glyph glyph-name="Wdieresis" unicode="&#x1e84;" horiz-adv-x="974" 
d="M203 0l-186 681h117l139 -523l158 523h112l158 -523l139 523h117l-186 -681h-132l-152 497l-152 -497h-132zM320 826q0 31 19.5 51.5t51.5 20.5q30 0 50 -20.5t20 -51.5q0 -30 -20 -50t-50 -20q-32 0 -51.5 20t-19.5 50zM514 826q0 31 19.5 51.5t50.5 20.5t50.5 -20.5
t19.5 -51.5q0 -30 -19.5 -50t-50.5 -20t-50.5 20t-19.5 50z" />
    <glyph glyph-name="wdieresis" unicode="&#x1e85;" horiz-adv-x="740" 
d="M163 0l-152 488h115l91 -325l104 325h99l105 -325l91 325h113l-152 -488h-101l-105 324l-105 -324h-103zM204 633q0 31 19.5 51.5t51.5 20.5q30 0 50 -20.5t20 -51.5q0 -30 -20 -50t-50 -20q-32 0 -51.5 20t-19.5 50zM398 633q0 31 19.5 51.5t50.5 20.5t50.5 -20.5
t19.5 -51.5q0 -30 -19.5 -50t-50.5 -20t-50.5 20t-19.5 50z" />
    <glyph glyph-name="uni1E9E" unicode="&#x1e9e;" horiz-adv-x="701" 
d="M312 153q55 -61 127 -61q48 0 74.5 24.5t26.5 60.5q0 44 -36 74t-115 60l-64 24l153 201q-25 20 -57.5 32t-69.5 12q-45 0 -80.5 -16.5t-56 -54t-20.5 -100.5v-409h-116v427q0 122 71 193t205 71q82 0 153 -35t125 -100l-132 -174q87 -39 124.5 -90.5t37.5 -116.5
q0 -84 -57.5 -137t-160.5 -53q-61 0 -118.5 26.5t-88.5 69.5z" />
    <glyph glyph-name="uni1EBC" unicode="&#x1ebc;" 
d="M497 110v-110h-421v681h421v-110h-305v-174h247v-110h-247v-177h305zM352 766q-36 0 -76 27q-17 11 -27.5 16t-21.5 5q-29 0 -50 -43l-75 37q21 45 49 69.5t69 24.5q22 0 42.5 -7.5t42.5 -22.5q12 -8 22.5 -13t20.5 -5q16 0 26 10t22 38l75 -37q-18 -47 -46.5 -73
t-72.5 -26z" />
    <glyph glyph-name="uni1EBD" unicode="&#x1ebd;" horiz-adv-x="540" 
d="M271 -10q-72 0 -126 31.5t-84.5 88.5t-30.5 133q0 77 30.5 134.5t84.5 89.5t126 32q73 0 127.5 -32.5t84.5 -90t30 -132.5q0 -10 -0.5 -18.5t-1.5 -15.5h-367q3 -58 37.5 -91t92.5 -33q55 0 85.5 22.5t52.5 57.5l83 -50q-33 -62 -88 -94t-136 -32zM272 407
q-52 0 -85 -28.5t-41 -75.5h249q-10 47 -41 75.5t-82 28.5zM337 573q-36 0 -76 27q-17 11 -27.5 16t-21.5 5q-29 0 -50 -43l-75 37q21 45 49 69.5t69 24.5q22 0 42.5 -7.5t42.5 -22.5q12 -8 22.5 -13t20.5 -5q16 0 26 10t22 38l75 -37q-18 -47 -46.5 -73t-72.5 -26z" />
    <glyph glyph-name="Ygrave" unicode="&#x1ef2;" horiz-adv-x="572" 
d="M571 681l-228 -436v-245h-116v244l-228 437h129l157 -315l159 315h127zM289 747l-155 143l57 58l155 -142z" />
    <glyph glyph-name="ygrave" unicode="&#x1ef3;" horiz-adv-x="518" 
d="M87 -190l114 256l-188 422h120l128 -288l129 288h120l-303 -678h-120zM265 554l-155 143l57 58l155 -142z" />
    <glyph glyph-name="uni2000" unicode="&#x2000;" horiz-adv-x="500" 
 />
    <glyph glyph-name="uni2001" unicode="&#x2001;" horiz-adv-x="1000" 
 />
    <glyph glyph-name="uni2002" unicode="&#x2002;" horiz-adv-x="500" 
 />
    <glyph glyph-name="uni2003" unicode="&#x2003;" horiz-adv-x="1000" 
 />
    <glyph glyph-name="uni2004" unicode="&#x2004;" horiz-adv-x="333" 
 />
    <glyph glyph-name="uni2005" unicode="&#x2005;" horiz-adv-x="250" 
 />
    <glyph glyph-name="uni2006" unicode="&#x2006;" horiz-adv-x="167" 
 />
    <glyph glyph-name="uni2007" unicode="&#x2007;" 
 />
    <glyph glyph-name="uni2008" unicode="&#x2008;" horiz-adv-x="273" 
 />
    <glyph glyph-name="uni2009" unicode="&#x2009;" horiz-adv-x="200" 
 />
    <glyph glyph-name="uni200A" unicode="&#x200a;" horiz-adv-x="143" 
 />
    <glyph glyph-name="uni200B" unicode="&#x200b;" horiz-adv-x="0" 
 />
    <glyph glyph-name="uni200C" unicode="&#x200c;" horiz-adv-x="0" 
 />
    <glyph glyph-name="endash" unicode="&#x2013;" horiz-adv-x="570" 
d="M548 234h-526v106h526v-106z" />
    <glyph glyph-name="emdash" unicode="&#x2014;" horiz-adv-x="988" 
d="M968 234h-948v106h948v-106z" />
    <glyph glyph-name="quoteleft" unicode="&#x2018;" horiz-adv-x="205" 
d="M111 399q-35 0 -62.5 27.5t-27.5 73.5q0 50 33 105t102 101l37 -39q-63 -69 -63 -131q0 -32 17 -51.5t43 -35.5q-9 -25 -32.5 -37.5t-46.5 -12.5z" />
    <glyph glyph-name="quoteright" unicode="&#x2019;" horiz-adv-x="205" 
d="M49 390l-37 39q63 69 63 131q0 32 -17 51.5t-43 35.5q9 25 32.5 37.5t46.5 12.5q35 0 63 -27.5t28 -73.5q0 -50 -33.5 -105t-102.5 -101z" />
    <glyph glyph-name="quotesinglbase" unicode="&#x201a;" horiz-adv-x="205" 
d="M53 -185l-37 39q63 69 63 131q0 32 -17 51.5t-43 35.5q9 25 32.5 37.5t46.5 12.5q35 0 63 -27.5t28 -73.5q0 -50 -33.5 -105t-102.5 -101z" />
    <glyph glyph-name="quotedblleft" unicode="&#x201c;" horiz-adv-x="419" 
d="M111 399q-35 0 -62.5 27.5t-27.5 73.5q0 50 33 105t102 101l37 -39q-63 -69 -63 -131q0 -32 17 -51.5t43 -35.5q-9 -25 -32.5 -37.5t-46.5 -12.5zM324 399q-35 0 -62.5 27.5t-27.5 73.5q0 50 33 105t102 101l37 -39q-63 -69 -63 -131q0 -32 17 -51.5t43 -35.5
q-9 -25 -32.5 -37.5t-46.5 -12.5z" />
    <glyph glyph-name="quotedblright" unicode="&#x201d;" horiz-adv-x="418" 
d="M49 390l-37 39q63 69 63 131q0 32 -17 51.5t-43 35.5q9 25 32.5 37.5t46.5 12.5q35 0 63 -27.5t28 -73.5q0 -50 -33.5 -105t-102.5 -101zM262 390l-37 39q63 69 63 131q0 32 -17 51.5t-43 35.5q9 25 32.5 37.5t46.5 12.5q35 0 63 -27.5t28 -73.5q0 -50 -33.5 -105
t-102.5 -101z" />
    <glyph glyph-name="quotedblbase" unicode="&#x201e;" horiz-adv-x="419" 
d="M53 -184l-37 39q63 69 63 131q0 32 -17 51.5t-43 35.5q9 25 32.5 37.5t46.5 12.5q35 0 63 -27.5t28 -73.5q0 -50 -33.5 -105t-102.5 -101zM266 -184l-37 39q63 69 63 131q0 32 -17 51.5t-43 35.5q9 25 32.5 37.5t46.5 12.5q35 0 63 -27.5t28 -73.5q0 -50 -33.5 -105
t-102.5 -101z" />
    <glyph glyph-name="bullet" unicode="&#x2022;" horiz-adv-x="379" 
d="M190 148q-36 0 -66 18t-48 48t-18 66t18 66.5t48 48.5t66 18t65.5 -18t47.5 -48.5t18 -66.5t-18 -66t-47.5 -48t-65.5 -18z" />
    <glyph glyph-name="ellipsis" unicode="&#x2026;" horiz-adv-x="781" 
d="M136 -7q-35 0 -61 26t-26 61t26 61t61 26q37 0 62.5 -26t25.5 -61t-25.5 -61t-62.5 -26zM388 -7q-35 0 -61 26t-26 61t26 61t61 26q37 0 62.5 -26t25.5 -61t-25.5 -61t-62.5 -26zM643 -7q-35 0 -61 26t-26 61t26 61t61 26q37 0 62.5 -26t25.5 -61t-25.5 -61t-62.5 -26z
" />
    <glyph glyph-name="uni202F" unicode="&#x202f;" horiz-adv-x="208" 
 />
    <glyph glyph-name="perthousand" unicode="&#x2030;" horiz-adv-x="1047" 
d="M133 -11l-73 56l544 626l73 -57zM182 360q-43 0 -79 20.5t-58 56t-22 78.5q0 44 22 79t58 56t79 21t79.5 -21t57.5 -56.5t21 -78.5t-21.5 -78.5t-57.5 -56t-79 -20.5zM182 448q28 0 47 19t19 48q0 30 -19 49t-47 19q-29 0 -47 -19t-18 -49q0 -29 18 -48t47 -19zM539 -11
q-43 0 -79 20.5t-58 56t-22 78.5q0 44 21.5 79.5t58 56t79.5 20.5t79.5 -21t58 -56.5t21.5 -78.5t-22 -78.5t-58 -56t-79 -20.5zM879 -11q-43 0 -79 20.5t-58 56t-22 78.5q0 44 22 79.5t58 56t79 20.5q44 0 80 -21t57.5 -56.5t21.5 -78.5t-22 -78.5t-58 -56t-79 -20.5z
M539 77q28 0 47 19t19 48q0 30 -19 49t-47 19q-29 0 -47 -19t-18 -49q0 -29 18 -48t47 -19zM879 77q28 0 47 19t19 48q0 30 -19 49t-47 19q-29 0 -47 -19t-18 -49q0 -29 18 -48t47 -19z" />
    <glyph glyph-name="guilsinglleft" unicode="&#x2039;" horiz-adv-x="336" 
d="M182 92l-143 201l144 202h120l-143 -203l142 -200h-120z" />
    <glyph glyph-name="guilsinglright" unicode="&#x203a;" horiz-adv-x="336" 
d="M34 92l142 200l-143 203h120l144 -202l-143 -201h-120z" />
    <glyph glyph-name="fraction" unicode="&#x2044;" horiz-adv-x="252" 
d="M-78 -46l-72 45l477 704l74 -42z" />
    <glyph glyph-name="uni205F" unicode="&#x205f;" horiz-adv-x="222" 
 />
    <glyph glyph-name="uni2070" unicode="&#x2070;" horiz-adv-x="372" 
d="M186 360q-73 0 -117 56t-44 153t44 153.5t117 56.5q75 0 118 -56.5t43 -153.5t-43 -153t-118 -56zM186 688q-35 0 -50 -34.5t-15 -84.5q0 -47 15 -83t50 -36q36 0 50.5 36t14.5 83q0 50 -14.5 84.5t-50.5 34.5z" />
    <glyph glyph-name="uni2074" unicode="&#x2074;" horiz-adv-x="367" 
d="M10 451v45l93 275h94l-77 -229h84l25 104h69v-104h54v-91h-54v-83h-95v83h-193z" />
    <glyph glyph-name="uni2075" unicode="&#x2075;" horiz-adv-x="342" 
d="M105 513l-68 15v243h262v-92h-177v-70q12 9 29 14.5t36 5.5q60 0 96.5 -36t36.5 -93q0 -42 -20 -73.5t-54 -49.5t-77 -18q-40 0 -74.5 17t-56.5 51l64 53q12 -15 29 -25t40 -10t40.5 14t17.5 38q0 20 -15.5 34.5t-39.5 14.5q-22 0 -39 -9.5t-30 -23.5z" />
    <glyph glyph-name="uni2076" unicode="&#x2076;" horiz-adv-x="351" 
d="M18 545q0 111 49 172.5t136 61.5q37 0 73 -14.5t62 -42.5l-53 -63q-21 19 -41 27t-46 8q-32 0 -59 -25.5t-34 -83.5q19 17 42.5 26.5t50.5 9.5q59 0 97.5 -34t38.5 -87q0 -62 -41.5 -101t-113.5 -39q-46 0 -82.5 23.5t-57.5 65.5t-21 96zM121 494q0 -25 17.5 -39.5
t45.5 -14.5q27 0 44.5 14.5t17.5 39.5q0 24 -17.5 38.5t-44.5 14.5q-28 0 -45.5 -14.5t-17.5 -38.5z" />
    <glyph glyph-name="uni2077" unicode="&#x2077;" horiz-adv-x="331" 
d="M45 368l162 311h-187v92h306v-60l-178 -343h-103z" />
    <glyph glyph-name="uni2078" unicode="&#x2078;" horiz-adv-x="349" 
d="M175 360q-75 0 -114.5 36.5t-39.5 87.5q0 26 14.5 52t48.5 41q-31 16 -44 39t-13 45q0 47 38 82.5t110 35.5q71 0 108.5 -36t37.5 -82q0 -22 -13 -45t-44 -39q34 -16 49 -42t15 -52q0 -49 -39.5 -86t-113.5 -37zM175 606q22 0 35 15.5t13 32.5t-13 31.5t-35 14.5
q-24 0 -37 -14.5t-13 -31.5t13 -32.5t37 -15.5zM175 440q26 0 40.5 15t14.5 34q0 18 -14.5 34.5t-40.5 16.5q-28 0 -43 -16.5t-15 -34.5q0 -20 15.5 -34.5t42.5 -14.5z" />
    <glyph glyph-name="uni2079" unicode="&#x2079;" horiz-adv-x="351" 
d="M333 594q0 -111 -48.5 -172.5t-135.5 -61.5q-38 0 -73.5 14.5t-62.5 42.5l53 62q22 -19 41.5 -26.5t46.5 -7.5q31 0 58 25.5t35 83.5q-20 -17 -43.5 -27t-49.5 -10q-59 0 -97.5 34t-38.5 87q0 63 41 102t114 39q45 0 81.5 -23.5t57.5 -65.5t21 -96zM230 645
q0 25 -17.5 39.5t-44.5 14.5q-28 0 -45 -15t-17 -39t17 -38.5t45 -14.5q27 0 44.5 14.5t17.5 38.5z" />
    <glyph glyph-name="uni207A" unicode="&#x207a;" horiz-adv-x="318" 
d="M120 473v84h-80v76h80v84h78v-84h80v-76h-80v-84h-78z" />
    <glyph glyph-name="uni207B" unicode="&#x207b;" horiz-adv-x="317" 
d="M43 556v78h231v-78h-231z" />
    <glyph glyph-name="uni2080" unicode="&#x2080;" horiz-adv-x="372" 
d="M186 -128q-73 0 -117 56t-44 153t44 153.5t117 56.5q75 0 118 -56.5t43 -153.5t-43 -153t-118 -56zM186 200q-35 0 -50 -34.5t-15 -84.5q0 -47 15 -83t50 -36q36 0 50.5 36t14.5 83q0 50 -14.5 84.5t-50.5 34.5z" />
    <glyph glyph-name="uni2081" unicode="&#x2081;" horiz-adv-x="237" 
d="M201 283v-403h-97v272q-36 -20 -94 -20v91q50 0 82.5 16t40.5 44h68z" />
    <glyph glyph-name="uni2082" unicode="&#x2082;" horiz-adv-x="347" 
d="M312 169q0 -33 -20 -65.5t-58 -72.5l-57 -59h140v-92h-286v63l115 116q33 34 52 59.5t19 45.5q0 19 -13 28.5t-30 9.5q-19 0 -37.5 -10.5t-39.5 -37.5l-71 50q25 38 60.5 62.5t88.5 24.5q59 0 98 -34.5t39 -87.5z" />
    <glyph glyph-name="uni2083" unicode="&#x2083;" horiz-adv-x="334" 
d="M162 -129q-46 0 -82.5 19t-59.5 55l59 59q24 -26 40 -35.5t44 -9.5q21 0 38 10.5t17 30.5q0 15 -15 30t-57 15q-10 0 -22.5 -0.5t-22.5 -1.5v75q17 -2 23.5 -2h16.5q27 0 44 13.5t17 36.5q0 17 -14 27.5t-36 10.5q-42 0 -80 -48l-59 61q35 40 68.5 57t78.5 17
q60 0 97 -30.5t37 -76.5q0 -59 -43 -89q30 -14 47.5 -37.5t17.5 -52.5q0 -38 -20.5 -68.5t-55 -48t-78.5 -17.5z" />
    <glyph glyph-name="uni2084" unicode="&#x2084;" horiz-adv-x="367" 
d="M10 -37v45l93 275h94l-77 -229h84l25 104h69v-104h54v-91h-54v-83h-95v83h-193z" />
    <glyph glyph-name="uni2085" unicode="&#x2085;" horiz-adv-x="342" 
d="M105 25l-68 15v243h262v-92h-177v-70q12 9 29 14.5t36 5.5q60 0 96.5 -36t36.5 -93q0 -42 -20 -73.5t-54 -49.5t-77 -18q-40 0 -74.5 17t-56.5 51l64 53q12 -15 29 -25t40 -10t40.5 14t17.5 38q0 20 -15.5 34.5t-39.5 14.5q-22 0 -39 -9.5t-30 -23.5z" />
    <glyph glyph-name="uni2086" unicode="&#x2086;" horiz-adv-x="351" 
d="M18 57q0 111 49 172.5t136 61.5q37 0 73 -14.5t62 -42.5l-53 -63q-21 19 -41 27t-46 8q-32 0 -59 -25.5t-34 -83.5q19 17 42.5 26.5t50.5 9.5q59 0 97.5 -34t38.5 -87q0 -62 -41.5 -101t-113.5 -39q-46 0 -82.5 23.5t-57.5 65.5t-21 96zM121 6q0 -25 17.5 -39.5
t45.5 -14.5q27 0 44.5 14.5t17.5 39.5q0 24 -17.5 38.5t-44.5 14.5q-28 0 -45.5 -14.5t-17.5 -38.5z" />
    <glyph glyph-name="uni2087" unicode="&#x2087;" horiz-adv-x="331" 
d="M45 -120l162 311h-187v92h306v-60l-178 -343h-103z" />
    <glyph glyph-name="uni2088" unicode="&#x2088;" horiz-adv-x="349" 
d="M175 -128q-75 0 -114.5 36.5t-39.5 87.5q0 26 14.5 52t48.5 41q-31 16 -44 39t-13 45q0 47 38 82.5t110 35.5q71 0 108.5 -36t37.5 -82q0 -22 -13 -45t-44 -39q34 -16 49 -42t15 -52q0 -49 -39.5 -86t-113.5 -37zM175 118q22 0 35 15.5t13 32.5t-13 31.5t-35 14.5
q-24 0 -37 -14.5t-13 -31.5t13 -32.5t37 -15.5zM175 -48q26 0 40.5 15t14.5 34q0 18 -14.5 34.5t-40.5 16.5q-28 0 -43 -16.5t-15 -34.5q0 -20 15.5 -34.5t42.5 -14.5z" />
    <glyph glyph-name="uni2089" unicode="&#x2089;" horiz-adv-x="351" 
d="M333 106q0 -111 -48.5 -172.5t-135.5 -61.5q-38 0 -73.5 14.5t-62.5 42.5l53 62q22 -19 41.5 -26.5t46.5 -7.5q31 0 58 25.5t35 83.5q-20 -17 -43.5 -27t-49.5 -10q-59 0 -97.5 34t-38.5 87q0 63 41 102t114 39q45 0 81.5 -23.5t57.5 -65.5t21 -96zM230 157
q0 25 -17.5 39.5t-44.5 14.5q-28 0 -45 -15t-17 -39t17 -38.5t45 -14.5q27 0 44.5 14.5t17.5 38.5z" />
    <glyph glyph-name="uni208A" unicode="&#x208a;" horiz-adv-x="318" 
d="M120 -41v84h-80v76h80v84h78v-84h80v-76h-80v-84h-78z" />
    <glyph glyph-name="uni208B" unicode="&#x208b;" horiz-adv-x="317" 
d="M43 42v78h231v-78h-231z" />
    <glyph glyph-name="Euro" unicode="&#x20ac;" horiz-adv-x="626" 
d="M225 332q0 -13 1 -26h190l-27 -93h-145q19 -54 58.5 -84t97.5 -30q45 0 73.5 12t57.5 36l78 -82q-42 -38 -89.5 -57t-121.5 -19q-62 0 -116.5 27.5t-95 78t-61.5 118.5h-86v93h70v26v28h-70v94h89q21 63 61.5 110t94 73t114.5 26q71 0 116.5 -18.5t86.5 -57.5l-78 -74
q-27 19 -55 29t-68 10q-56 0 -94.5 -26t-58.5 -72h209l-27 -94h-203q-1 -13 -1 -28z" />
    <glyph glyph-name="trademark" unicode="&#x2122;" horiz-adv-x="821" 
d="M350 589h-112v-284h-98v284h-114v92h324v-92zM351 305l60 376h84l83 -210h2l82 210h85l59 -376h-93l-22 148l-5 79q-4 -14 -8.5 -30t-7.5 -22l-57 -170h-69l-57 170q-2 6 -7 22t-9 30l-5 -79l-22 -148h-93z" />
    <glyph glyph-name="uni2126" unicode="&#x2126;" horiz-adv-x="787" 
d="M338 117v-117h-293v102h118q-57 42 -90 106.5t-33 144.5q0 72 26.5 134t74 107.5t112.5 71t142 25.5q76 0 140.5 -25.5t112 -71t73.5 -107.5t26 -134q0 -79 -32.5 -144t-89.5 -107h117v-102h-293v117q53 12 93.5 44.5t63.5 81.5t23 110q0 64 -30.5 115t-83.5 80.5
t-120 29.5q-68 0 -121.5 -29.5t-84.5 -80.5t-31 -115q0 -91 50 -154.5t130 -81.5z" />
    <glyph glyph-name="uni2160" unicode="&#x2160;" horiz-adv-x="455" 
d="M421 0h-387v111h135v429h-135v110h387v-110h-136v-429h136v-111z" />
    <glyph glyph-name="uni2161" unicode="&#x2161;" horiz-adv-x="750" 
d="M34 0v111h135v429h-135v110h682v-110h-135v-429h135v-111h-682zM285 111h180v429h-180v-429z" />
    <glyph glyph-name="uni2162" unicode="&#x2162;" horiz-adv-x="1038" 
d="M34 0v111h135v429h-135v110h970v-110h-136v-429h136v-111h-970zM285 111h180v429h-180v-429zM581 111h172v429h-172v-429z" />
    <glyph glyph-name="uni2163" unicode="&#x2163;" horiz-adv-x="978" 
d="M34 0v111h135v429h-135v110h926v-110h-95l-132 -429h227v-111h-926zM285 111h231l-132 429h-99v-429zM501 540l124 -402l124 402h-248z" />
    <glyph glyph-name="uni2164" unicode="&#x2164;" horiz-adv-x="708" 
d="M19 0v111h227l-132 429h-95v110h670v-110h-94l-133 -429h227v-111h-670zM230 540l124 -402l124 402h-248z" />
    <glyph glyph-name="uni2165" unicode="&#x2165;" horiz-adv-x="978" 
d="M944 0h-925v111h227l-132 429h-95v110h925v-110h-135v-429h135v-111zM230 540l124 -402l124 402h-248zM462 111h231v429h-98z" />
    <glyph glyph-name="uni2166" unicode="&#x2166;" horiz-adv-x="1274" 
d="M19 0v111h227l-132 429h-95v110h1221v-110h-135v-429h135v-111h-1221zM230 540l124 -402l124 402h-248zM462 111h231v429h-98zM809 111h180v429h-180v-429z" />
    <glyph glyph-name="uni2167" unicode="&#x2167;" horiz-adv-x="1563" 
d="M19 0v111h227l-132 428h-95v111h1510v-111h-135v-428h135v-111h-1510zM230 539l124 -401l124 401h-248zM463 111h231v428h-99zM810 111h179v428h-179v-428zM1106 111h171v428h-171v-428z" />
    <glyph glyph-name="uni2168" unicode="&#x2168;" horiz-adv-x="964" 
d="M34 0v111h135v429h-135v110h901v-110h-107l-149 -215l148 -214h108v-111h-901zM548 325l-149 215h-114v-429h114zM522 540l91 -138l92 138h-183zM522 111h183l-92 137z" />
    <glyph glyph-name="uni2169" unicode="&#x2169;" horiz-adv-x="708" 
d="M29 -2v111h102l156 216l-155 215h-103v110h648v-110h-104l-155 -215l156 -216h103v-111h-648zM255 540l98 -142l97 142h-195zM254 109h197l-98 143z" />
    <glyph glyph-name="uni216C" unicode="&#x216c;" horiz-adv-x="613" 
d="M475 260h116v-260h-557v111h108v429h-108v110h359v-110h-135v-429h217v149z" />
    <glyph glyph-name="uni216D" unicode="&#x216d;" horiz-adv-x="740" 
d="M353 -11q-93 0 -163.5 43.5t-110 118.5t-39.5 170q0 98 39.5 175t110 121t163.5 44q65 0 119 -25t92 -70v84h115v-246h-116q-20 65 -72.5 105t-122.5 40q-60 0 -107.5 -29.5t-75 -81t-27.5 -117.5q0 -62 27.5 -112t75 -79t107.5 -29q70 0 122.5 39t72.5 104h116v-244
h-115v90q-37 -47 -91.5 -74t-119.5 -27z" />
    <glyph glyph-name="uni216E" unicode="&#x216e;" horiz-adv-x="733" 
d="M34 650h341q91 0 163 -40t113.5 -113.5t41.5 -176.5t-41.5 -174.5t-113.5 -108.5t-164 -37h-340v110h116v430h-116v110zM370 540h-104v-430h103q56 0 102.5 22.5t74 69t27.5 118.5q0 71 -27 120.5t-73.5 74.5t-102.5 25z" />
    <glyph glyph-name="uni216F" unicode="&#x216f;" horiz-adv-x="958" 
d="M10 0v111h81l83 428h-117v111h264l159 -421l157 421h258v-111h-110l82 -428h81v-111h-267v111h67l-44 257l-21 113q-13 -40 -25.5 -78t-24.5 -76l-109 -316h-90l-109 316q-12 37 -24.5 76t-24.5 78l-22 -113l-44 -257h67v-111h-267z" />
    <glyph glyph-name="arrowleft" unicode="&#x2190;" horiz-adv-x="1012" 
d="M376 502v-134h598v-116h-598v-135l-333 193z" />
    <glyph glyph-name="arrowup" unicode="&#x2191;" horiz-adv-x="497" 
d="M441 526h-134v-598h-117v598h-134l193 334z" />
    <glyph glyph-name="arrowright" unicode="&#x2192;" horiz-adv-x="1012" 
d="M636 117v135h-599v116h599v134l333 -192z" />
    <glyph glyph-name="arrowdown" unicode="&#x2193;" horiz-adv-x="497" 
d="M56 55h134v598h116v-598h135l-193 -334z" />
    <glyph glyph-name="arrowboth" unicode="&#x2194;" horiz-adv-x="1236" 
d="M376 117l-333 193l333 192v-134h484v134l334 -192l-334 -193v135h-484v-135z" />
    <glyph glyph-name="arrowupdn" unicode="&#x2195;" horiz-adv-x="502" 
d="M60 60h133v459h-133l191 331l191 -331h-133v-459h133l-191 -331z" />
    <glyph glyph-name="uni2196" unicode="&#x2196;" horiz-adv-x="763" 
d="M408 540l-95 -95l423 -423l-82 -82l-423 423l-95 -95l-100 372z" />
    <glyph glyph-name="uni2197" unicode="&#x2197;" horiz-adv-x="763" 
d="M630 270l-95 95l-423 -423l-82 82l423 423l-95 95l372 100z" />
    <glyph glyph-name="uni2198" unicode="&#x2198;" horiz-adv-x="764" 
d="M131 298l95 -95l423 423l82 -82l-423 -423l95 -95l-372 -100z" />
    <glyph glyph-name="uni2199" unicode="&#x2199;" horiz-adv-x="763" 
d="M359 27l95 95l-424 423l83 82l423 -423l95 95l99 -372z" />
    <glyph glyph-name="uni21C4" unicode="&#x21c4;" horiz-adv-x="1217" 
d="M839 345v133h-703v116h703v132l330 -190zM379 314v-132h703v-116h-703v-133l-330 191z" />
    <glyph glyph-name="uni21C5" unicode="&#x21c5;" horiz-adv-x="913" 
d="M442 514h-133v-702h-116v702h-133l191 331zM472 55h133v702h116v-702h132l-190 -331z" />
    <glyph glyph-name="uni21D4" unicode="&#x21d4;" horiz-adv-x="860" 
d="M241 0l-217 244l217 244l60 -56l-65 -73h388l-65 73l60 56l217 -244l-217 -244l-60 57l64 72h-386l64 -72zM169 205h522l35 39l-34 39h-524l-34 -39z" />
    <glyph glyph-name="forall" unicode="&#x2200;" horiz-adv-x="655" 
d="M267 0l-249 681h110l61 -170h279l60 170h109l-245 -681h-125zM227 405l103 -283l100 283h-203z" />
    <glyph glyph-name="partialdiff" unicode="&#x2202;" horiz-adv-x="608" 
d="M568 326q0 -41 -9.5 -87t-30.5 -90t-54.5 -80t-82 -57.5t-112.5 -21.5q-58 0 -111 28.5t-87 81t-34 124.5q0 67 31 118.5t83 80.5t115 29t107 -23t72 -57q-7 75 -35 121.5t-67 68t-81 21.5q-53 0 -91 -12t-81 -40l-41 95q39 23 71 37t65.5 20.5t77.5 6.5q57 0 109.5 -22
t94.5 -66.5t66.5 -113t24.5 -162.5zM167 223q0 -38 19 -64t47.5 -40t58.5 -14q69 0 108.5 40.5t51.5 107.5q-13 38 -55.5 65t-101.5 27q-53 0 -90.5 -32.5t-37.5 -89.5z" />
    <glyph glyph-name="thereexists" unicode="&#x2203;" horiz-adv-x="566" 
d="M68 0v111h314v176h-314v110h314v174h-314v110h431v-681h-431z" />
    <glyph glyph-name="uni2204" unicode="&#x2204;" horiz-adv-x="568" 
d="M69 0v107h98l30 183h-128v103h144l30 181h-174v107h191l21 128l75 -12l-19 -116h165v-681h-275l-21 -128l-75 12l19 116h-81zM290 393h96v181h-66zM244 107h142v183h-112z" />
    <glyph glyph-name="emptyset" unicode="&#x2205;" horiz-adv-x="856" 
d="M109 7l-70 77l87 74q-25 39 -38.5 85.5t-13.5 96.5q0 73 27.5 136.5t76.5 111.5t113 75.5t138 27.5q65 0 123.5 -22t104.5 -61l92 78l68 -77l-92 -78q26 -41 41 -89.5t15 -101.5q0 -73 -27 -136.5t-75.5 -111.5t-112.5 -75.5t-137 -27.5q-68 0 -128.5 24t-107.5 65z
M192 340q0 -56 25 -105l350 297q-29 22 -64.5 34t-73.5 12q-65 0 -119 -32t-86 -86t-32 -120zM429 102q64 0 117 32t85 86t32 120q0 61 -29 114l-353 -300q31 -24 68.5 -38t79.5 -14z" />
    <glyph glyph-name="uni2206" unicode="&#x2206;" horiz-adv-x="733" 
d="M9 0l357 692l358 -692h-715zM186 110h360l-180 349z" />
    <glyph glyph-name="uni2208" unicode="&#x2208;" horiz-adv-x="658" 
d="M308 10q-75 0 -133 25.5t-91.5 79.5t-33.5 138q0 85 33.5 138.5t91.5 79t133 25.5h300v-87h-300q-68 0 -107.5 -29.5t-51.5 -80.5h459v-85h-460q10 -54 50 -85.5t110 -31.5h300v-87h-300z" />
    <glyph glyph-name="uni2209" unicode="&#x2209;" horiz-adv-x="658" 
d="M255 -118l-73 28l45 108q-79 18 -128 75.5t-49 159.5q0 85 33.5 138.5t91.5 79t133 25.5h119l55 131l72 -27l-43 -104h97v-87h-133l-46 -110h179v-85h-215l-48 -117h263v-87h-300zM308 409q-68 0 -107.5 -29.5t-51.5 -80.5h196l45 110h-82zM148 214q8 -44 36.5 -73.5
t77.5 -39.5l47 113h-161z" />
    <glyph glyph-name="product" unicode="&#x220f;" horiz-adv-x="690" 
d="M498 0v570h-306v-570h-116v681h538v-681h-116z" />
    <glyph glyph-name="summation" unicode="&#x2211;" horiz-adv-x="588" 
d="M553 111v-111h-496v105l214 235l-214 236v105h496v-111h-340l206 -230l-206 -229h340z" />
    <glyph glyph-name="minus" unicode="&#x2212;" horiz-adv-x="670" 
d="M538 287h-405v107h405v-107z" />
    <glyph glyph-name="radical" unicode="&#x221a;" horiz-adv-x="788" 
d="M239 -111l-230 651h119l177 -496l307 869h258v-112h-177l-322 -912h-132z" />
    <glyph glyph-name="infinity" unicode="&#x221e;" horiz-adv-x="870" 
d="M239 115q-57 0 -100.5 23.5t-67.5 65t-24 95.5q0 53 24 94.5t67.5 65t100.5 23.5q63 0 110.5 -30.5t85.5 -70.5q39 40 86 70.5t110 30.5q57 0 100.5 -23.5t68 -65t24.5 -94.5q0 -54 -24.5 -95.5t-68 -65t-100.5 -23.5q-63 0 -110.5 30.5t-85.5 71.5q-39 -41 -86 -71.5
t-110 -30.5zM160 299q0 -33 22 -54t57 -21t64.5 21.5t58.5 52.5q-29 32 -58.5 53t-64.5 21t-57 -20t-22 -53zM631 372q-35 0 -64.5 -21t-57.5 -52q29 -31 58.5 -53t63.5 -22q35 0 56.5 21t21.5 54t-21.5 53t-56.5 20z" />
    <glyph glyph-name="logicaland" unicode="&#x2227;" horiz-adv-x="649" 
d="M140 -11l-94 44l239 488h78l241 -488l-95 -45l-185 380z" />
    <glyph glyph-name="logicalor" unicode="&#x2228;" horiz-adv-x="649" 
d="M285 -8l-239 488l94 44l184 -380l185 381l95 -45l-241 -488h-78z" />
    <glyph glyph-name="intersection" unicode="&#x2229;" horiz-adv-x="565" 
d="M62 10v274q0 59 21.5 112t70 86t129.5 33q80 0 128.5 -33t70 -86t21.5 -112v-274h-93v274q0 70 -35 104.5t-92 34.5q-58 0 -93 -34.5t-35 -104.5v-274h-93z" />
    <glyph glyph-name="uni222A" unicode="&#x222a;" horiz-adv-x="565" 
d="M62 507h93v-274q0 -70 35 -104.5t92 -34.5q58 0 93 34.5t35 104.5v274h93v-274q0 -59 -21.5 -112t-70 -86t-129.5 -33q-80 0 -128.5 33t-70 86t-21.5 112v274z" />
    <glyph glyph-name="integral" unicode="&#x222b;" horiz-adv-x="384" 
d="M250 -106q0 -81 -39.5 -121t-108.5 -40q-20 0 -37 3.5t-33 8.5v107q13 -4 24 -5.5t25 -1.5q22 0 37.5 14.5t15.5 46.5v775q0 81 39.5 121t108.5 40q20 0 37 -3.5t33 -8.5v-107q-13 4 -24 6t-25 2q-22 0 -37.5 -14.5t-15.5 -46.5v-776z" />
    <glyph glyph-name="congruent" unicode="&#x2245;" horiz-adv-x="569" 
d="M425 607l91 -45q-22 -45 -53 -76.5t-88 -31.5q-38 0 -64.5 13t-49.5 26.5t-49 13.5q-25 0 -40.5 -16t-30.5 -40l-90 46q23 46 54 77t87 31q38 0 64.5 -13t49 -26.5t49.5 -13.5q25 0 40 16t30 39zM53 254v99h440v-99h-440zM53 59v99h440v-99h-440z" />
    <glyph glyph-name="approxequal" unicode="&#x2248;" horiz-adv-x="670" 
d="M477 470l91 -45q-22 -46 -53 -77t-88 -31q-38 0 -65 13t-49.5 26t-49.5 13q-24 0 -39.5 -15.5t-31.5 -40.5l-89 46q23 47 54 78t86 31q39 0 65.5 -13t49 -26.5t49.5 -13.5q24 0 39.5 16t30.5 39zM568 219q-22 -46 -53 -77.5t-88 -31.5q-38 0 -65 13t-49.5 26t-49.5 13
q-24 0 -39.5 -15.5t-31.5 -39.5l-89 46q23 47 54 78t86 31q39 0 65.5 -13.5t49 -26.5t49.5 -13q24 0 39.5 15.5t30.5 39.5z" />
    <glyph glyph-name="notequal" unicode="&#x2260;" horiz-adv-x="670" 
d="M115 145v99h150l36 97h-186v99h223l48 129l89 -32l-37 -97h118v-99h-155l-36 -97h191v-99h-228l-50 -135l-88 33l38 102h-113z" />
    <glyph glyph-name="lessequal" unicode="&#x2264;" horiz-adv-x="670" 
d="M124 359v85l379 160l43 -95l-279 -108l279 -107l-43 -95zM540 127v-107h-416v107h416z" />
    <glyph glyph-name="greaterequal" unicode="&#x2265;" horiz-adv-x="670" 
d="M547 359l-380 -160l-43 95l279 107l-279 108l43 95l380 -160v-85zM130 127h417v-107h-417v107z" />
    <glyph glyph-name="uni2282" unicode="&#x2282;" horiz-adv-x="658" 
d="M50 253q0 85 33.5 138.5t91.5 79t133 25.5h300v-92h-300q-81 0 -121.5 -41.5t-40.5 -109.5t40.5 -109t121.5 -41h300v-93h-300q-75 0 -133 25.5t-91.5 79.5t-33.5 138z" />
    <glyph glyph-name="uni2283" unicode="&#x2283;" horiz-adv-x="658" 
d="M50 10v93h300q81 0 121.5 41t40.5 109t-40.5 109.5t-121.5 41.5h-300v92h300q75 0 133 -25.5t91.5 -79t33.5 -138.5q0 -84 -33.5 -138t-91.5 -79.5t-133 -25.5h-300z" />
    <glyph glyph-name="uni2284" unicode="&#x2284;" horiz-adv-x="658" 
d="M50 253q0 85 33.5 138.5t91.5 79t133 25.5h116l54 133l73 -27l-44 -106h101v-92h-139l-123 -301h262v-93h-300v0l-53 -128l-73 27l45 109q-80 18 -128.5 75.5t-48.5 159.5zM146 253q0 -58 29.5 -97t87.5 -50l122 298h-77q-81 0 -121.5 -41.5t-40.5 -109.5z" />
    <glyph glyph-name="uni2285" unicode="&#x2285;" horiz-adv-x="658" 
d="M50 10v93h139l123 301h-262v92h300v0l53 128l73 -27l-45 -109q79 -18 128 -75.5t49 -159.5q0 -84 -33.5 -138t-91.5 -79.5t-133 -25.5h-116l-54 -133l-73 27l43 106h-100zM512 253q0 58 -29.5 97t-88.5 50l-122 -297h78q81 0 121.5 41t40.5 109z" />
    <glyph glyph-name="uni2286" unicode="&#x2286;" horiz-adv-x="667" 
d="M50 371q0 84 33.5 138t91.5 79.5t133 25.5h300v-93h-300q-81 0 -121.5 -41t-40.5 -109t40.5 -109.5t121.5 -41.5h300v-92h-300q-75 0 -133 25.5t-91.5 79.5t-33.5 138zM69 -71v81h548v-81h-548z" />
    <glyph glyph-name="uni2287" unicode="&#x2287;" horiz-adv-x="667" 
d="M59 128v92h300q81 0 121.5 41.5t40.5 109.5t-40.5 109t-121.5 41h-300v93h300q75 0 133 -25.5t91.5 -79.5t33.5 -138t-33.5 -138t-91.5 -79.5t-133 -25.5h-300zM50 -71v81h548v-81h-548z" />
    <glyph glyph-name="uni2288" unicode="&#x2288;" horiz-adv-x="667" 
d="M69 -71v81h178l31 119q-67 4 -118.5 31.5t-80.5 79.5t-29 131q0 84 33.5 138t91.5 79.5t133 25.5h97l31 119l78 -20l-25 -99h119v-93h-144l-78 -301h222v-92h-247l-31 -118h287v-81h-308l-25 -99l-79 20l20 79h-156zM146 371q0 -68 39.5 -109.5t116.5 -40.5l79 300h-73
q-81 0 -121.5 -41t-40.5 -109z" />
    <glyph glyph-name="uni2289" unicode="&#x2289;" horiz-adv-x="667" 
d="M222 -170l-79 20l21 79h-114v81h135l31 118h-157v92h181l79 301h-260v93h284l31 119l79 -20l-28 -104q86 -15 139 -73t53 -165q0 -84 -33.5 -138t-91.5 -79.5t-133 -25.5h-59l-31 -118h329v-81h-350zM521 371q0 58 -30 97t-89 50l-78 -298h35q81 0 121.5 41.5t40.5 109.5
z" />
    <glyph glyph-name="uni228A" unicode="&#x228a;" horiz-adv-x="667" 
d="M50 371q0 84 33.5 138t91.5 79.5t133 25.5h300v-93h-300q-81 0 -121.5 -41t-40.5 -109t40.5 -109.5t121.5 -41.5h300v-92h-300q-75 0 -133 25.5t-91.5 79.5t-33.5 138zM69 -71v81h253l40 94l65 -27l-28 -67h218v-81h-252l-41 -99l-66 27l30 72h-219z" />
    <glyph glyph-name="uni228B" unicode="&#x228b;" horiz-adv-x="647" 
d="M617 371q0 -84 -33.5 -138t-91.5 -79.5t-133 -25.5h-300v92h300q81 0 121.5 41.5t40.5 109.5t-40.5 109t-121.5 41h-300v93h300q75 0 133 -25.5t91.5 -79.5t33.5 -138zM316 -170l-66 27l30 72h-230v81h264l40 94l65 -27l-28 -67h207v-81h-241z" />
    <glyph glyph-name="lozenge" unicode="&#x25ca;" horiz-adv-x="598" 
d="M234 0l-194 335v11l194 335h130l194 -335v-11l-194 -335h-130zM299 111l133 230l-133 229l-134 -229z" />
    <glyph glyph-name="circle" unicode="&#x25cb;" horiz-adv-x="780" 
d="M390 -26q-74 0 -138.5 28t-113 77.5t-75.5 115.5t-27 143t27 143t75.5 116t113 78t138.5 28q75 0 139 -28t112.5 -78t75.5 -116t27 -143t-27 -143t-75.5 -115.5t-112.5 -77.5t-139 -28zM390 55q78 0 139.5 38t97.5 102t36 143t-36 143.5t-97.5 102.5t-139.5 38
q-77 0 -139 -38t-98 -102.5t-36 -143.5t36 -143t98 -102t139 -38z" />
    <glyph glyph-name="uni25CC" unicode="&#x25cc;" horiz-adv-x="764" 
d="M382 615q-15 0 -26 11t-11 26t11 26t26 11t26 -11t11 -26t-11 -26t-26 -11zM501 592q-15 0 -25.5 10.5t-10.5 25.5t10.5 26t25.5 11t26 -11t11 -26t-11 -25.5t-26 -10.5zM263 592q-15 0 -26 10.5t-11 25.5t11 26t26 11t25.5 -11t10.5 -26t-10.5 -25.5t-25.5 -10.5z
M603 524q-15 0 -26 11t-11 26t11 26t26 11t26 -11t11 -26t-11 -26t-26 -11zM161 524q-15 0 -26 11t-11 26t11 26t26 11t26 -11t11 -26t-11 -26t-26 -11zM670 423q-15 0 -25.5 10.5t-10.5 25.5t10.5 26t25.5 11t26 -11t11 -26t-11 -25.5t-26 -10.5zM94 423q-15 0 -26 10.5
t-11 25.5t11 26t26 11t25.5 -11t10.5 -26t-10.5 -25.5t-25.5 -10.5zM694 303q-15 0 -26 11t-11 26t11 26t26 11t26 -11t11 -26t-11 -26t-26 -11zM70 303q-15 0 -26 11t-11 26t11 26t26 11t26 -11t11 -26t-11 -26t-26 -11zM670 184q-15 0 -25.5 11t-10.5 26t10.5 25.5
t25.5 10.5t26 -10.5t11 -25.5t-11 -26t-26 -11zM94 184q-15 0 -26 11t-11 26t11 25.5t26 10.5t25.5 -10.5t10.5 -25.5t-10.5 -26t-25.5 -11zM603 82q-15 0 -26 11t-11 26t11 26t26 11t26 -11t11 -26t-11 -26t-26 -11zM161 82q-15 0 -26 11t-11 26t11 26t26 11t26 -11t11 -26
t-11 -26t-26 -11zM501 15q-15 0 -25.5 11t-10.5 26t10.5 25.5t25.5 10.5t26 -10.5t11 -25.5t-11 -26t-26 -11zM263 15q-15 0 -26 11t-11 26t11 25.5t26 10.5t25.5 -10.5t10.5 -25.5t-10.5 -26t-25.5 -11zM382 -9q-15 0 -26 11t-11 26t11 26t26 11t26 -11t11 -26t-11 -26
t-26 -11z" />
    <glyph glyph-name="uni25CF" unicode="&#x25cf;" horiz-adv-x="723" 
d="M362 13q-67 0 -124.5 25t-100.5 69t-67 103.5t-24 127.5t24 127.5t67 104t100.5 69.5t124.5 25q66 0 123.5 -25t100 -69.5t66.5 -104t24 -127.5t-24 -127.5t-66.5 -103.5t-100 -69t-123.5 -25z" />
    <glyph glyph-name="uni2780" unicode="&#x2780;" horiz-adv-x="780" 
d="M390 -26q-74 0 -138.5 28t-113 77.5t-75.5 115.5t-27 143t27 143t75.5 116t113 78t138.5 28q75 0 139 -28t112.5 -78t75.5 -116t27 -143t-27 -143t-75.5 -115.5t-112.5 -77.5t-139 -28zM390 55q78 0 139.5 38t97.5 102t36 143t-36 143.5t-97.5 102.5t-139.5 38
q-77 0 -139 -38t-98 -102.5t-36 -143.5t36 -143t98 -102t139 -38zM351 137v270q-36 -20 -94 -20v90q50 0 82.5 16t41.5 44h65v-400h-95z" />
    <glyph glyph-name="uni2781" unicode="&#x2781;" horiz-adv-x="780" 
d="M390 -26q-74 0 -138.5 28t-113 77.5t-75.5 115.5t-27 143t27 143t75.5 116t113 78t138.5 28q75 0 139 -28t112.5 -78t75.5 -116t27 -143t-27 -143t-75.5 -115.5t-112.5 -77.5t-139 -28zM390 55q78 0 139.5 38t97.5 102t36 143t-36 143.5t-97.5 102.5t-139.5 38
q-77 0 -139 -38t-98 -102.5t-36 -143.5t36 -143t98 -102t139 -38zM245 147v62l114 115q33 34 52 59t19 45q0 19 -13.5 29t-29.5 10q-19 0 -37 -11t-39 -37l-71 49q25 38 60 62t88 24q58 0 97 -34.5t39 -86.5q0 -32 -20 -64t-58 -72l-56 -60h138v-90h-283z" />
    <glyph glyph-name="uni2782" unicode="&#x2782;" horiz-adv-x="780" 
d="M390 -26q-74 0 -138.5 28t-113 77.5t-75.5 115.5t-27 143t27 143t75.5 116t113 78t138.5 28q75 0 139 -28t112.5 -78t75.5 -116t27 -143t-27 -143t-75.5 -115.5t-112.5 -77.5t-139 -28zM390 55q78 0 139.5 38t97.5 102t36 143t-36 143.5t-97.5 102.5t-139.5 38
q-77 0 -139 -38t-98 -102.5t-36 -143.5t36 -143t98 -102t139 -38zM383 129q-93 0 -140 74l58 58q24 -26 40 -35.5t44 -9.5q21 0 37.5 10.5t16.5 30.5q0 15 -15 30t-57 15q-10 0 -22 -0.5t-22 -1.5v74q17 -1 23.5 -1.5t16.5 -0.5q26 0 43 13.5t17 36.5q0 17 -13.5 27.5
t-35.5 10.5q-42 0 -79 -47l-59 60q34 39 67.5 56t77.5 17q60 0 97 -30t37 -76q0 -59 -44 -89q30 -13 47.5 -36.5t17.5 -51.5q0 -39 -20 -69t-54.5 -47.5t-78.5 -17.5z" />
    <glyph glyph-name="uni2783" unicode="&#x2783;" horiz-adv-x="780" 
d="M390 -26q-74 0 -138.5 28t-113 77.5t-75.5 115.5t-27 143t27 143t75.5 116t113 78t138.5 28q75 0 139 -28t112.5 -78t75.5 -116t27 -143t-27 -143t-75.5 -115.5t-112.5 -77.5t-139 -28zM390 55q78 0 139.5 38t97.5 102t36 143t-36 143.5t-97.5 102.5t-139.5 38
q-77 0 -139 -38t-98 -102.5t-36 -143.5t36 -143t98 -102t139 -38zM405 144v82h-192v44l80 273h93l-67 -227h86l26 103h69v-103h53v-90h-53v-82h-95z" />
    <glyph glyph-name="uni2784" unicode="&#x2784;" horiz-adv-x="780" 
d="M390 -26q-74 0 -138.5 28t-113 77.5t-75.5 115.5t-27 143t27 143t75.5 116t113 78t138.5 28q75 0 139 -28t112.5 -78t75.5 -116t27 -143t-27 -143t-75.5 -115.5t-112.5 -77.5t-139 -28zM390 55q78 0 139.5 38t97.5 102t36 143t-36 143.5t-97.5 102.5t-139.5 38
q-77 0 -139 -38t-98 -102.5t-36 -143.5t36 -143t98 -102t139 -38zM387 127q-40 0 -74 16.5t-56 50.5l63 52q12 -15 29.5 -24.5t39.5 -9.5q23 0 40.5 13.5t17.5 37.5q0 21 -15 35.5t-40 14.5q-22 0 -39 -9.5t-29 -24.5l-68 15v241h260v-91h-176v-70q28 20 66 20q59 0 95 -36
t36 -92q0 -41 -20 -72.5t-54 -49t-76 -17.5z" />
    <glyph glyph-name="uni2785" unicode="&#x2785;" horiz-adv-x="780" 
d="M390 -26q-74 0 -138.5 28t-113 77.5t-75.5 115.5t-27 143t27 143t75.5 116t113 78t138.5 28q75 0 139 -28t112.5 -78t75.5 -116t27 -143t-27 -143t-75.5 -115.5t-112.5 -77.5t-139 -28zM390 55q78 0 139.5 38t97.5 102t36 143t-36 143.5t-97.5 102.5t-139.5 38
q-77 0 -139 -38t-98 -102.5t-36 -143.5t36 -143t98 -102t139 -38zM387 132q-45 0 -81 23.5t-57 65t-21 95.5q0 110 48.5 171t134.5 61q37 0 72.5 -15t61.5 -42l-52 -62q-21 19 -41 27t-45 8q-32 0 -59 -26t-34 -83q20 17 43 26.5t51 9.5q57 0 95 -33.5t38 -86.5
q0 -61 -41 -100t-113 -39zM392 211q28 0 45 14.5t17 39.5q0 24 -17 38.5t-45 14.5q-27 0 -44.5 -14.5t-17.5 -38.5q0 -25 17.5 -39.5t44.5 -14.5z" />
    <glyph glyph-name="uni2786" unicode="&#x2786;" horiz-adv-x="780" 
d="M390 -26q-74 0 -138.5 28t-113 77.5t-75.5 115.5t-27 143t27 143t75.5 116t113 78t138.5 28q75 0 139 -28t112.5 -78t75.5 -116t27 -143t-27 -143t-75.5 -115.5t-112.5 -77.5t-139 -28zM390 55q78 0 139.5 38t97.5 102t36 143t-36 143.5t-97.5 102.5t-139.5 38
q-77 0 -139 -38t-98 -102.5t-36 -143.5t36 -143t98 -102t139 -38zM275 137l141 308h-165v91h282v-59l-156 -340h-102z" />
    <glyph glyph-name="uni2787" unicode="&#x2787;" horiz-adv-x="780" 
d="M390 -26q-74 0 -138.5 28t-113 77.5t-75.5 115.5t-27 143t27 143t75.5 116t113 78t138.5 28q75 0 139 -28t112.5 -78t75.5 -116t27 -143t-27 -143t-75.5 -115.5t-112.5 -77.5t-139 -28zM390 55q78 0 139.5 38t97.5 102t36 143t-36 143.5t-97.5 102.5t-139.5 38
q-77 0 -139 -38t-98 -102.5t-36 -143.5t36 -143t98 -102t139 -38zM390 129q-74 0 -113 36t-39 86q0 27 15 53t50 40q-33 16 -46 39t-13 45q0 46 37.5 81.5t108.5 35.5q70 0 107.5 -35.5t37.5 -81.5q0 -22 -13 -44.5t-46 -38.5q35 -16 51 -42t16 -53q0 -48 -39.5 -84.5
t-113.5 -36.5zM390 373q22 0 35 15.5t13 32.5t-13 31.5t-35 14.5q-23 0 -36 -14.5t-13 -31.5t13 -32.5t36 -15.5zM390 208q26 0 40.5 15t14.5 34q0 18 -14.5 34.5t-40.5 16.5q-27 0 -42 -16t-15 -35t15 -34t42 -15z" />
    <glyph glyph-name="uni2788" unicode="&#x2788;" horiz-adv-x="780" 
d="M390 -26q-75 0 -139 28t-112.5 77.5t-75.5 115.5t-27 143t27 143t75.5 116t112.5 78t139 28q74 0 138.5 -28t113 -78t75.5 -116t27 -143t-27 -143t-75.5 -115.5t-113 -77.5t-138.5 -28zM390 55q77 0 139 38t98 102t36 143t-36 143.5t-98 102.5t-139 38q-78 0 -139.5 -38
t-97.5 -102.5t-36 -143.5t36 -143t97.5 -102t139.5 -38zM369 129q-38 0 -73.5 14.5t-60.5 42.5l52 62q21 -19 40.5 -27t46.5 -8q31 0 58 26t33 82q-19 -16 -42.5 -25.5t-50.5 -9.5q-57 0 -95.5 33.5t-38.5 86.5q0 61 41.5 100t112.5 39q46 0 81.5 -23.5t56.5 -65t21 -95.5
q0 -110 -48 -171t-134 -61zM388 359q27 0 44.5 14.5t17.5 38.5q0 25 -17.5 39.5t-44.5 14.5q-28 0 -45 -14.5t-17 -39.5q0 -24 17 -38.5t45 -14.5z" />
    <glyph glyph-name="uni278A" unicode="&#x278a;" horiz-adv-x="723" 
d="M362 13q-67 0 -124.5 25t-100.5 69t-67 103.5t-24 127.5t24 127.5t67 104t100.5 69.5t124.5 25q66 0 123.5 -25t100 -69.5t66.5 -104t24 -127.5t-24 -127.5t-66.5 -103.5t-100 -69t-123.5 -25zM323 137h95v400h-65q-8 -28 -41 -44t-82 -16v-90q57 0 93 20v-270z" />
    <glyph glyph-name="uni278B" unicode="&#x278b;" horiz-adv-x="723" 
d="M46 338q0 68 24 127.5t67 104t100.5 69.5t124.5 25q66 0 123.5 -25t100 -69.5t66.5 -104t24 -127.5t-24 -127.5t-66.5 -103.5t-100 -69t-123.5 -25q-67 0 -124.5 25t-100.5 69t-67 103.5t-24 127.5zM499 235h-138l56 60q38 40 57.5 72t19.5 64q0 53 -38.5 87t-96.5 34
q-53 0 -88 -24t-60 -62l70 -49q22 27 40 37.5t37 10.5q16 0 29.5 -10t13.5 -29t-19 -44.5t-52 -59.5l-114 -115v-62h283v90z" />
    <glyph glyph-name="uni278C" unicode="&#x278c;" horiz-adv-x="723" 
d="M46 338q0 68 24 127.5t67 104t100.5 69.5t124.5 25q66 0 123.5 -25t100 -69.5t66.5 -104t24 -127.5t-24 -127.5t-66.5 -103.5t-100 -69t-123.5 -25q-67 0 -124.5 25t-100.5 69t-67 103.5t-24 127.5zM507 263q0 28 -18 51.5t-47 36.5q43 30 43 89q0 46 -37 76t-97 30
q-44 0 -77 -17t-67 -56l58 -60q37 47 79 47q22 0 35.5 -10.5t13.5 -27.5q0 -23 -16.5 -36.5t-43.5 -13.5q-10 0 -16 0.5t-23 1.5v-74q9 1 21.5 1.5t21.5 0.5q43 0 57.5 -15t14.5 -30q0 -20 -16.5 -30.5t-37.5 -10.5q-27 0 -43 9.5t-40 35.5l-59 -58q47 -74 141 -74
q43 0 77.5 17.5t55 47.5t20.5 69z" />
    <glyph glyph-name="uni278D" unicode="&#x278d;" horiz-adv-x="723" 
d="M46 338q0 68 24 127.5t67 104t100.5 69.5t124.5 25q66 0 123.5 -25t100 -69.5t66.5 -104t24 -127.5t-24 -127.5t-66.5 -103.5t-100 -69t-123.5 -25q-67 0 -124.5 25t-100.5 69t-67 103.5t-24 127.5zM524 225v91h-53v103h-70l-25 -103h-87l68 227h-93l-81 -273v-45h193
v-82h95v82h53z" />
    <glyph glyph-name="uni278E" unicode="&#x278e;" horiz-adv-x="723" 
d="M362 13q-67 0 -124.5 25t-100.5 69t-67 103.5t-24 127.5t24 127.5t67 104t100.5 69.5t124.5 25q66 0 123.5 -25t100 -69.5t66.5 -104t24 -127.5t-24 -127.5t-66.5 -103.5t-100 -69t-123.5 -25zM358 128q42 0 76 18t54 49.5t20 72.5q0 56 -36 92t-95 36q-38 0 -66 -20v70
h176v91h-260v-241l68 -15q12 14 29 23.5t39 9.5q25 0 40 -14.5t15 -34.5q0 -24 -17.5 -38t-40.5 -14q-22 0 -39.5 10t-29.5 25l-63 -52q22 -34 56 -51t74 -17z" />
    <glyph glyph-name="uni278F" unicode="&#x278f;" horiz-adv-x="723" 
d="M676 339q0 -69 -24 -128t-67 -103.5t-100 -69.5t-124 -25q-66 0 -123.5 25t-100.5 69.5t-67 103.5t-24 128q0 68 24 127t67 103.5t100.5 69.5t123.5 25q67 0 124 -25t100 -69.5t67 -103.5t24 -127zM200 316q0 -54 21 -95.5t57 -65t82 -23.5q71 0 112 39t41 100
q0 53 -38 86.5t-95 33.5q-27 0 -50.5 -9.5t-43.5 -26.5q7 57 34 83t58 26q26 0 46 -8t41 -27l52 62q-26 27 -61.5 42t-72.5 15q-86 0 -134.5 -61t-48.5 -171zM302 265q0 24 17.5 38.5t44.5 14.5q28 0 45 -14.5t17 -38.5q0 -25 -17 -39.5t-45 -14.5q-27 0 -44.5 14.5
t-17.5 39.5z" />
    <glyph glyph-name="uni2790" unicode="&#x2790;" horiz-adv-x="723" 
d="M46 338q0 68 24 127.5t67 104t100.5 69.5t124.5 25q66 0 123.5 -25t100 -69.5t66.5 -104t24 -127.5t-24 -127.5t-66.5 -103.5t-100 -69t-123.5 -25q-67 0 -124.5 25t-100.5 69t-67 103.5t-24 127.5zM504 477v59h-282v-91h165l-140 -308h101z" />
    <glyph glyph-name="uni2791" unicode="&#x2791;" horiz-adv-x="723" 
d="M362 13q-67 0 -124.5 25t-100.5 69t-67 103.5t-24 127.5t24 127.5t67 104t100.5 69.5t124.5 25q66 0 123.5 -25t100 -69.5t66.5 -104t24 -127.5t-24 -127.5t-66.5 -103.5t-100 -69t-123.5 -25zM361 129q74 0 113.5 36.5t39.5 84.5q0 27 -16 53t-51 42q33 16 46 38.5
t13 44.5q0 46 -37 81.5t-108 35.5t-108 -35.5t-37 -81.5q0 -22 13 -45t45 -39q-35 -14 -50 -40t-15 -53q0 -50 39 -86t113 -36zM361 373q-23 0 -36 15.5t-13 32.5t13 31.5t36 14.5t36 -14.5t13 -31.5t-13 -32.5t-36 -15.5zM361 208q-26 0 -41.5 15t-15.5 34t15 35t42 16
q26 0 41 -16.5t15 -34.5q0 -19 -15 -34t-41 -15z" />
    <glyph glyph-name="uni2792" unicode="&#x2792;" horiz-adv-x="723" 
d="M46 338q0 69 24 128t67 103.5t100.5 69.5t124.5 25q66 0 123.5 -25t100 -69.5t66.5 -103.5t24 -128q0 -68 -24 -127.5t-66.5 -103.5t-100 -69t-123.5 -25q-67 0 -124.5 25t-100.5 69t-67 103.5t-24 127.5zM522 361q0 54 -21 95.5t-56.5 65t-81.5 23.5q-71 0 -112 -39
t-41 -100q0 -53 37.5 -86.5t95.5 -33.5q27 0 50.5 9.5t43.5 26.5q-7 -57 -34 -83t-57 -26q-28 0 -47.5 8t-40.5 27l-52 -62q25 -27 60.5 -42t73.5 -15q86 0 134 61t48 171zM421 412q0 -23 -17.5 -38t-44.5 -15q-28 0 -45 15t-17 38q0 25 17 39.5t45 14.5q27 0 44.5 -14.5
t17.5 -39.5z" />
    <glyph glyph-name="uni27D1" unicode="&#x27d1;" horiz-adv-x="649" 
d="M140 -11l-94 44l239 488h78l241 -488l-95 -45l-185 380zM324 50q-27 0 -47 19.5t-20 46.5q0 28 20 48t47 20q28 0 47.5 -20t19.5 -48q0 -27 -19.5 -46.5t-47.5 -19.5z" />
    <glyph glyph-name="uni3000" unicode="&#x3000;" horiz-adv-x="1000" 
 />
    <glyph glyph-name="fi" unicode="&#xfb01;" horiz-adv-x="562" 
d="M96 0v376h-72v107h72v48q0 80 40 120.5t108 40.5q22 0 39.5 -3.5t30.5 -6.5v-107q-11 2 -21 4t-25 2q-23 0 -39.5 -14.5t-16.5 -48.5v-35h91v-107h-91v-376h-116zM500 0h-116v488h116v-488zM370 640q0 32 19.5 52.5t53.5 20.5q32 0 52 -20.5t20 -52.5t-20 -52t-52 -20
q-34 0 -53.5 20t-19.5 52z" />
    <glyph glyph-name="fl" unicode="&#xfb02;" horiz-adv-x="586" 
d="M96 0v376h-72v107h72v48q0 80 40 120.5t108 40.5q22 0 39.5 -3.5t30.5 -6.5v-107q-11 2 -21 4t-25 2q-23 0 -39.5 -14.5t-16.5 -48.5v-35h91v-107h-91v-376h-116zM496 -5q-44 0 -74.5 30t-30.5 91v565h114v-524q0 -33 15 -44t35 -11v-99q-12 -4 -27.5 -6t-31.5 -2z" />
    <glyph glyph-name="uniFFE3" unicode="&#xffe3;" horiz-adv-x="295" 
d="M288 801h-281v112h281v-112z" />
    <glyph glyph-name="u1F10B" unicode="&#x1f10b;" horiz-adv-x="780" 
d="M390 -26q-74 0 -138.5 28t-113 77.5t-75.5 115.5t-27 143t27 143t75.5 116t113 78t138.5 28q75 0 139 -28t112.5 -78t75.5 -116t27 -143t-27 -143t-75.5 -115.5t-112.5 -77.5t-139 -28zM390 55q78 0 139.5 38t97.5 102t36 143t-36 143.5t-97.5 102.5t-139.5 38
q-77 0 -139 -38t-98 -102.5t-36 -143.5t36 -143t98 -102t139 -38zM390 130q-73 0 -116.5 56t-43.5 152t43.5 152t116.5 56q74 0 117 -56t43 -152t-43 -152t-117 -56zM390 220q35 0 50 35.5t15 82.5q0 49 -15 83.5t-50 34.5q-36 0 -50.5 -34.5t-14.5 -83.5q0 -47 14.5 -82.5
t50.5 -35.5z" />
    <glyph glyph-name="u1F10C" unicode="&#x1f10c;" horiz-adv-x="723" 
d="M362 13q-67 0 -124.5 25t-100.5 69t-67 103.5t-24 127.5t24 127.5t67 104t100.5 69.5t124.5 25q66 0 123.5 -25t100 -69.5t66.5 -104t24 -127.5t-24 -127.5t-66.5 -103.5t-100 -69t-123.5 -25zM362 130q73 0 116 56t43 152t-43 152t-116 56t-117 -56t-44 -152t44 -152
t117 -56zM362 220q-36 0 -50.5 35.5t-14.5 82.5q0 49 14.5 83.5t50.5 34.5q35 0 49.5 -34.5t14.5 -83.5q0 -47 -14.5 -82.5t-49.5 -35.5z" />
    <glyph glyph-name="uni004A0301" horiz-adv-x="537" 
d="M253 96q45 0 69.5 27.5t24.5 75.5v482h118v-481q0 -64 -25.5 -112.5t-73 -75.5t-113.5 -27q-99 0 -155.5 55.5t-56.5 155.5v41h117v-36q0 -54 25 -79.5t70 -25.5zM398 747l-57 59l155 142l58 -58z" />
    <glyph glyph-name="J.alt" horiz-adv-x="327" 
d="M9 -15v111h19q50 0 74.5 18.5t32.5 59t8 105.5v402h116v-456q0 -75 -22.5 -128.5t-73.5 -82.5t-137 -29h-17z" />
    <glyph glyph-name="i.loclTRK" horiz-adv-x="240" 
d="M178 0h-116v488h116v-488zM47 640q0 32 19.5 52.5t53.5 20.5q32 0 52 -20.5t20 -52.5t-20 -52t-52 -20q-34 0 -53.5 20t-19.5 52z" />
    <glyph glyph-name="uni006A0301" horiz-adv-x="244" 
d="M58 -194q-25 0 -41 4t-20 6v98q5 -1 13 -3t18 -2q39 0 39 49v530h116v-537q0 -39 -12.5 -72t-40 -53t-72.5 -20zM117 554l-57 59l155 142l58 -58z" />
    <glyph glyph-name="zero.tf" 
d="M274 -11q-73 0 -126.5 42t-83 121t-29.5 188q0 108 29.5 186.5t83 121.5t126.5 43q72 0 125.5 -43t82.5 -121.5t29 -186.5q0 -109 -29 -188t-82.5 -121t-125.5 -42zM274 101q42 0 68.5 32t39 86t12.5 121q0 59 -12.5 114t-39 89.5t-68.5 34.5q-45 0 -71.5 -34.5
t-38.5 -89.5t-12 -114q0 -67 12 -121t38.5 -86t71.5 -32z" />
    <glyph glyph-name="one.tf" 
d="M515 0h-449v112h172v395q-26 -16 -66.5 -26.5t-94.5 -10.5v111q74 0 122 27t66 73h89v-569h161v-112z" />
    <glyph glyph-name="two.tf" 
d="M487 506q0 -66 -29.5 -124.5t-87.5 -121.5l-138 -150h262v-110h-427v96l198 212q62 66 84 108t22 79q0 41 -24 63t-63 22q-40 0 -77.5 -23.5t-71.5 -72.5l-84 62q41 66 98 105.5t141 39.5q61 0 105 -24.5t68 -66.5t24 -94z" />
    <glyph glyph-name="three.tf" 
d="M260 -11q-69 0 -120.5 26.5t-99.5 81.5l74 74q43 -38 73 -53t71 -15q54 0 83.5 27.5t29.5 72.5q0 40 -20 63.5t-53.5 34t-74.5 10.5q-11 0 -25.5 -1t-27.5 -2v102q20 -1 27.5 -1.5t17.5 -0.5q62 0 97.5 24.5t35.5 72.5q0 31 -28 51.5t-71 20.5q-39 0 -68 -15.5t-60 -51.5
l-75 72q53 60 100 84.5t104 24.5q96 0 152.5 -47.5t56.5 -124.5q0 -51 -22.5 -90t-62.5 -64q52 -23 83 -67t31 -109q0 -54 -28.5 -99.5t-79.5 -73t-120 -27.5z" />
    <glyph glyph-name="four.tf" 
d="M34 164v73l169 444h117l-151 -406h145l60 158h72v-158h88v-111h-88v-164h-118v164h-294z" />
    <glyph glyph-name="five.tf" 
d="M151 273l-86 20v388h392v-112h-281v-157q22 15 52.5 24t65.5 9q57 0 103.5 -26.5t74.5 -74t28 -110.5q0 -80 -31.5 -134.5t-83 -82.5t-113.5 -28q-148 0 -225 114l88 64q26 -32 59 -47.5t67 -15.5q55 0 88 33.5t33 89.5q0 47 -34.5 75t-81.5 28q-33 0 -62.5 -15.5
t-52.5 -41.5z" />
    <glyph glyph-name="six.tf" 
d="M32 325q0 113 33 195t93 126.5t139 44.5q63 0 107.5 -15t93.5 -55l-63 -85q-38 26 -69 36t-69 10q-60 0 -104 -54t-53 -175q26 36 65.5 56.5t88.5 20.5q72 0 121.5 -27.5t75 -73.5t25.5 -102q0 -70 -29 -123.5t-81.5 -84t-122.5 -30.5q-75 0 -131.5 35t-88 109t-31.5 192
zM157 216q0 -54 33 -86t87 -32q55 0 88 32t33 86q0 49 -33 78.5t-88 29.5q-54 0 -87 -29.5t-33 -78.5z" />
    <glyph glyph-name="seven.tf" 
d="M86 0l300 569h-331v112h464v-98l-305 -583h-128z" />
    <glyph glyph-name="eight.tf" 
d="M274 -11q-74 0 -124.5 27t-76 71t-25.5 96q0 58 28 100.5t77 67.5q-40 25 -63 63.5t-23 89.5q0 52 23 94.5t69.5 67.5t115.5 25q68 0 113.5 -25t68.5 -67.5t23 -94.5q0 -50 -22.5 -88.5t-63.5 -64.5q50 -25 77.5 -67.5t27.5 -100.5q0 -52 -25.5 -96t-76 -71t-123.5 -27z
M274 412q43 0 68 24.5t25 65.5q0 35 -25 56t-68 21t-68.5 -21t-25.5 -56q0 -41 25.5 -65.5t68.5 -24.5zM274 101q49 0 78.5 25.5t29.5 67.5q0 50 -29.5 79.5t-78.5 29.5q-50 0 -79.5 -29.5t-29.5 -79.5q0 -42 29.5 -67.5t79.5 -25.5z" />
    <glyph glyph-name="nine.tf" 
d="M517 355q0 -113 -33 -195t-92.5 -126.5t-139.5 -44.5q-62 0 -106.5 15.5t-94.5 55.5l64 84q37 -26 68 -36t69 -10q60 0 104.5 54.5t52.5 175.5q-26 -37 -65 -57.5t-88 -20.5q-73 0 -122.5 27.5t-75 73.5t-25.5 102q0 70 29 123.5t81.5 84t123.5 30.5q74 0 130.5 -35
t88 -109t31.5 -192zM393 464q0 54 -33.5 86.5t-86.5 32.5q-56 0 -89 -32.5t-33 -86.5q0 -48 33 -78t89 -30q53 0 86.5 30t33.5 78z" />
    <glyph glyph-name="zero.dnom" horiz-adv-x="372" 
d="M186 -8q-73 0 -117 56t-44 153t44 153.5t117 56.5q75 0 118 -56.5t43 -153.5t-43 -153t-118 -56zM186 320q-35 0 -50 -34.5t-15 -84.5q0 -47 15 -83t50 -36q36 0 50.5 36t14.5 83q0 50 -14.5 84.5t-50.5 34.5z" />
    <glyph glyph-name="one.dnom" horiz-adv-x="237" 
d="M201 403v-403h-97v272q-36 -20 -94 -20v91q50 0 82.5 16t40.5 44h68z" />
    <glyph glyph-name="two.dnom" horiz-adv-x="347" 
d="M312 289q0 -33 -20 -65.5t-58 -72.5l-57 -59h140v-92h-286v63l115 116q33 34 52 59.5t19 45.5q0 19 -13 28.5t-30 9.5q-19 0 -37.5 -10.5t-39.5 -37.5l-71 50q25 38 60.5 62.5t88.5 24.5q59 0 98 -34.5t39 -87.5z" />
    <glyph glyph-name="three.dnom" horiz-adv-x="334" 
d="M162 -9q-46 0 -82.5 19t-59.5 55l59 59q24 -26 40 -35.5t44 -9.5q21 0 38 10.5t17 30.5q0 15 -15 30t-57 15q-10 0 -22.5 -0.5t-22.5 -1.5v75q17 -2 23.5 -2h16.5q27 0 44 13.5t17 36.5q0 17 -14 27.5t-36 10.5q-42 0 -80 -48l-59 61q35 40 68.5 57t78.5 17
q60 0 97 -30.5t37 -76.5q0 -59 -43 -89q30 -14 47.5 -37.5t17.5 -52.5q0 -38 -20.5 -68.5t-55 -48t-78.5 -17.5z" />
    <glyph glyph-name="four.dnom" horiz-adv-x="367" 
d="M10 83v45l93 275h94l-77 -229h84l25 104h69v-104h54v-91h-54v-83h-95v83h-193z" />
    <glyph glyph-name="five.dnom" horiz-adv-x="342" 
d="M105 145l-68 15v243h262v-92h-177v-70q12 9 29 14.5t36 5.5q60 0 96.5 -36t36.5 -93q0 -42 -20 -73.5t-54 -49.5t-77 -18q-40 0 -74.5 17t-56.5 51l64 53q12 -15 29 -25t40 -10t40.5 14t17.5 38q0 20 -15.5 34.5t-39.5 14.5q-22 0 -39 -9.5t-30 -23.5z" />
    <glyph glyph-name="six.dnom" horiz-adv-x="351" 
d="M18 177q0 111 49 172.5t136 61.5q37 0 73 -14.5t62 -42.5l-53 -63q-21 19 -41 27t-46 8q-32 0 -59 -25.5t-34 -83.5q19 17 42.5 26.5t50.5 9.5q59 0 97.5 -34t38.5 -87q0 -62 -41.5 -101t-113.5 -39q-46 0 -82.5 23.5t-57.5 65.5t-21 96zM121 126q0 -25 17.5 -39.5
t45.5 -14.5q27 0 44.5 14.5t17.5 39.5q0 24 -17.5 38.5t-44.5 14.5q-28 0 -45.5 -14.5t-17.5 -38.5z" />
    <glyph glyph-name="seven.dnom" horiz-adv-x="331" 
d="M45 0l162 311h-187v92h306v-60l-178 -343h-103z" />
    <glyph glyph-name="eight.dnom" horiz-adv-x="349" 
d="M175 -8q-75 0 -114.5 36.5t-39.5 87.5q0 26 14.5 52t48.5 41q-31 16 -44 39t-13 45q0 47 38 82.5t110 35.5q71 0 108.5 -36t37.5 -82q0 -22 -13 -45t-44 -39q34 -16 49 -42t15 -52q0 -49 -39.5 -86t-113.5 -37zM175 238q22 0 35 15.5t13 32.5t-13 31.5t-35 14.5
q-24 0 -37 -14.5t-13 -31.5t13 -32.5t37 -15.5zM175 72q26 0 40.5 15t14.5 34q0 18 -14.5 34.5t-40.5 16.5q-28 0 -43 -16.5t-15 -34.5q0 -20 15.5 -34.5t42.5 -14.5z" />
    <glyph glyph-name="nine.dnom" horiz-adv-x="351" 
d="M333 226q0 -111 -48.5 -172.5t-135.5 -61.5q-38 0 -73.5 14.5t-62.5 42.5l53 62q22 -19 41.5 -26.5t46.5 -7.5q31 0 58 25.5t35 83.5q-20 -17 -43.5 -27t-49.5 -10q-59 0 -97.5 34t-38.5 87q0 63 41 102t114 39q45 0 81.5 -23.5t57.5 -65.5t21 -96zM230 277
q0 25 -17.5 39.5t-44.5 14.5q-28 0 -45 -15t-17 -39t17 -38.5t45 -14.5q27 0 44.5 14.5t17.5 38.5z" />
    <glyph glyph-name="zero.numr" horiz-adv-x="372" 
d="M186 270q-73 0 -117 56t-44 153t44 153.5t117 56.5q75 0 118 -56.5t43 -153.5t-43 -153t-118 -56zM186 598q-35 0 -50 -34.5t-15 -84.5q0 -47 15 -83t50 -36q36 0 50.5 36t14.5 83q0 50 -14.5 84.5t-50.5 34.5z" />
    <glyph glyph-name="one.numr" horiz-adv-x="237" 
d="M201 681v-403h-97v272q-36 -20 -94 -20v91q50 0 82.5 16t40.5 44h68z" />
    <glyph glyph-name="two.numr" horiz-adv-x="347" 
d="M312 567q0 -33 -20 -65.5t-58 -72.5l-57 -59h140v-92h-286v63l115 116q33 34 52 59.5t19 45.5q0 19 -13 28.5t-30 9.5q-19 0 -37.5 -10.5t-39.5 -37.5l-71 50q25 38 60.5 62.5t88.5 24.5q59 0 98 -34.5t39 -87.5z" />
    <glyph glyph-name="three.numr" horiz-adv-x="334" 
d="M162 269q-46 0 -82.5 19t-59.5 55l59 59q24 -26 40 -35.5t44 -9.5q21 0 38 10.5t17 30.5q0 15 -15 30t-57 15q-10 0 -22.5 -0.5t-22.5 -1.5v75q17 -2 23.5 -2h16.5q27 0 44 13.5t17 36.5q0 17 -14 27.5t-36 10.5q-42 0 -80 -48l-59 61q35 40 68.5 57t78.5 17
q60 0 97 -30.5t37 -76.5q0 -59 -43 -89q30 -14 47.5 -37.5t17.5 -52.5q0 -38 -20.5 -68.5t-55 -48t-78.5 -17.5z" />
    <glyph glyph-name="four.numr" horiz-adv-x="367" 
d="M10 361v45l93 275h94l-77 -229h84l25 104h69v-104h54v-91h-54v-83h-95v83h-193z" />
    <glyph glyph-name="five.numr" horiz-adv-x="342" 
d="M105 423l-68 15v243h262v-92h-177v-70q12 9 29 14.5t36 5.5q60 0 96.5 -36t36.5 -93q0 -42 -20 -73.5t-54 -49.5t-77 -18q-40 0 -74.5 17t-56.5 51l64 53q12 -15 29 -25t40 -10t40.5 14t17.5 38q0 20 -15.5 34.5t-39.5 14.5q-22 0 -39 -9.5t-30 -23.5z" />
    <glyph glyph-name="six.numr" horiz-adv-x="351" 
d="M18 455q0 111 49 172.5t136 61.5q37 0 73 -14.5t62 -42.5l-53 -63q-21 19 -41 27t-46 8q-32 0 -59 -25.5t-34 -83.5q19 17 42.5 26.5t50.5 9.5q59 0 97.5 -34t38.5 -87q0 -62 -41.5 -101t-113.5 -39q-46 0 -82.5 23.5t-57.5 65.5t-21 96zM121 404q0 -25 17.5 -39.5
t45.5 -14.5q27 0 44.5 14.5t17.5 39.5q0 24 -17.5 38.5t-44.5 14.5q-28 0 -45.5 -14.5t-17.5 -38.5z" />
    <glyph glyph-name="seven.numr" horiz-adv-x="331" 
d="M45 278l162 311h-187v92h306v-60l-178 -343h-103z" />
    <glyph glyph-name="eight.numr" horiz-adv-x="349" 
d="M175 270q-75 0 -114.5 36.5t-39.5 87.5q0 26 14.5 52t48.5 41q-31 16 -44 39t-13 45q0 47 38 82.5t110 35.5q71 0 108.5 -36t37.5 -82q0 -22 -13 -45t-44 -39q34 -16 49 -42t15 -52q0 -49 -39.5 -86t-113.5 -37zM175 516q22 0 35 15.5t13 32.5t-13 31.5t-35 14.5
q-24 0 -37 -14.5t-13 -31.5t13 -32.5t37 -15.5zM175 350q26 0 40.5 15t14.5 34q0 18 -14.5 34.5t-40.5 16.5q-28 0 -43 -16.5t-15 -34.5q0 -20 15.5 -34.5t42.5 -14.5z" />
    <glyph glyph-name="nine.numr" horiz-adv-x="351" 
d="M333 504q0 -111 -48.5 -172.5t-135.5 -61.5q-38 0 -73.5 14.5t-62.5 42.5l53 62q22 -19 41.5 -26.5t46.5 -7.5q31 0 58 25.5t35 83.5q-20 -17 -43.5 -27t-49.5 -10q-59 0 -97.5 34t-38.5 87q0 63 41 102t114 39q45 0 81.5 -23.5t57.5 -65.5t21 -96zM230 555
q0 25 -17.5 39.5t-44.5 14.5q-28 0 -45 -15t-17 -39t17 -38.5t45 -14.5q27 0 44.5 14.5t17.5 38.5z" />
    <glyph glyph-name="periodcentered.loclCAT" horiz-adv-x="168" 
d="M84 293q-31 0 -53.5 22t-22.5 53t22.5 53t53.5 22t53.5 -22t22.5 -53t-22.5 -53t-53.5 -22z" />
    <glyph glyph-name="periodcentered.loclCAT.case" horiz-adv-x="191" 
d="M81 321q-33 0 -56.5 24t-23.5 57q0 32 23.5 55.5t56.5 23.5t56.5 -23.5t23.5 -55.5q0 -33 -23.5 -57t-56.5 -24z" />
    <glyph glyph-name="uni030C.alt" horiz-adv-x="0" 
d="M101 681v-55l-22 -147h-69v202h91z" />
    <glyph glyph-name="uni0308.narrow" horiz-adv-x="0" 
d="M351 563q-32 0 -51 20t-19 50q0 32 19 52t51 20q31 0 50.5 -20t19.5 -52q0 -30 -19.5 -50t-50.5 -20zM196 563q-32 0 -51 20t-19 50q0 32 19 52t51 20q31 0 50.5 -20t19.5 -52q0 -30 -19.5 -50t-50.5 -20z" />
    <glyph glyph-name="uni0302.narrow" horiz-adv-x="0" 
d="M206 556l-64 55l132 144l132 -144l-65 -55l-67 79z" />
    <glyph glyph-name="uni0304.narrow" horiz-adv-x="0" 
d="M384 582h-222v87h222v-87z" />
    </font>
</defs>
</svg>
