<?xml version="1.0" standalone="no"?>
<!DOCTYPE svg PUBLIC "-//W3C//DTD SVG 1.1//EN" "http://www.w3.org/Graphics/SVG/1.1/DTD/svg11.dtd" >
<svg xmlns="http://www.w3.org/2000/svg" xmlns:xlink="http://www.w3.org/1999/xlink" version="1.1">
<metadata>
Created by FontForge 20201107 at Mon Aug 27 16:28:58 2018
 By 
Copyright (c) 2018 by Swiss Typefaces. All rights reserved. |DCNT
</metadata>
<defs>
<font id="EuclidSquare-Bold" horiz-adv-x="0" >
  <font-face 
    font-family="Euclid Square"
    font-weight="700"
    font-stretch="normal"
    units-per-em="1000"
    panose-1="2 11 8 4 0 0 0 0 0 0"
    ascent="732"
    descent="-268"
    x-height="500"
    cap-height="710"
    bbox="-374 -335 1368 993"
    underline-thickness="100"
    underline-position="-384"
    unicode-range="U+0020-FEFF"
  />
<missing-glyph horiz-adv-x="634" 
d="M67 0v710h500v-710h-500zM306 355l-220 327v-654zM327 355l221 -327v654zM533 691h-432l216 -321zM317 339l-216 -320h432z" />
    <glyph glyph-name="_368" unicode="ff" horiz-adv-x="863" 
d="M138 0v369h-122v131h122v28q0 88 52.5 148t150.5 60q72 0 134 -30l-55 -123q-32 17 -59 17q-33 0 -52.5 -20t-19.5 -52v-28h126v-131h-126v-369h-151zM531 0v369h-69v131h69v28q0 88 52.5 148t150.5 60q72 0 134 -30l-55 -123q-32 17 -59 17q-33 0 -52.5 -20t-19.5 -52
v-28h167v-131h-167v-369h-151z" />
    <glyph glyph-name="f_i" unicode="fi" horiz-adv-x="743" 
d="M605 548q-38 0 -66 27.5t-28 66.5t28 66.5t66 27.5q40 0 67.5 -27.5t27.5 -66.5t-27.5 -66.5t-67.5 -27.5zM530 0v500h151v-500h-151zM136 0v369h-120v131h120v28q0 88 52.5 148t150.5 60q72 0 134 -30l-55 -123q-32 17 -59 17q-33 0 -52.5 -20t-19.5 -52v-28h167v-131
h-167v-369h-151z" />
    <glyph glyph-name="_372" unicode="ffi" horiz-adv-x="1138" 
d="M1000 548q-38 0 -66 27.5t-28 66.5t28 66.5t66 27.5q40 0 67.5 -27.5t27.5 -66.5t-27.5 -66.5t-67.5 -27.5zM925 0v500h151v-500h-151zM138 0v369h-122v131h122v28q0 88 52.5 148t150.5 60q72 0 134 -30l-55 -123q-32 17 -59 17q-33 0 -52.5 -20t-19.5 -52v-28h126v-131
h-126v-369h-151zM531 0v369h-69v131h69v28q0 88 52.5 148t150.5 60q72 0 134 -30l-55 -123q-32 17 -59 17q-33 0 -52.5 -20t-19.5 -52v-28h167v-131h-167v-369h-151z" />
    <glyph glyph-name="f_l" unicode="fl" horiz-adv-x="743" 
d="M136 0v369h-120v131h120v28q0 88 52.5 148t150.5 60q72 0 134 -30l-55 -123q-32 17 -59 17q-33 0 -52.5 -20t-19.5 -52v-28h167v-131h-167v-369h-151zM530 0v730h151v-730h-151z" />
    <glyph glyph-name="_376" unicode="ffl" horiz-adv-x="1138" 
d="M925 0v730h151v-730h-151zM138 0v369h-122v131h122v28q0 88 52.5 148t150.5 60q72 0 134 -30l-55 -123q-32 17 -59 17q-33 0 -52.5 -20t-19.5 -52v-28h126v-131h-126v-369h-151zM531 0v369h-69v131h69v28q0 88 52.5 148t150.5 60q72 0 134 -30l-55 -123q-32 17 -59 17
q-33 0 -52.5 -20t-19.5 -52v-28h167v-131h-167v-369h-151z" />
    <glyph glyph-name="f_t" unicode="ft" horiz-adv-x="883" 
d="M136 0v369h-120v131h120v28q0 88 52.5 148t150.5 60q72 0 134 -30l-55 -123q-32 17 -59 17q-33 0 -52.5 -20t-19.5 -52v-28h123v-131h-123v-369h-151zM743 -6q-93 0 -148.5 48t-55.5 141v186h-82v131h82v152h151v-152h150v-131h-150v-155q0 -44 18 -63.5t57 -19.5
q38 0 68 16l45 -123q-19 -11 -59 -20.5t-76 -9.5z" />
    <glyph glyph-name="t_t" unicode="tt" horiz-adv-x="901" 
d="M338 -6q-93 0 -148.5 48t-55.5 141v186h-120v131h120v152h151v-152h123v-131h-123v-155q0 -44 18 -63.5t57 -19.5q38 0 68 16l45 -123q-19 -11 -59 -20.5t-76 -9.5zM761 -6q-93 0 -148.5 48t-55.5 141v186h-102v131h102v152h151v-152h150v-131h-150v-155q0 -44 18 -63.5
t57 -19.5q38 0 68 16l45 -123q-19 -11 -59 -20.5t-76 -9.5z" />
    <glyph glyph-name="uni0407_uni0407" unicode="&#x407;&#x407;" horiz-adv-x="618" 
d="M75 0v710h159v-710h-159zM384 0v710h159v-710h-159zM28 768q-33 0 -57 24t-24 56q0 34 23.5 57.5t57.5 23.5q33 0 56.5 -23.5t23.5 -57.5q0 -32 -23.5 -56t-56.5 -24zM301 768q-33 0 -57 24t-24 56q0 34 23.5 57.5t57.5 23.5q33 0 56.5 -23.5t23.5 -57.5q0 -32 -23.5 -56
t-56.5 -24zM575 768q-33 0 -57 24t-24 56q0 34 23.5 57.5t57.5 23.5q33 0 56.5 -23.5t23.5 -57.5q0 -32 -23.5 -56t-56.5 -24z" />
    <glyph glyph-name="uni0457_uni0458" unicode="&#x457;&#x458;" horiz-adv-x="550" 
d="M213 0h-151v500h151v-500zM44 572q-33 0 -56.5 23.5t-23.5 55.5q0 33 23.5 56.5t56.5 23.5q32 0 55.5 -23.5t23.5 -56.5q0 -32 -23.5 -55.5t-55.5 -23.5zM274 572q-32 0 -55.5 23.5t-23.5 55.5q0 33 23.5 56.5t55.5 23.5q33 0 56.5 -23.5t23.5 -56.5q0 -32 -23.5 -55.5
t-56.5 -23.5zM507 572q-33 0 -56.5 23.5t-23.5 55.5q0 33 23.5 56.5t56.5 23.5q32 0 55.5 -23.5t23.5 -56.5q0 -32 -23.5 -55.5t-55.5 -23.5zM293 -199q-72 0 -124 24l35 123q33 -17 68 -17q65 0 65 84v485h151v-510q0 -92 -54.5 -140.5t-140.5 -48.5z" />
    <glyph glyph-name="uni0457_uni0457" unicode="&#x457;&#x457;" horiz-adv-x="550" 
d="M213 0h-151v500h151v-500zM488 0h-151v500h151v-500zM44 572q-33 0 -56.5 23.5t-23.5 55.5q0 33 23.5 56.5t56.5 23.5q32 0 55.5 -23.5t23.5 -56.5q0 -32 -23.5 -55.5t-55.5 -23.5zM274 572q-32 0 -55.5 23.5t-23.5 55.5q0 33 23.5 56.5t55.5 23.5q33 0 56.5 -23.5
t23.5 -56.5q0 -32 -23.5 -55.5t-56.5 -23.5zM507 572q-33 0 -56.5 23.5t-23.5 55.5q0 33 23.5 56.5t56.5 23.5q32 0 55.5 -23.5t23.5 -56.5q0 -32 -23.5 -55.5t-55.5 -23.5z" />
    <glyph glyph-name=".notdef" horiz-adv-x="634" 
d="M67 0v710h500v-710h-500zM306 355l-220 327v-654zM327 355l221 -327v654zM533 691h-432l216 -321zM317 339l-216 -320h432z" />
    <glyph glyph-name=".null" 
 />
    <glyph glyph-name="nonmarkingreturn" horiz-adv-x="333" 
 />
    <glyph glyph-name="space" unicode=" " horiz-adv-x="225" 
 />
    <glyph glyph-name="exclam" unicode="!" horiz-adv-x="296" 
d="M101 265l-29 184v261h152v-261l-30 -184h-93zM238 0h-179v179h179v-179z" />
    <glyph glyph-name="quotedbl" unicode="&#x22;" horiz-adv-x="440" 
d="M56 412v298h126v-298h-126zM258 412v298h126v-298h-126z" />
    <glyph glyph-name="numbersign" unicode="#" horiz-adv-x="723" 
d="M317 0l57 181h-132l-57 -181h-127l56 181h-83v114h120l36 120h-83v114h119l56 181h129l-57 -181h131l56 181h129l-57 -181h82v-114h-118l-37 -120h83v-114h-119l-57 -181h-127zM315 415l-37 -120h132l36 120h-131z" />
    <glyph glyph-name="dollar" unicode="$" horiz-adv-x="562" 
d="M262 -88v78q-73 4 -136 33t-97 74l98 106q50 -63 135 -70v155l-37 13q-76 26 -123 79.5t-47 132.5q0 86 57 142.5t150 64.5v78h54v-77q63 -6 116 -35.5t77 -70.5l-105 -95q-38 47 -88 56v-143l47 -17q81 -29 121 -80.5t40 -137.5q0 -90 -55.5 -144.5t-152.5 -62.5v-79
h-54zM373 198q0 41 -57 70v-133q57 13 57 63zM206 519q0 -43 56 -66v123q-56 -13 -56 -57z" />
    <glyph glyph-name="percent" unicode="%" horiz-adv-x="977" 
d="M341 0h-155l450 710h155zM753 -8q-82 0 -139.5 58t-57.5 139q0 82 57.5 139.5t139.5 57.5q81 0 139 -57.5t58 -139.5q0 -81 -58 -139t-139 -58zM753 118q29 0 49 21t20 50t-20 50t-49 21t-49.5 -21t-20.5 -50t20.5 -50t49.5 -21zM224 324q-82 0 -139.5 58t-57.5 139
q0 82 57.5 139.5t139.5 57.5q81 0 139 -57.5t58 -139.5q0 -81 -58 -139t-139 -58zM224 450q29 0 49 21t20 50t-20 50t-49 21q-30 0 -50 -20.5t-20 -50.5t20 -50.5t50 -20.5z" />
    <glyph glyph-name="ampersand" unicode="&#x26;" horiz-adv-x="767" 
d="M302 -11q-117 0 -179 61t-62 154q0 63 30.5 107t86.5 82q-73 73 -73 146q0 74 58.5 128.5t147.5 54.5t146.5 -54.5t57.5 -125.5q0 -60 -29.5 -98t-87.5 -72l107 -103l104 123l105 -90l-110 -128l181 -174h-198l-78 74q-51 -45 -99 -65t-108 -20zM300 121q58 0 112 47
l-135 130q-69 -46 -69 -99q0 -39 28 -58.5t64 -19.5zM249 539q0 -15 9.5 -30t17.5 -23t31 -28l1 1q34 18 46.5 33.5t12.5 43.5q0 27 -17 43t-41 16q-25 0 -42.5 -15.5t-17.5 -40.5z" />
    <glyph glyph-name="quotesingle" unicode="'" horiz-adv-x="238" 
d="M56 412v298h126v-298h-126z" />
    <glyph glyph-name="parenleft" unicode="(" horiz-adv-x="288" 
d="M163 320q0 -220 99 -432l-97 -48q-128 233 -128 480t128 480l97 -48q-99 -212 -99 -432z" />
    <glyph glyph-name="parenright" unicode=")" horiz-adv-x="288" 
d="M125 320q0 220 -99 432l97 48q128 -233 128 -480t-128 -480l-97 48q99 212 99 432z" />
    <glyph glyph-name="asterisk" unicode="*" horiz-adv-x="506" 
d="M165 284l-83 60l88 119l-141 46l31 98l143 -45v148h102v-148l141 46l32 -98l-142 -47l89 -119l-83 -60l-87 118z" />
    <glyph glyph-name="plus" unicode="+" horiz-adv-x="490" 
d="M35 224v131h145v145h130v-145h145v-131h-145v-145h-130v145h-145z" />
    <glyph glyph-name="comma" unicode="," horiz-adv-x="289" 
d="M79 -170l48 170h-72v179h179v-179l-71 -170h-84z" />
    <glyph glyph-name="hyphen" unicode="-" horiz-adv-x="404" 
d="M55 208v144h294v-144h-294z" />
    <glyph glyph-name="period" unicode="." horiz-adv-x="289" 
d="M234 0h-179v179h179v-179z" />
    <glyph glyph-name="slash" unicode="/" horiz-adv-x="556" 
d="M17 -110l386 820h136l-386 -820h-136z" />
    <glyph glyph-name="zero" unicode="0" horiz-adv-x="633" 
d="M317 -11q-119 0 -194 80t-75 204v165q0 124 75 204t194 80q118 0 193 -80t75 -204v-165q0 -124 -75 -204t-193 -80zM317 138q53 0 85 36t32 99v165q0 63 -32 99t-85 36q-54 0 -86 -36t-32 -99v-165q0 -63 32 -99t86 -36z" />
    <glyph glyph-name="one" unicode="1" horiz-adv-x="376" 
d="M150 0v561h-131v149h282v-710h-151z" />
    <glyph glyph-name="two" unicode="2" horiz-adv-x="577" 
d="M41 0v133l277 268q27 27 40.5 49t13.5 49q0 31 -22 52.5t-60 21.5t-66.5 -26.5t-41.5 -67.5l-146 36q24 98 93 152.5t168 54.5q97 0 161 -55.5t64 -159.5q0 -71 -28.5 -120.5t-86.5 -105.5l-137 -132h259v-149h-488z" />
    <glyph glyph-name="three" unicode="3" horiz-adv-x="569" 
d="M277 -12q-88 0 -164 50.5t-97 131.5l145 57q15 -41 46 -65.5t74 -24.5q49 0 73 24t24 62q0 42 -30.5 68t-78.5 26h-94v124l120 123h-226v146h427v-118l-146 -150q87 -12 133 -72t46 -147q0 -108 -69 -171.5t-183 -63.5z" />
    <glyph glyph-name="four" unicode="4" horiz-adv-x="643" 
d="M365 0v154h-347v122l362 434h136v-418h91v-138h-91v-154h-151zM202 292h163v195z" />
    <glyph glyph-name="five" unicode="5" horiz-adv-x="588" 
d="M298 -11q-90 0 -166 51t-97 132l144 56q33 -90 119 -90q49 0 75 27t26 71q0 40 -28 69t-70 29q-31 0 -55.5 -14.5t-34.5 -38.5h-142v429h432v-146h-281v-122q40 28 105 28q105 0 165 -67.5t60 -177.5t-68.5 -173t-183.5 -63z" />
    <glyph glyph-name="six" unicode="6" horiz-adv-x="572" 
d="M284 -11q-114 0 -182 70t-68 178q0 34 11 65.5t24.5 53t48.5 72.5l198 282h186l-174 -248q81 -7 143.5 -67.5t62.5 -158.5q0 -107 -68 -177t-182 -70zM284 134q42 0 70 29t28 71t-28 71t-70 29q-44 0 -71 -28.5t-27 -71.5t27 -71.5t71 -28.5z" />
    <glyph glyph-name="seven" unicode="7" horiz-adv-x="552" 
d="M212 0h-171l318 564h-324v146h503v-131z" />
    <glyph glyph-name="eight" unicode="8" horiz-adv-x="592" 
d="M296 -11q-110 0 -183 65t-73 165q0 113 85 167q-57 54 -57 141q0 85 62.5 140t165.5 55t165.5 -55t62.5 -140q0 -86 -58 -141q86 -55 86 -167q0 -100 -73.5 -165t-182.5 -65zM296 128q45 0 72.5 28.5t27.5 66.5t-27.5 66.5t-72.5 28.5q-46 0 -73 -28.5t-27 -66.5
t27 -66.5t73 -28.5zM296 437q35 0 58.5 21.5t23.5 54.5t-23.5 54.5t-58.5 21.5t-58.5 -21.5t-23.5 -54.5t23.5 -54.5t58.5 -21.5z" />
    <glyph glyph-name="nine" unicode="9" horiz-adv-x="572" 
d="M69 0l174 248q-81 7 -143 67.5t-62 159.5q0 107 68 177t182 70t182 -70t68 -178q0 -48 -18 -85t-66 -106l-199 -283h-186zM288 377q44 0 71 28.5t27 71.5t-27 71.5t-71 28.5q-42 0 -70 -29t-28 -71t28 -71t70 -29z" />
    <glyph glyph-name="colon" unicode=":" horiz-adv-x="289" 
d="M234 311h-179v179h179v-179zM234 0h-179v179h179v-179z" />
    <glyph glyph-name="semicolon" unicode=";" horiz-adv-x="289" 
d="M234 311h-179v179h179v-179zM79 -170l48 170h-72v179h179v-179l-71 -170h-84z" />
    <glyph glyph-name="less" unicode="&#x3c;" horiz-adv-x="469" 
d="M419 -11l-379 234v145l379 234v-152l-251 -155l251 -153v-153z" />
    <glyph glyph-name="equal" unicode="=" horiz-adv-x="536" 
d="M58 120v130h420v-130h-420zM58 328v131h420v-131h-420z" />
    <glyph glyph-name="greater" unicode="&#x3e;" horiz-adv-x="469" 
d="M429 223l-379 -234v153l251 153l-251 155v152l379 -234v-145z" />
    <glyph glyph-name="question" unicode="?" horiz-adv-x="546" 
d="M176 263v19q0 43 20.5 73.5t64.5 61.5q8 6 30.5 20t31 20.5t17.5 21t9 31.5q0 29 -22 46t-54 17q-35 0 -70.5 -18t-60.5 -55l-119 82q34 58 101 99t152 41q96 0 160 -60.5t64 -142.5q0 -56 -18 -96.5t-68 -76.5q-11 -8 -28.5 -21t-25.5 -19t-17 -14t-12.5 -14.5
t-3.5 -13.5v-1h-151zM341 0h-179v179h179v-179z" />
    <glyph glyph-name="at" unicode="@" horiz-adv-x="800" 
d="M383 -11q-160 0 -253 99t-93 249q0 167 114 276t273 109q150 0 247 -86t97 -230q0 -124 -51.5 -186.5t-133.5 -62.5q-34 0 -63 13.5t-44 34.5q-46 -46 -122 -46q-72 0 -114.5 50t-42.5 122q0 90 57.5 154.5t141.5 64.5q36 0 63.5 -16.5t39.5 -39.5l9 46h105l-46 -216
q-16 -79 35 -79q82 0 82 163q0 111 -75.5 172t-185.5 61q-123 0 -210.5 -82t-87.5 -222q0 -121 68 -194t190 -73q100 0 180 42l32 -79q-89 -44 -212 -44zM377 257q50 0 78 41l24 109q-7 17 -27 31t-48 14q-35 0 -60 -24t-33 -63q-10 -44 9.5 -76t56.5 -32z" />
    <glyph glyph-name="A" unicode="A" horiz-adv-x="750" 
d="M-1 0l304 710h144l304 -710h-166l-63 150h-294l-63 -150h-166zM375 501l-90 -213h179z" />
    <glyph glyph-name="B" unicode="B" horiz-adv-x="635" 
d="M75 0v710h267q87 0 149 -61.5t62 -149.5q0 -71 -51 -122q46 -24 73.5 -68t27.5 -100q0 -88 -62 -148.5t-154 -60.5h-312zM234 146h140q32 0 53 20.5t21 50.5t-21.5 50.5t-53.5 20.5h-139v-142zM234 423h90q32 0 53 20t21 50t-21 51t-53 21h-90v-142z" />
    <glyph glyph-name="C" unicode="C" horiz-adv-x="752" 
d="M402 -12q-152 0 -259.5 107.5t-107.5 259.5t107.5 259.5t259.5 107.5q109 0 197 -53t135 -141l-140 -76q-64 116 -192 116q-86 0 -146.5 -63t-60.5 -150t60.5 -150t146.5 -63q128 0 192 116l140 -76q-47 -88 -135 -141t-197 -53z" />
    <glyph glyph-name="D" unicode="D" horiz-adv-x="715" 
d="M75 0v710h242q150 0 256 -104t106 -251t-106 -251t-256 -104h-242zM234 146h83q88 0 144.5 60.5t56.5 148.5t-56.5 148.5t-144.5 60.5h-83v-418z" />
    <glyph glyph-name="E" unicode="E" horiz-adv-x="571" 
d="M75 0v710h450v-152h-291v-127h231v-152h-231v-127h291v-152h-450z" />
    <glyph glyph-name="F" unicode="F" horiz-adv-x="545" 
d="M75 0v710h437v-152h-278v-128h217v-152h-217v-278h-159z" />
    <glyph glyph-name="G" unicode="G" horiz-adv-x="763" 
d="M422 -12q-165 0 -275.5 105.5t-110.5 261.5q0 154 105.5 260.5t268.5 106.5q183 0 291 -121l-112 -109q-71 76 -179 76q-94 0 -154 -62.5t-60 -150.5q0 -92 61 -152.5t163 -60.5q94 0 138 34v105h-139v149h294v-337q-46 -52 -123 -78.5t-168 -26.5z" />
    <glyph glyph-name="H" unicode="H" horiz-adv-x="754" 
d="M75 0v710h159v-278h286v278h159v-710h-159v281h-286v-281h-159z" />
    <glyph glyph-name="I" unicode="I" horiz-adv-x="309" 
d="M75 0v710h159v-710h-159z" />
    <glyph glyph-name="J" unicode="J" horiz-adv-x="471" 
d="M177 -12q-105 0 -178 66l88 118q39 -36 83 -36q31 0 51.5 17t20.5 51v506h159v-516q0 -101 -65.5 -153.5t-158.5 -52.5z" />
    <glyph glyph-name="K" unicode="K" horiz-adv-x="700" 
d="M522 0l-289 318v-318h-158v710h158v-297l241 297h195l-280 -341l337 -369h-204z" />
    <glyph glyph-name="L" unicode="L" horiz-adv-x="552" 
d="M75 0v710h159v-558h294v-152h-453z" />
    <glyph glyph-name="M" unicode="M" horiz-adv-x="883" 
d="M75 0v710h145l221 -362l222 362h145v-710h-160v406l-154 -254h-104l-156 256v-408h-159z" />
    <glyph glyph-name="N" unicode="N" horiz-adv-x="792" 
d="M717 0h-137l-346 439v-439h-159v710h137l345 -439v439h160v-710z" />
    <glyph glyph-name="O" unicode="O" horiz-adv-x="804" 
d="M402 142q86 0 146 63t60 150t-60 150t-146 63t-146.5 -63t-60.5 -150t60.5 -150t146.5 -63zM402 -12q-152 0 -259.5 107.5t-107.5 259.5t107.5 259.5t259.5 107.5t259.5 -108t107.5 -259t-107.5 -259t-259.5 -108z" />
    <glyph glyph-name="P" unicode="P" horiz-adv-x="593" 
d="M566 467q0 -103 -71.5 -172.5t-178.5 -69.5h-82v-225h-159v710h241q107 0 178.5 -70t71.5 -173zM412 467q0 40 -27.5 66.5t-70.5 26.5h-80v-186h80q42 0 70 27t28 66z" />
    <glyph glyph-name="Q" unicode="Q" horiz-adv-x="814" 
d="M402 -12q-152 0 -259.5 107.5t-107.5 259.5t107.5 259.5t259.5 107.5t259.5 -108t107.5 -259q0 -100 -52 -188l79 -64l-90 -111l-85 69q-95 -73 -219 -73zM402 142q48 0 92 23l-101 82l90 110l107 -87q18 44 18 85q0 87 -60 150t-146 63t-146.5 -63t-60.5 -150t60.5 -150
t146.5 -63z" />
    <glyph glyph-name="R" unicode="R" horiz-adv-x="662" 
d="M75 0v710h280q98 0 159 -62t61 -152q0 -134 -139 -183l251 -313h-191l-237 293h-25v-293h-159zM234 428h102q36 0 58.5 19t22.5 49q0 32 -22.5 50t-58.5 18h-102v-136z" />
    <glyph glyph-name="S" unicode="S" horiz-adv-x="574" 
d="M286 -12q-84 0 -152.5 33.5t-110.5 93.5l122 103q26 -37 66.5 -59t80.5 -22q39 0 62.5 16.5t23.5 42.5q0 27 -23 47t-76 38l-50 17q-179 60 -179 205q0 101 68.5 160t176.5 59q138 0 229 -98l-104 -110q-49 59 -123 59q-35 0 -60.5 -14t-25.5 -40q0 -27 24 -43.5
t86 -38.5l50 -18q170 -61 169 -212q0 -97 -71.5 -158t-182.5 -61z" />
    <glyph glyph-name="T" unicode="T" horiz-adv-x="568" 
d="M203 0v558h-181v152h524v-152h-183v-558h-160z" />
    <glyph glyph-name="U" unicode="U" horiz-adv-x="718" 
d="M359 -12q-129 0 -210.5 80.5t-81.5 212.5v429h159v-431q0 -63 36.5 -100t96.5 -37t96.5 37t36.5 100v431h159v-429q0 -132 -81.5 -212.5t-210.5 -80.5z" />
    <glyph glyph-name="V" unicode="V" horiz-adv-x="727" 
d="M292 0l-291 710h173l189 -473l188 473h175l-291 -710h-143z" />
    <glyph glyph-name="W" unicode="W" horiz-adv-x="1026" 
d="M228 0l-221 710h168l129 -452l138 452h140l138 -453l129 453h170l-221 -710h-144l-142 467l-141 -467h-143z" />
    <glyph glyph-name="X" unicode="X" horiz-adv-x="704" 
d="M177 0h-186l266 359l-250 351h184l161 -228l161 228h184l-249 -351l265 -359h-185l-176 235z" />
    <glyph glyph-name="Y" unicode="Y" horiz-adv-x="694" 
d="M267 0v299l-259 411h185l153 -256l155 256h185l-259 -412v-298h-160z" />
    <glyph glyph-name="Z" unicode="Z" horiz-adv-x="626" 
d="M39 0v109l326 449h-321v152h537v-109l-327 -449h333v-152h-548z" />
    <glyph glyph-name="bracketleft" unicode="[" horiz-adv-x="331" 
d="M72 -160v960h230v-108h-104v-744h104v-108h-230z" />
    <glyph glyph-name="backslash" unicode="\" horiz-adv-x="556" 
d="M153 710l386 -820h-136l-386 820h136z" />
    <glyph glyph-name="bracketright" unicode="]" horiz-adv-x="331" 
d="M259 800v-960h-230v108h104v744h-104v108h230z" />
    <glyph glyph-name="asciicircum" unicode="^" horiz-adv-x="331" 
d="M120 500h-82l102 210h52l101 -210h-82l-46 94z" />
    <glyph glyph-name="underscore" unicode="_" horiz-adv-x="511" 
d="M38 -114v114h435v-114h-435z" />
    <glyph glyph-name="grave" unicode="`" 
d="M126 556h-110l-143 174h173z" />
    <glyph glyph-name="a" unicode="a" horiz-adv-x="609" 
d="M278 -11q-108 0 -177 76.5t-69 184.5t69 184.5t177 76.5q71 0 118 -42v31h151v-500h-151v32q-46 -43 -118 -43zM301 126q59 0 95 48v153q-37 47 -95 47q-50 0 -81.5 -36t-31.5 -88t31.5 -88t81.5 -36z" />
    <glyph glyph-name="b" unicode="b" horiz-adv-x="610" 
d="M331 -11q-72 0 -118 43v-32h-151v730h151v-261q47 42 118 42q108 0 177 -76.5t69 -184.5t-69 -184.5t-177 -76.5zM308 126q50 0 81.5 36t31.5 88t-31.5 88t-81.5 36q-58 0 -95 -47v-153q36 -48 95 -48z" />
    <glyph glyph-name="c" unicode="c" horiz-adv-x="556" 
d="M298 -11q-112 0 -189 74t-77 187t77 187t189 74q77 0 142 -40t97 -106l-132 -70q-33 75 -107 75q-48 0 -81 -34t-33 -86t33 -86t81 -34q74 0 107 75l132 -70q-32 -66 -97 -106t-142 -40z" />
    <glyph glyph-name="d" unicode="d" horiz-adv-x="609" 
d="M278 -11q-108 0 -177 76.5t-69 184.5t69 184.5t177 76.5q71 0 118 -42v261h151v-730h-151v32q-46 -43 -118 -43zM301 126q59 0 95 48v153q-37 47 -95 47q-50 0 -81.5 -36t-31.5 -88t31.5 -88t81.5 -36z" />
    <glyph glyph-name="e" unicode="e" horiz-adv-x="577" 
d="M298 -11q-113 0 -189.5 71.5t-76.5 189.5q0 112 75 186.5t188 74.5q105 0 177 -64t72 -180q0 -29 -3 -53h-363q6 -43 41 -65.5t81 -22.5q41 0 73 16.5t48 40.5l112 -84q-36 -51 -97 -80.5t-138 -29.5zM182 313h212q-9 37 -38 56t-65 19q-38 0 -69 -18.5t-40 -56.5z" />
    <glyph glyph-name="f" unicode="f" horiz-adv-x="468" 
d="M136 0v369h-120v131h120v28q0 88 52.5 148t150.5 60q72 0 134 -30l-55 -123q-32 17 -59 17q-33 0 -52.5 -20t-19.5 -52v-28h167v-131h-167v-369h-151z" />
    <glyph glyph-name="g" unicode="g" horiz-adv-x="614" 
d="M286 -204q-137 0 -219 64l79 113q59 -45 138 -45q47 0 82 25t35 72v29q-46 -43 -120 -43q-107 0 -178 72t-71 178t71 178t178 72q73 0 120 -42v31h151v-473q0 -53 -16 -94t-41.5 -66t-61.5 -41.5t-71.5 -23t-75.5 -6.5zM306 148q59 0 95 48v131q-37 47 -95 47
q-52 0 -85 -31.5t-33 -81.5t33 -81.5t85 -31.5z" />
    <glyph glyph-name="h" unicode="h" horiz-adv-x="602" 
d="M213 0h-151v730h151v-266q50 47 130 47q96 0 149.5 -61.5t53.5 -164.5v-285h-151v259q0 53 -21 84t-64 31q-61 0 -97 -46v-328z" />
    <glyph glyph-name="i" unicode="i" horiz-adv-x="275" 
d="M137 548q-38 0 -66 27.5t-28 66.5t28 66.5t66 27.5q40 0 67.5 -27.5t27.5 -66.5t-27.5 -66.5t-67.5 -27.5zM62 0v500h151v-500h-151z" />
    <glyph glyph-name="j" unicode="j" horiz-adv-x="283" 
d="M26 -199q-72 0 -124 24l35 123q33 -17 68 -17q65 0 65 84v485h151v-510q0 -92 -54.5 -140.5t-140.5 -48.5zM145 548q-38 0 -66 27.5t-28 66.5t28 66.5t66 27.5q40 0 67.5 -27.5t27.5 -66.5t-27.5 -66.5t-67.5 -27.5z" />
    <glyph glyph-name="k" unicode="k" horiz-adv-x="560" 
d="M399 0l-186 223v-223h-151v730h151v-409l146 179h179l-184 -226l228 -274h-183z" />
    <glyph glyph-name="l" unicode="l" horiz-adv-x="275" 
d="M62 0v730h151v-730h-151z" />
    <glyph glyph-name="m" unicode="m" horiz-adv-x="895" 
d="M688 0v256q0 116 -79 116q-58 0 -87 -48q4 -17 4 -41v-283h-151v256q0 116 -79 116q-25 0 -48 -12t-35 -31v-329h-151v500h151v-35q18 20 50.5 33t65.5 13q85 0 140 -61q57 61 161 61q105 0 157 -64t52 -164v-283h-151z" />
    <glyph glyph-name="n" unicode="n" horiz-adv-x="602" 
d="M62 0v500h151v-36q50 47 130 47q96 0 149.5 -61.5t53.5 -164.5v-285h-151v259q0 53 -21 84t-64 31q-61 0 -97 -46v-328h-151z" />
    <glyph glyph-name="o" unicode="o" horiz-adv-x="588" 
d="M294 -11q-109 0 -186 75.5t-77 185.5t77 185.5t186 75.5t186 -75.5t77 -185.5t-77 -185.5t-186 -75.5zM294 130q48 0 79.5 33t31.5 87t-31.5 87t-79.5 33t-79.5 -33t-31.5 -87t31.5 -87t79.5 -33z" />
    <glyph glyph-name="p" unicode="p" horiz-adv-x="610" 
d="M62 -194v694h151v-31q47 42 118 42q108 0 177 -76.5t69 -184.5t-69 -184.5t-177 -76.5q-72 0 -118 43v-226h-151zM308 126q50 0 81.5 36t31.5 88t-31.5 88t-81.5 36q-58 0 -95 -47v-153q36 -48 95 -48z" />
    <glyph glyph-name="q" unicode="q" horiz-adv-x="609" 
d="M396 -194v226q-46 -43 -118 -43q-108 0 -177 76.5t-69 184.5t69 184.5t177 76.5q71 0 118 -42v31h151v-694h-151zM301 126q59 0 95 48v153q-37 47 -95 47q-50 0 -81.5 -36t-31.5 -88t31.5 -88t81.5 -36z" />
    <glyph glyph-name="r" unicode="r" horiz-adv-x="394" 
d="M62 0v500h151v-56q12 27 43 44.5t68 17.5q34 0 61 -10l-23 -141q-8 6 -42 6q-75 0 -107 -45v-316h-151z" />
    <glyph glyph-name="s" unicode="s" horiz-adv-x="461" 
d="M234 -11q-139 0 -208 90l100 91q36 -52 108 -52q46 0 46 28q0 13 -12 21.5t-49 17.5l-33 8q-71 17 -107.5 60t-34.5 104q2 69 55.5 111.5t136.5 42.5q116 0 176 -83l-98 -81q-32 40 -79 40q-41 0 -41 -26q0 -24 42 -36l46 -12q72 -19 109.5 -56.5t37.5 -101.5
q0 -71 -56.5 -118.5t-138.5 -47.5z" />
    <glyph glyph-name="t" unicode="t" horiz-adv-x="478" 
d="M338 -6q-93 0 -148.5 48t-55.5 141v186h-120v131h120v152h151v-152h150v-131h-150v-155q0 -44 18 -63.5t57 -19.5q38 0 68 16l45 -123q-19 -11 -59 -20.5t-76 -9.5z" />
    <glyph glyph-name="u" unicode="u" horiz-adv-x="591" 
d="M529 500v-500h-151v34q-48 -45 -116 -45q-98 0 -152 61.5t-54 164.5v285h151v-259q0 -115 87 -115q48 0 84 46v328h151z" />
    <glyph glyph-name="v" unicode="v" horiz-adv-x="576" 
d="M218 0l-219 500h167l121 -304l122 304h168l-219 -500h-140z" />
    <glyph glyph-name="w" unicode="w" horiz-adv-x="810" 
d="M491 0l-86 264l-85 -264h-152l-165 500h162l87 -307l95 307h116l95 -307l87 307h162l-164 -500h-152z" />
    <glyph glyph-name="x" unicode="x" horiz-adv-x="577" 
d="M395 0l-106 136l-106 -136h-181l192 242l-190 258h178l106 -146l106 146h180l-190 -258l191 -242h-180z" />
    <glyph glyph-name="y" unicode="y" horiz-adv-x="576" 
d="M274 -194h-163l97 223l-208 471h165l124 -309l123 309h166z" />
    <glyph glyph-name="z" unicode="z" horiz-adv-x="502" 
d="M41 0v118l219 246h-216v136h412v-119l-219 -245h227v-136h-423z" />
    <glyph glyph-name="braceleft" unicode="{" horiz-adv-x="347" 
d="M319 -160h-88q-66 0 -104.5 38.5t-38.5 103.5v229q0 55 -53 55h-8v108h8q53 0 53 53v231q0 65 38.5 103.5t104.5 38.5h88v-108h-48q-31 0 -43.5 -12.5t-12.5 -44.5v-217q0 -82 -63 -98q63 -16 63 -101v-214q0 -32 12.5 -44.5t43.5 -12.5h48v-108z" />
    <glyph glyph-name="bar" unicode="|" horiz-adv-x="268" 
d="M71 -110v820h126v-820h-126z" />
    <glyph glyph-name="braceright" unicode="}" horiz-adv-x="347" 
d="M116 -160h-88v108h48q31 0 43.5 12.5t12.5 44.5v214q0 85 63 101q-63 16 -63 98v217q0 32 -12.5 44.5t-43.5 12.5h-48v108h88q66 0 104.5 -38.5t38.5 -103.5v-231q0 -53 53 -53h8v-108h-8q-53 0 -53 -55v-229q0 -65 -38.5 -103.5t-104.5 -38.5z" />
    <glyph glyph-name="asciitilde" unicode="~" horiz-adv-x="328" 
d="M56 230l55 119h46l28 -40l18 40h73l-55 -119h-46l-29 40l-18 -40h-72z" />
    <glyph glyph-name="uni00A0" unicode="&#xa0;" horiz-adv-x="225" 
 />
    <glyph glyph-name="exclamdown" unicode="&#xa1;" horiz-adv-x="282" 
d="M187 255l30 -186v-263h-152v263l29 186h93zM231 321h-179v179h179v-179z" />
    <glyph glyph-name="cent" unicode="&#xa2;" horiz-adv-x="571" 
d="M271 -88v79q-102 10 -169 81.5t-67 177.5q0 105 67.5 177t168.5 82v79h54v-78q70 -6 127.5 -45t87.5 -100l-132 -70q-25 60 -83 72v-235q58 13 83 73l132 -70q-30 -61 -87 -100t-128 -45v-78h-54zM187 250q0 -44 23 -75.5t61 -41.5v233q-38 -10 -61 -41t-23 -75z" />
    <glyph glyph-name="sterling" unicode="&#xa3;" horiz-adv-x="588" 
d="M44 328v57h74q-25 75 -25 121q0 98 64.5 157t167.5 59q153 0 224 -124l-118 -86q-37 61 -102 61q-37 0 -61 -19.5t-24 -59.5q0 -34 29 -109h166v-57h-146q14 -49 14 -92q0 -45 -24 -87h271v-149h-510v149h95q19 39 19 83q0 41 -19 96h-95z" />
    <glyph glyph-name="yen" unicode="&#xa5;" horiz-adv-x="735" 
d="M75 298v57h180l-231 355h184l159 -260l159 260h184l-230 -355h180v-57h-217v-76h217v-57h-217v-165h-151v165h-217v57h217v76h-217z" />
    <glyph glyph-name="brokenbar" unicode="&#xa6;" horiz-adv-x="268" 
d="M71 -110v343h126v-343h-126zM71 367v343h126v-343h-126z" />
    <glyph glyph-name="section" unicode="&#xa7;" horiz-adv-x="453" 
d="M235 -219q-74 0 -127 43t-59 132h126q10 -67 60 -67q17 0 31.5 12.5t14.5 36.5q0 19 -3 31t-20.5 32.5t-51.5 40.5l-55 35q-103 67 -103 164q0 38 13.5 73t23 48t35.5 45q-73 61 -73 155q0 73 47.5 116.5t119.5 43.5t124.5 -43t58.5 -132h-126q-9 67 -53 67
q-45 0 -45 -51q0 -17 3.5 -28t20 -28.5t49.5 -37.5l55 -35q105 -66 105 -164q0 -12 -1.5 -24t-3 -21.5t-5.5 -20t-6.5 -17.5t-8.5 -17t-8.5 -14.5t-10 -14.5t-9.5 -13t-10.5 -13t-9.5 -12q74 -68 74 -164q0 -72 -49.5 -115t-122.5 -43zM173 259q0 -33 14 -51.5t46 -38.5
l5 -3q43 43 43 86q0 32 -15.5 52t-45.5 38l-5 2q-42 -39 -42 -85z" />
    <glyph glyph-name="dieresis" unicode="&#xa8;" 
d="M-118 562q-33 0 -57 23.5t-24 55.5q0 34 23.5 57.5t57.5 23.5q32 0 55.5 -24t23.5 -57q0 -32 -23.5 -55.5t-55.5 -23.5zM119 562q-33 0 -56.5 23.5t-23.5 55.5q0 34 23.5 57.5t56.5 23.5t56.5 -23.5t23.5 -57.5q0 -32 -23.5 -55.5t-56.5 -23.5z" />
    <glyph glyph-name="copyright" unicode="&#xa9;" horiz-adv-x="803" 
d="M401 76q115 0 197 82t82 197t-82 197t-197 82t-196.5 -82t-81.5 -197t81.5 -197t196.5 -82zM401 -12q-151 0 -258.5 108t-107.5 259t107.5 259t258.5 108t259 -108t108 -259t-108 -259t-259 -108zM402 163q-80 0 -136 56t-56 136q0 79 56 135.5t136 56.5q59 0 105 -27.5
t70 -75.5l-78 -42q-32 60 -97 60q-44 0 -74 -32t-30 -75q0 -45 30 -76t74 -31q64 0 97 59l78 -41q-24 -48 -70 -75.5t-105 -27.5z" />
    <glyph glyph-name="ordfeminine" unicode="&#xaa;" horiz-adv-x="399" 
d="M177 403q-64 0 -105 46.5t-41 110.5t41 110.5t105 46.5q39 0 61 -20v13h105v-300h-105v14q-23 -21 -61 -21zM195 498q24 0 43 21v82q-19 21 -43 21t-39.5 -18t-15.5 -44t15.5 -44t39.5 -18z" />
    <glyph glyph-name="guillemotleft" unicode="&#xab;" horiz-adv-x="524" 
d="M396 250l90 -173l-95 -61l-152 234l152 234l95 -61zM185 250l90 -173l-95 -61l-152 234l152 234l95 -61z" />
    <glyph glyph-name="uni00AD" unicode="&#xad;" horiz-adv-x="404" 
d="M55 208v144h294v-144h-294z" />
    <glyph glyph-name="registered" unicode="&#xae;" horiz-adv-x="803" 
d="M401 -12q-151 0 -258.5 108t-107.5 259t107.5 259t258.5 108t259 -108t108 -259t-108 -259t-259 -108zM401 76q115 0 197 82t82 197t-82 197t-197 82t-196.5 -82t-81.5 -197t81.5 -197t196.5 -82zM275 169v371h149q53 0 84.5 -32t31.5 -81q0 -66 -71 -95l130 -163h-104
l-121 151h-11v-151h-88zM363 394h51q17 0 28 9.5t11 23.5q0 15 -10.5 24t-28.5 9h-51v-66z" />
    <glyph glyph-name="macron" unicode="&#xaf;" 
d="M-174 606v104h348v-104h-348z" />
    <glyph glyph-name="degree" unicode="&#xb0;" horiz-adv-x="382" 
d="M192 493q25 0 42.5 17.5t17.5 42.5t-17.5 43t-42.5 18q-27 0 -44.5 -18t-17.5 -43t17.5 -42.5t44.5 -17.5zM192 393q-67 0 -114 47t-47 113q0 67 47 114t114 47q66 0 113 -47t47 -114q0 -66 -47 -113t-113 -47z" />
    <glyph glyph-name="twosuperior" unicode="&#xb2;" horiz-adv-x="356" 
d="M27 410v93l169 164q25 23 25 45q0 14 -9.5 23.5t-27.5 9.5q-40 0 -61 -51l-101 26q16 62 59.5 95.5t105.5 33.5q59 0 98.5 -33t39.5 -98q0 -31 -10 -56.5t-22.5 -41t-35.5 -38.5l-71 -69h143v-103h-302z" />
    <glyph glyph-name="threesuperior" unicode="&#xb3;" horiz-adv-x="352" 
d="M174 402q-55 0 -101 31t-60 82l100 40q19 -49 64 -49q21 0 34 11.5t13 31.5q0 21 -15.5 34t-41.5 13h-59v87l63 57h-134v102h266v-90l-81 -73q52 -11 79.5 -46.5t27.5 -85.5q0 -66 -43 -105.5t-112 -39.5z" />
    <glyph glyph-name="acute" unicode="&#xb4;" 
d="M-127 556l80 174h173l-143 -174h-110z" />
    <glyph glyph-name="paragraph" unicode="&#xb6;" horiz-adv-x="675" 
d="M250 -184v444q-93 0 -159 66t-66 159t66 159t159 66h339v-894h-127v763h-85v-763h-127z" />
    <glyph glyph-name="periodcentered" unicode="&#xb7;" horiz-adv-x="289" 
d="M234 183h-179v179h179v-179z" />
    <glyph glyph-name="cedilla" unicode="&#xb8;" 
d="M-120 -188l14 64q31 -17 68 -17q49 0 49 27q0 24 -33 24q-23 0 -42 -12l-36 19l52 86h64l-28 -47q15 12 46 12q35 0 59 -21.5t24 -54.5q0 -42 -41 -69t-96 -27q-61 0 -100 16z" />
    <glyph glyph-name="onesuperior" unicode="&#xb9;" horiz-adv-x="249" 
d="M101 410v329h-87v103h192v-432h-105z" />
    <glyph glyph-name="ordmasculine" unicode="&#xba;" horiz-adv-x="376" 
d="M188 403q-65 0 -111.5 45.5t-46.5 111.5t46.5 111.5t111.5 45.5t111.5 -45.5t46.5 -111.5t-46.5 -111.5t-111.5 -45.5zM188 501q22 0 37.5 16.5t15.5 42.5t-15.5 42.5t-37.5 16.5t-37.5 -16.5t-15.5 -42.5t15.5 -42.5t37.5 -16.5z" />
    <glyph glyph-name="guillemotright" unicode="&#xbb;" horiz-adv-x="524" 
d="M249 77l90 173l-90 173l95 61l152 -234l-152 -234zM38 77l90 173l-90 173l95 61l152 -234l-152 -234z" />
    <glyph glyph-name="onequarter" unicode="&#xbc;" horiz-adv-x="837" 
d="M101 278v329h-87v103h192v-432h-105zM197 0h-128l500 710h128zM660 1v86h-205v85l215 261h95v-251h54v-95h-54v-86h-105zM581 182h79v96z" />
    <glyph glyph-name="onehalf" unicode="&#xbd;" horiz-adv-x="827" 
d="M101 278v329h-87v103h192v-432h-105zM197 0h-128l500 710h128zM497 1v93l169 164q25 23 25 45q0 14 -9.5 23.5t-27.5 9.5q-40 0 -61 -51l-101 26q16 62 59.5 95.5t105.5 33.5q59 0 98.5 -33t39.5 -98q0 -31 -10 -56.5t-22.5 -41t-35.5 -38.5l-71 -69h143v-103h-302z" />
    <glyph glyph-name="threequarters" unicode="&#xbe;" horiz-adv-x="898" 
d="M174 270q-55 0 -101 31t-60 82l100 40q19 -49 64 -49q21 0 34 11.5t13 31.5q0 21 -15.5 34t-41.5 13h-59v87l63 57h-134v102h266v-90l-81 -73q52 -11 79.5 -46.5t27.5 -85.5q0 -66 -43 -105.5t-112 -39.5zM258 0h-128l500 710h128zM721 1v86h-205v85l215 261h95v-251h54
v-95h-54v-86h-105zM642 182h79v96z" />
    <glyph glyph-name="questiondown" unicode="&#xbf;" horiz-adv-x="540" 
d="M267 -204q-96 0 -160 60.5t-64 142.5q0 57 18 95.5t68 77.5q11 8 28.5 21t25.5 19t17 14t12.5 14.5t3.5 13.5v1h151v-19q0 -43 -20.5 -73.5t-64.5 -61.5q-7 -5 -25 -16t-25.5 -16.5t-18.5 -15.5t-15 -20.5t-4 -24.5q0 -29 22 -46t54 -17q35 0 70.5 18t60.5 55l119 -82
q-34 -58 -101 -99t-152 -41zM381 321h-179v179h179v-179z" />
    <glyph glyph-name="Agrave" unicode="&#xc0;" horiz-adv-x="750" 
d="M-1 0l304 710h144l304 -710h-166l-63 150h-294l-63 -150h-166zM375 501l-90 -213h179zM429 768h-110l-125 137h165z" />
    <glyph glyph-name="Aacute" unicode="&#xc1;" horiz-adv-x="750" 
d="M-1 0l304 710h144l304 -710h-166l-63 150h-294l-63 -150h-166zM375 501l-90 -213h179zM323 768l70 137h165l-125 -137h-110z" />
    <glyph glyph-name="Acircumflex" unicode="&#xc2;" horiz-adv-x="750" 
d="M-1 0l304 710h144l304 -710h-166l-63 150h-294l-63 -150h-166zM375 501l-90 -213h179zM193 768l114 137h138l114 -137h-134l-49 48l-50 -48h-133z" />
    <glyph glyph-name="Atilde" unicode="&#xc3;" horiz-adv-x="750" 
d="M-1 0l304 710h144l304 -710h-166l-63 150h-294l-63 -150h-166zM375 501l-90 -213h179zM183 776l4 28q8 55 42.5 86t78.5 31q35 0 78 -23.5t55 -23.5q19 0 28 11.5t16 36.5h83l-4 -28q-8 -55 -43 -86t-79 -31q-35 0 -78 23.5t-54 23.5q-19 0 -28.5 -11t-16.5 -37h-82z" />
    <glyph glyph-name="Adieresis" unicode="&#xc4;" horiz-adv-x="750" 
d="M-1 0l304 710h144l304 -710h-166l-63 150h-294l-63 -150h-166zM375 501l-90 -213h179zM258 768q-33 0 -57 24t-24 56q0 34 23.5 57.5t57.5 23.5q32 0 55.5 -24t23.5 -57q0 -32 -23.5 -56t-55.5 -24zM495 768q-33 0 -56.5 24t-23.5 56q0 34 23.5 57.5t56.5 23.5
t56.5 -23.5t23.5 -57.5q0 -32 -23.5 -56t-56.5 -24z" />
    <glyph glyph-name="Aring" unicode="&#xc5;" horiz-adv-x="750" 
d="M-1 0l304 710h144l304 -710h-166l-63 150h-294l-63 -150h-166zM375 501l-90 -213h179zM377 753q-50 0 -86 35.5t-36 84.5t36 84.5t86 35.5t86 -35.5t36 -84.5t-36 -84.5t-86 -35.5zM377 818q23 0 39.5 16t16.5 39t-16.5 39t-39.5 16t-39.5 -16t-16.5 -39t16.5 -39
t39.5 -16z" />
    <glyph glyph-name="AE" unicode="&#xc6;" horiz-adv-x="948" 
d="M452 0v150h-225l-82 -150h-173l394 710h536v-152h-291v-127h231v-152h-231v-127h291v-152h-450zM450 558l-148 -270h150v270h-2z" />
    <glyph glyph-name="Ccedilla" unicode="&#xc7;" horiz-adv-x="752" 
d="M402 -12q-152 0 -259.5 107.5t-107.5 259.5t107.5 259.5t259.5 107.5q109 0 197 -53t135 -141l-140 -76q-64 116 -192 116q-86 0 -146.5 -63t-60.5 -150t60.5 -150t146.5 -63q128 0 192 116l140 -76q-47 -88 -135 -141t-197 -53zM283 -188l14 64q31 -17 68 -17
q49 0 49 27q0 24 -32 24q-24 0 -43 -12l-36 19l52 86h64l-28 -47q15 12 47 12q34 0 58 -21.5t24 -54.5q0 -42 -41 -69t-96 -27q-61 0 -100 16z" />
    <glyph glyph-name="Egrave" unicode="&#xc8;" horiz-adv-x="571" 
d="M75 0v710h450v-152h-291v-127h231v-152h-231v-127h291v-152h-450zM352 768h-110l-125 137h165z" />
    <glyph glyph-name="Eacute" unicode="&#xc9;" horiz-adv-x="571" 
d="M75 0v710h450v-152h-291v-127h231v-152h-231v-127h291v-152h-450zM246 768l70 137h165l-125 -137h-110z" />
    <glyph glyph-name="Ecircumflex" unicode="&#xca;" horiz-adv-x="571" 
d="M75 0v710h450v-152h-291v-127h231v-152h-231v-127h291v-152h-450zM116 768l114 137h138l114 -137h-134l-49 48l-50 -48h-133z" />
    <glyph glyph-name="Edieresis" unicode="&#xcb;" horiz-adv-x="571" 
d="M75 0v710h450v-152h-291v-127h231v-152h-231v-127h291v-152h-450zM181 768q-33 0 -57 24t-24 56q0 34 23.5 57.5t57.5 23.5q32 0 55.5 -24t23.5 -57q0 -32 -23.5 -56t-55.5 -24zM418 768q-33 0 -56.5 24t-23.5 56q0 34 23.5 57.5t56.5 23.5t56.5 -23.5t23.5 -57.5
q0 -32 -23.5 -56t-56.5 -24z" />
    <glyph glyph-name="Igrave" unicode="&#xcc;" horiz-adv-x="309" 
d="M75 0v710h159v-710h-159zM208 768h-110l-125 137h165z" />
    <glyph glyph-name="Iacute" unicode="&#xcd;" horiz-adv-x="309" 
d="M75 0v710h159v-710h-159zM102 768l70 137h165l-125 -137h-110z" />
    <glyph glyph-name="Icircumflex" unicode="&#xce;" horiz-adv-x="309" 
d="M75 0v710h159v-710h-159zM-28 768l114 137h138l114 -137h-134l-49 48l-50 -48h-133z" />
    <glyph glyph-name="Idieresis" unicode="&#xcf;" horiz-adv-x="309" 
d="M75 0v710h159v-710h-159zM37 768q-33 0 -57 24t-24 56q0 34 23.5 57.5t57.5 23.5q32 0 55.5 -24t23.5 -57q0 -32 -23.5 -56t-55.5 -24zM274 768q-33 0 -56.5 24t-23.5 56q0 34 23.5 57.5t56.5 23.5t56.5 -23.5t23.5 -57.5q0 -32 -23.5 -56t-56.5 -24z" />
    <glyph glyph-name="Eth" unicode="&#xd0;" horiz-adv-x="732" 
d="M92 0v710h242q150 0 256 -104t106 -251t-106 -251t-256 -104h-242zM251 146h83q88 0 144.5 60.5t56.5 148.5t-56.5 148.5t-144.5 60.5h-83v-418zM20 289v138h351v-138h-351z" />
    <glyph glyph-name="Ntilde" unicode="&#xd1;" horiz-adv-x="792" 
d="M717 0h-137l-346 439v-439h-159v710h137l345 -439v439h160v-710zM203 776l4 28q8 55 42.5 86t78.5 31q35 0 78 -23.5t55 -23.5q19 0 28 11.5t16 36.5h83l-4 -28q-8 -55 -43 -86t-79 -31q-35 0 -78 23.5t-54 23.5q-19 0 -28.5 -11t-16.5 -37h-82z" />
    <glyph glyph-name="Ograve" unicode="&#xd2;" horiz-adv-x="804" 
d="M402 142q86 0 146 63t60 150t-60 150t-146 63t-146.5 -63t-60.5 -150t60.5 -150t146.5 -63zM402 -12q-152 0 -259.5 107.5t-107.5 259.5t107.5 259.5t259.5 107.5t259.5 -108t107.5 -259t-107.5 -259t-259.5 -108zM455 768h-110l-125 137h165z" />
    <glyph glyph-name="Oacute" unicode="&#xd3;" horiz-adv-x="804" 
d="M402 142q86 0 146 63t60 150t-60 150t-146 63t-146.5 -63t-60.5 -150t60.5 -150t146.5 -63zM402 -12q-152 0 -259.5 107.5t-107.5 259.5t107.5 259.5t259.5 107.5t259.5 -108t107.5 -259t-107.5 -259t-259.5 -108zM349 768l70 137h165l-125 -137h-110z" />
    <glyph glyph-name="Ocircumflex" unicode="&#xd4;" horiz-adv-x="804" 
d="M402 142q86 0 146 63t60 150t-60 150t-146 63t-146.5 -63t-60.5 -150t60.5 -150t146.5 -63zM402 -12q-152 0 -259.5 107.5t-107.5 259.5t107.5 259.5t259.5 107.5t259.5 -108t107.5 -259t-107.5 -259t-259.5 -108zM219 768l114 137h138l114 -137h-134l-49 48l-50 -48
h-133z" />
    <glyph glyph-name="Otilde" unicode="&#xd5;" horiz-adv-x="804" 
d="M402 142q86 0 146 63t60 150t-60 150t-146 63t-146.5 -63t-60.5 -150t60.5 -150t146.5 -63zM402 -12q-152 0 -259.5 107.5t-107.5 259.5t107.5 259.5t259.5 107.5t259.5 -108t107.5 -259t-107.5 -259t-259.5 -108zM209 776l4 28q8 55 42.5 86t78.5 31q35 0 78 -23.5
t55 -23.5q19 0 28 11.5t16 36.5h83l-4 -28q-8 -55 -43 -86t-79 -31q-35 0 -78 23.5t-54 23.5q-19 0 -28.5 -11t-16.5 -37h-82z" />
    <glyph glyph-name="Odieresis" unicode="&#xd6;" horiz-adv-x="804" 
d="M402 142q86 0 146 63t60 150t-60 150t-146 63t-146.5 -63t-60.5 -150t60.5 -150t146.5 -63zM402 -12q-152 0 -259.5 107.5t-107.5 259.5t107.5 259.5t259.5 107.5t259.5 -108t107.5 -259t-107.5 -259t-259.5 -108zM284 768q-33 0 -57 24t-24 56q0 34 23.5 57.5t57.5 23.5
q32 0 55.5 -24t23.5 -57q0 -32 -23.5 -56t-55.5 -24zM521 768q-33 0 -56.5 24t-23.5 56q0 34 23.5 57.5t56.5 23.5t56.5 -23.5t23.5 -57.5q0 -32 -23.5 -56t-56.5 -24z" />
    <glyph glyph-name="multiply" unicode="&#xd7;" horiz-adv-x="507" 
d="M131 74l-92 92l123 123l-123 123l92 92l123 -122l123 122l91 -92l-122 -123l122 -123l-91 -92l-123 122z" />
    <glyph glyph-name="Oslash" unicode="&#xd8;" horiz-adv-x="811" 
d="M406 142q86 0 146 63t60 150t-60 150t-146 63t-146.5 -63t-60.5 -150t60.5 -150t146.5 -63zM406 -12q-152 0 -259.5 107.5t-107.5 259.5t107.5 259.5t259.5 107.5t259.5 -108t107.5 -259t-107.5 -259t-259.5 -108zM778 638l-657 -656l-89 90l657 656z" />
    <glyph glyph-name="Ugrave" unicode="&#xd9;" horiz-adv-x="718" 
d="M359 -12q-129 0 -210.5 80.5t-81.5 212.5v429h159v-431q0 -63 36.5 -100t96.5 -37t96.5 37t36.5 100v431h159v-429q0 -132 -81.5 -212.5t-210.5 -80.5zM412 768h-110l-125 137h165z" />
    <glyph glyph-name="Uacute" unicode="&#xda;" horiz-adv-x="718" 
d="M359 -12q-129 0 -210.5 80.5t-81.5 212.5v429h159v-431q0 -63 36.5 -100t96.5 -37t96.5 37t36.5 100v431h159v-429q0 -132 -81.5 -212.5t-210.5 -80.5zM306 768l70 137h165l-125 -137h-110z" />
    <glyph glyph-name="Ucircumflex" unicode="&#xdb;" horiz-adv-x="718" 
d="M359 -12q-129 0 -210.5 80.5t-81.5 212.5v429h159v-431q0 -63 36.5 -100t96.5 -37t96.5 37t36.5 100v431h159v-429q0 -132 -81.5 -212.5t-210.5 -80.5zM176 768l114 137h138l114 -137h-134l-49 48l-50 -48h-133z" />
    <glyph glyph-name="Udieresis" unicode="&#xdc;" horiz-adv-x="718" 
d="M359 -12q-129 0 -210.5 80.5t-81.5 212.5v429h159v-431q0 -63 36.5 -100t96.5 -37t96.5 37t36.5 100v431h159v-429q0 -132 -81.5 -212.5t-210.5 -80.5zM241 768q-33 0 -57 24t-24 56q0 34 23.5 57.5t57.5 23.5q32 0 55.5 -24t23.5 -57q0 -32 -23.5 -56t-55.5 -24z
M478 768q-33 0 -56.5 24t-23.5 56q0 34 23.5 57.5t56.5 23.5t56.5 -23.5t23.5 -57.5q0 -32 -23.5 -56t-56.5 -24z" />
    <glyph glyph-name="Yacute" unicode="&#xdd;" horiz-adv-x="694" 
d="M267 0v299l-259 411h185l153 -256l155 256h185l-259 -412v-298h-160zM294 768l70 137h165l-125 -137h-110z" />
    <glyph glyph-name="Thorn" unicode="&#xde;" horiz-adv-x="598" 
d="M566 355q0 -103 -71.5 -173t-178.5 -70h-82v-112h-159v710h159v-112h82q107 0 178.5 -70t71.5 -173zM412 355q0 39 -28 66t-70 27h-80v-186h80q42 0 70 27t28 66z" />
    <glyph glyph-name="germandbls" unicode="&#xdf;" horiz-adv-x="590" 
d="M62 0v505q0 104 69.5 167.5t168.5 63.5q96 0 163 -57.5t67 -147.5q0 -84 -70 -148q46 -28 72 -72.5t26 -88.5q0 -99 -70 -160.5t-171 -61.5h-34v136h27q42 0 69.5 25t27.5 62t-27.5 62t-69.5 25h-27v135h14q38 0 60 21t22 57q0 34 -22 55.5t-58 21.5q-37 0 -62 -26
t-25 -67v-507h-150z" />
    <glyph glyph-name="agrave" unicode="&#xe0;" horiz-adv-x="609" 
d="M278 -11q-108 0 -177 76.5t-69 184.5t69 184.5t177 76.5q71 0 118 -42v31h151v-500h-151v32q-46 -43 -118 -43zM301 126q59 0 95 48v153q-37 47 -95 47q-50 0 -81.5 -36t-31.5 -88t31.5 -88t81.5 -36zM394 556h-110l-143 174h173z" />
    <glyph glyph-name="aacute" unicode="&#xe1;" horiz-adv-x="609" 
d="M278 -11q-108 0 -177 76.5t-69 184.5t69 184.5t177 76.5q71 0 118 -42v31h151v-500h-151v32q-46 -43 -118 -43zM301 126q59 0 95 48v153q-37 47 -95 47q-50 0 -81.5 -36t-31.5 -88t31.5 -88t81.5 -36zM276 556l80 174h173l-143 -174h-110z" />
    <glyph glyph-name="acircumflex" unicode="&#xe2;" horiz-adv-x="609" 
d="M278 -11q-108 0 -177 76.5t-69 184.5t69 184.5t177 76.5q71 0 118 -42v31h151v-500h-151v32q-46 -43 -118 -43zM301 126q59 0 95 48v153q-37 47 -95 47q-50 0 -81.5 -36t-31.5 -88t31.5 -88t81.5 -36zM145 578l127 152h126l127 -152h-129l-61 61l-61 -61h-129z" />
    <glyph glyph-name="atilde" unicode="&#xe3;" horiz-adv-x="609" 
d="M278 -11q-108 0 -177 76.5t-69 184.5t69 184.5t177 76.5q71 0 118 -42v31h151v-500h-151v32q-46 -43 -118 -43zM301 126q59 0 95 48v153q-37 47 -95 47q-50 0 -81.5 -36t-31.5 -88t31.5 -88t81.5 -36zM142 565l4 28q8 55 42.5 86t78.5 31q35 0 78 -23.5t55 -23.5
q19 0 28 11.5t16 36.5h83l-4 -28q-8 -54 -43 -85.5t-78 -31.5q-35 0 -78 23.5t-55 23.5q-19 0 -28 -11.5t-16 -36.5h-83z" />
    <glyph glyph-name="adieresis" unicode="&#xe4;" horiz-adv-x="609" 
d="M278 -11q-108 0 -177 76.5t-69 184.5t69 184.5t177 76.5q71 0 118 -42v31h151v-500h-151v32q-46 -43 -118 -43zM301 126q59 0 95 48v153q-37 47 -95 47q-50 0 -81.5 -36t-31.5 -88t31.5 -88t81.5 -36zM217 562q-33 0 -57 23.5t-24 55.5q0 34 23.5 57.5t57.5 23.5
q32 0 55.5 -24t23.5 -57q0 -32 -23.5 -55.5t-55.5 -23.5zM454 562q-33 0 -56.5 23.5t-23.5 55.5q0 34 23.5 57.5t56.5 23.5t56.5 -23.5t23.5 -57.5q0 -32 -23.5 -55.5t-56.5 -23.5z" />
    <glyph glyph-name="aring" unicode="&#xe5;" horiz-adv-x="609" 
d="M278 -11q-108 0 -177 76.5t-69 184.5t69 184.5t177 76.5q71 0 118 -42v31h151v-500h-151v32q-46 -43 -118 -43zM301 126q59 0 95 48v153q-37 47 -95 47q-50 0 -81.5 -36t-31.5 -88t31.5 -88t81.5 -36zM335 543q-50 0 -86 35.5t-36 84.5t36 84.5t86 35.5t86 -35.5
t36 -84.5t-36 -84.5t-86 -35.5zM335 608q23 0 39.5 16t16.5 39t-16.5 39t-39.5 16t-39.5 -16t-16.5 -39t16.5 -39t39.5 -16z" />
    <glyph glyph-name="ae" unicode="&#xe6;" horiz-adv-x="885" 
d="M229 -8q-90 0 -145.5 41.5t-55.5 122.5q0 71 54.5 111t138.5 40q61 0 116 -26v14q-6 39 -38 58t-78 19q-61 0 -115 -33l-31 141q77 31 156 31q121 0 192 -76q76 76 190 76q97 0 168 -64.5t71 -179.5q0 -29 -3 -53h-363q6 -43 41 -65.5t81 -22.5q41 0 73 16.5t48 40.5
l112 -84q-35 -50 -95 -80t-125 -30q-116 0 -193 74q-82 -71 -199 -71zM599 388q-38 0 -69 -18.5t-40 -56.5h212q-9 37 -38 56t-65 19zM241 118q70 0 96 35v28q-38 23 -95 23q-68 0 -68 -44q0 -22 20 -32t47 -10z" />
    <glyph glyph-name="ccedilla" unicode="&#xe7;" horiz-adv-x="556" 
d="M298 -11q-112 0 -189 74t-77 187t77 187t189 74q77 0 142 -40t97 -106l-132 -70q-33 75 -107 75q-48 0 -81 -34t-33 -86t33 -86t81 -34q74 0 107 75l132 -70q-32 -66 -97 -106t-142 -40zM179 -188l14 64q31 -17 68 -17q49 0 49 27q0 24 -33 24q-23 0 -42 -12l-36 19
l52 86h64l-28 -47q15 12 46 12q35 0 59 -21.5t24 -54.5q0 -42 -41 -69t-96 -27q-61 0 -100 16z" />
    <glyph glyph-name="egrave" unicode="&#xe8;" horiz-adv-x="577" 
d="M298 -11q-113 0 -189.5 71.5t-76.5 189.5q0 112 75 186.5t188 74.5q105 0 177 -64t72 -180q0 -29 -3 -53h-363q6 -43 41 -65.5t81 -22.5q41 0 73 16.5t48 40.5l112 -84q-36 -51 -97 -80.5t-138 -29.5zM182 313h212q-9 37 -38 56t-65 19q-38 0 -69 -18.5t-40 -56.5z
M359 556h-110l-143 174h173z" />
    <glyph glyph-name="eacute" unicode="&#xe9;" horiz-adv-x="577" 
d="M298 -11q-113 0 -189.5 71.5t-76.5 189.5q0 112 75 186.5t188 74.5q105 0 177 -64t72 -180q0 -29 -3 -53h-363q6 -43 41 -65.5t81 -22.5q41 0 73 16.5t48 40.5l112 -84q-36 -51 -97 -80.5t-138 -29.5zM182 313h212q-9 37 -38 56t-65 19q-38 0 -69 -18.5t-40 -56.5z
M241 556l80 174h173l-143 -174h-110z" />
    <glyph glyph-name="ecircumflex" unicode="&#xea;" horiz-adv-x="577" 
d="M298 -11q-113 0 -189.5 71.5t-76.5 189.5q0 112 75 186.5t188 74.5q105 0 177 -64t72 -180q0 -29 -3 -53h-363q6 -43 41 -65.5t81 -22.5q41 0 73 16.5t48 40.5l112 -84q-36 -51 -97 -80.5t-138 -29.5zM182 313h212q-9 37 -38 56t-65 19q-38 0 -69 -18.5t-40 -56.5z
M110 578l127 152h126l127 -152h-129l-61 61l-61 -61h-129z" />
    <glyph glyph-name="edieresis" unicode="&#xeb;" horiz-adv-x="577" 
d="M298 -11q-113 0 -189.5 71.5t-76.5 189.5q0 112 75 186.5t188 74.5q105 0 177 -64t72 -180q0 -29 -3 -53h-363q6 -43 41 -65.5t81 -22.5q41 0 73 16.5t48 40.5l112 -84q-36 -51 -97 -80.5t-138 -29.5zM182 313h212q-9 37 -38 56t-65 19q-38 0 -69 -18.5t-40 -56.5z
M182 562q-33 0 -57 23.5t-24 55.5q0 34 23.5 57.5t57.5 23.5q32 0 55.5 -24t23.5 -57q0 -32 -23.5 -55.5t-55.5 -23.5zM419 562q-33 0 -56.5 23.5t-23.5 55.5q0 34 23.5 57.5t56.5 23.5t56.5 -23.5t23.5 -57.5q0 -32 -23.5 -55.5t-56.5 -23.5z" />
    <glyph glyph-name="igrave" unicode="&#xec;" horiz-adv-x="275" 
d="M62 0v500h151v-500h-151zM197 556h-110l-143 174h173z" />
    <glyph glyph-name="iacute" unicode="&#xed;" horiz-adv-x="275" 
d="M62 0v500h151v-500h-151zM79 556l80 174h173l-143 -174h-110z" />
    <glyph glyph-name="icircumflex" unicode="&#xee;" horiz-adv-x="275" 
d="M62 0v500h151v-500h-151zM-52 578l127 152h126l127 -152h-129l-61 61l-61 -61h-129z" />
    <glyph glyph-name="idieresis" unicode="&#xef;" horiz-adv-x="275" 
d="M62 0v500h151v-500h-151zM44 572q-33 0 -56.5 23.5t-23.5 55.5q0 33 23.5 56.5t56.5 23.5q32 0 55.5 -23.5t23.5 -56.5q0 -32 -23.5 -55.5t-55.5 -23.5zM231 572q-32 0 -55.5 23.5t-23.5 55.5q0 33 23.5 56.5t55.5 23.5q33 0 56.5 -23.5t23.5 -56.5q0 -32 -23.5 -55.5
t-56.5 -23.5z" />
    <glyph glyph-name="eth" unicode="&#xf0;" horiz-adv-x="591" 
d="M456 560h-50l105 -160q48 -75 48 -150q0 -108 -78 -184.5t-186 -76.5t-185.5 76.5t-77.5 184.5q0 59 23.5 108t60 79.5t78 48t80.5 19.5l-36 55h-134v96h72l-47 74h167l48 -74h112v-96zM295 130q49 0 80.5 33.5t31.5 86.5t-31.5 86.5t-80.5 33.5q-48 0 -79.5 -33
t-31.5 -87t31.5 -87t79.5 -33z" />
    <glyph glyph-name="ntilde" unicode="&#xf1;" horiz-adv-x="602" 
d="M62 0v500h151v-36q50 47 130 47q96 0 149.5 -61.5t53.5 -164.5v-285h-151v259q0 53 -21 84t-64 31q-61 0 -97 -46v-328h-151zM110 565l4 28q8 55 42.5 86t78.5 31q35 0 78 -23.5t55 -23.5q19 0 28 11.5t16 36.5h83l-4 -28q-8 -54 -43 -85.5t-78 -31.5q-35 0 -78 23.5
t-55 23.5q-19 0 -28 -11.5t-16 -36.5h-83z" />
    <glyph glyph-name="ograve" unicode="&#xf2;" horiz-adv-x="588" 
d="M294 -11q-109 0 -186 75.5t-77 185.5t77 185.5t186 75.5t186 -75.5t77 -185.5t-77 -185.5t-186 -75.5zM294 130q48 0 79.5 33t31.5 87t-31.5 87t-79.5 33t-79.5 -33t-31.5 -87t31.5 -87t79.5 -33zM353 556h-110l-143 174h173z" />
    <glyph glyph-name="oacute" unicode="&#xf3;" horiz-adv-x="588" 
d="M294 -11q-109 0 -186 75.5t-77 185.5t77 185.5t186 75.5t186 -75.5t77 -185.5t-77 -185.5t-186 -75.5zM294 130q48 0 79.5 33t31.5 87t-31.5 87t-79.5 33t-79.5 -33t-31.5 -87t31.5 -87t79.5 -33zM235 556l80 174h173l-143 -174h-110z" />
    <glyph glyph-name="ocircumflex" unicode="&#xf4;" horiz-adv-x="588" 
d="M294 -11q-109 0 -186 75.5t-77 185.5t77 185.5t186 75.5t186 -75.5t77 -185.5t-77 -185.5t-186 -75.5zM294 130q48 0 79.5 33t31.5 87t-31.5 87t-79.5 33t-79.5 -33t-31.5 -87t31.5 -87t79.5 -33zM104 578l127 152h126l127 -152h-129l-61 61l-61 -61h-129z" />
    <glyph glyph-name="otilde" unicode="&#xf5;" horiz-adv-x="588" 
d="M294 -11q-109 0 -186 75.5t-77 185.5t77 185.5t186 75.5t186 -75.5t77 -185.5t-77 -185.5t-186 -75.5zM294 130q48 0 79.5 33t31.5 87t-31.5 87t-79.5 33t-79.5 -33t-31.5 -87t31.5 -87t79.5 -33zM101 565l4 28q8 55 42.5 86t78.5 31q35 0 78 -23.5t55 -23.5
q19 0 28 11.5t16 36.5h83l-4 -28q-8 -54 -43 -85.5t-78 -31.5q-35 0 -78 23.5t-55 23.5q-19 0 -28 -11.5t-16 -36.5h-83z" />
    <glyph glyph-name="odieresis" unicode="&#xf6;" horiz-adv-x="588" 
d="M294 -11q-109 0 -186 75.5t-77 185.5t77 185.5t186 75.5t186 -75.5t77 -185.5t-77 -185.5t-186 -75.5zM294 130q48 0 79.5 33t31.5 87t-31.5 87t-79.5 33t-79.5 -33t-31.5 -87t31.5 -87t79.5 -33zM176 562q-33 0 -57 23.5t-24 55.5q0 34 23.5 57.5t57.5 23.5
q32 0 55.5 -24t23.5 -57q0 -32 -23.5 -55.5t-55.5 -23.5zM413 562q-33 0 -56.5 23.5t-23.5 55.5q0 34 23.5 57.5t56.5 23.5t56.5 -23.5t23.5 -57.5q0 -32 -23.5 -55.5t-56.5 -23.5z" />
    <glyph glyph-name="oslash" unicode="&#xf8;" horiz-adv-x="593" 
d="M297 -11q-109 0 -186 75.5t-77 185.5t77 185.5t186 75.5t186 -75.5t77 -185.5t-77 -185.5t-186 -75.5zM297 130q48 0 79.5 33t31.5 87t-31.5 87t-79.5 33t-79.5 -33t-31.5 -87t31.5 -87t79.5 -33zM558 462l-475 -473l-47 49l475 473z" />
    <glyph glyph-name="ugrave" unicode="&#xf9;" horiz-adv-x="591" 
d="M529 500v-500h-151v34q-48 -45 -116 -45q-98 0 -152 61.5t-54 164.5v285h151v-259q0 -115 87 -115q48 0 84 46v328h151zM352 556h-110l-143 174h173z" />
    <glyph glyph-name="uacute" unicode="&#xfa;" horiz-adv-x="591" 
d="M529 500v-500h-151v34q-48 -45 -116 -45q-98 0 -152 61.5t-54 164.5v285h151v-259q0 -115 87 -115q48 0 84 46v328h151zM234 556l80 174h173l-143 -174h-110z" />
    <glyph glyph-name="ucircumflex" unicode="&#xfb;" horiz-adv-x="591" 
d="M529 500v-500h-151v34q-48 -45 -116 -45q-98 0 -152 61.5t-54 164.5v285h151v-259q0 -115 87 -115q48 0 84 46v328h151zM103 578l127 152h126l127 -152h-129l-61 61l-61 -61h-129z" />
    <glyph glyph-name="udieresis" unicode="&#xfc;" horiz-adv-x="591" 
d="M529 500v-500h-151v34q-48 -45 -116 -45q-98 0 -152 61.5t-54 164.5v285h151v-259q0 -115 87 -115q48 0 84 46v328h151zM175 562q-33 0 -57 23.5t-24 55.5q0 34 23.5 57.5t57.5 23.5q32 0 55.5 -24t23.5 -57q0 -32 -23.5 -55.5t-55.5 -23.5zM412 562q-33 0 -56.5 23.5
t-23.5 55.5q0 34 23.5 57.5t56.5 23.5t56.5 -23.5t23.5 -57.5q0 -32 -23.5 -55.5t-56.5 -23.5z" />
    <glyph glyph-name="yacute" unicode="&#xfd;" horiz-adv-x="576" 
d="M274 -194h-163l97 223l-208 471h165l124 -309l123 309h166zM232 556l80 174h173l-143 -174h-110z" />
    <glyph glyph-name="thorn" unicode="&#xfe;" horiz-adv-x="610" 
d="M62 -194v924h151v-261q47 42 118 42q108 0 177 -76.5t69 -184.5t-69 -184.5t-177 -76.5q-72 0 -118 43v-226h-151zM308 126q50 0 81.5 36t31.5 88t-31.5 88t-81.5 36q-58 0 -95 -47v-153q36 -48 95 -48z" />
    <glyph glyph-name="ydieresis" unicode="&#xff;" horiz-adv-x="576" 
d="M274 -194h-163l97 223l-208 471h165l124 -309l123 309h166zM173 562q-33 0 -57 23.5t-24 55.5q0 34 23.5 57.5t57.5 23.5q32 0 55.5 -24t23.5 -57q0 -32 -23.5 -55.5t-55.5 -23.5zM410 562q-33 0 -56.5 23.5t-23.5 55.5q0 34 23.5 57.5t56.5 23.5t56.5 -23.5t23.5 -57.5
q0 -32 -23.5 -55.5t-56.5 -23.5z" />
    <glyph glyph-name="Amacron" unicode="&#x100;" horiz-adv-x="750" 
d="M-1 0l304 710h144l304 -710h-166l-63 150h-294l-63 -150h-166zM375 501l-90 -213h179zM202 787v104h348v-104h-348z" />
    <glyph glyph-name="amacron" unicode="&#x101;" horiz-adv-x="609" 
d="M278 -11q-108 0 -177 76.5t-69 184.5t69 184.5t177 76.5q71 0 118 -42v31h151v-500h-151v32q-46 -43 -118 -43zM301 126q59 0 95 48v153q-37 47 -95 47q-50 0 -81.5 -36t-31.5 -88t31.5 -88t81.5 -36zM161 606v104h348v-104h-348z" />
    <glyph glyph-name="Abreve" unicode="&#x102;" horiz-adv-x="750" 
d="M-1 0l304 710h144l304 -710h-166l-63 150h-294l-63 -150h-166zM375 501l-90 -213h179zM376 747q-76 0 -127 49.5t-51 130.5h86q0 -45 26 -69t66 -24t66 24t26 69h86q0 -81 -51 -130.5t-127 -49.5z" />
    <glyph glyph-name="abreve" unicode="&#x103;" horiz-adv-x="609" 
d="M278 -11q-108 0 -177 76.5t-69 184.5t69 184.5t177 76.5q71 0 118 -42v31h151v-500h-151v32q-46 -43 -118 -43zM301 126q59 0 95 48v153q-37 47 -95 47q-50 0 -81.5 -36t-31.5 -88t31.5 -88t81.5 -36zM335 545q-76 0 -127 49.5t-51 128.5v7h86v-7q0 -44 26 -68t66 -24
t66 24t26 68v7h86v-7q0 -79 -51 -128.5t-127 -49.5z" />
    <glyph glyph-name="Aogonek" unicode="&#x104;" horiz-adv-x="750" 
d="M-1 0l304 710h144l304 -710q-79 -36 -79 -76q0 -27 27 -27q14 0 26 9l40 -77q-50 -33 -112 -33q-51 0 -81 25t-30 67q0 11 1.5 20.5t4.5 19.5t5.5 16.5t7.5 16t7.5 14t9 14t7.5 11.5l-63 150h-294l-63 -150h-166zM375 501l-90 -213h179z" />
    <glyph glyph-name="aogonek" unicode="&#x105;" horiz-adv-x="609" 
d="M278 -11q-108 0 -177 76.5t-69 184.5t69 184.5t177 76.5q71 0 118 -42v31h151v-500h-151v32q-46 -43 -118 -43zM301 126q59 0 95 48v153q-37 47 -95 47q-50 0 -81.5 -36t-31.5 -88t31.5 -88t81.5 -36zM450 -204q-51 0 -81.5 25t-30.5 67q0 58 58 112h151q-79 -36 -79 -75
q0 -27 28 -27q11 0 26 9l39 -78q-50 -33 -111 -33z" />
    <glyph glyph-name="Cacute" unicode="&#x106;" horiz-adv-x="752" 
d="M402 -12q-152 0 -259.5 107.5t-107.5 259.5t107.5 259.5t259.5 107.5q109 0 197 -53t135 -141l-140 -76q-64 116 -192 116q-86 0 -146.5 -63t-60.5 -150t60.5 -150t146.5 -63q128 0 192 116l140 -76q-47 -88 -135 -141t-197 -53zM349 768l70 137h165l-125 -137h-110z" />
    <glyph glyph-name="cacute" unicode="&#x107;" horiz-adv-x="556" 
d="M298 -11q-112 0 -189 74t-77 187t77 187t189 74q77 0 142 -40t97 -106l-132 -70q-33 75 -107 75q-48 0 -81 -34t-33 -86t33 -86t81 -34q74 0 107 75l132 -70q-32 -66 -97 -106t-142 -40zM239 556l80 174h173l-143 -174h-110z" />
    <glyph glyph-name="Ccircumflex" unicode="&#x108;" horiz-adv-x="752" 
d="M402 -12q-152 0 -259.5 107.5t-107.5 259.5t107.5 259.5t259.5 107.5q109 0 197 -53t135 -141l-140 -76q-64 116 -192 116q-86 0 -146.5 -63t-60.5 -150t60.5 -150t146.5 -63q128 0 192 116l140 -76q-47 -88 -135 -141t-197 -53zM219 768l114 137h138l114 -137h-134
l-49 48l-50 -48h-133z" />
    <glyph glyph-name="ccircumflex" unicode="&#x109;" horiz-adv-x="556" 
d="M298 -11q-112 0 -189 74t-77 187t77 187t189 74q77 0 142 -40t97 -106l-132 -70q-33 75 -107 75q-48 0 -81 -34t-33 -86t33 -86t81 -34q74 0 107 75l132 -70q-32 -66 -97 -106t-142 -40zM108 578l127 152h126l127 -152h-129l-61 61l-61 -61h-129z" />
    <glyph glyph-name="Cdotaccent" unicode="&#x10a;" horiz-adv-x="752" 
d="M402 -12q-152 0 -259.5 107.5t-107.5 259.5t107.5 259.5t259.5 107.5q109 0 197 -53t135 -141l-140 -76q-64 116 -192 116q-86 0 -146.5 -63t-60.5 -150t60.5 -150t146.5 -63q128 0 192 116l140 -76q-47 -88 -135 -141t-197 -53zM402 768q-33 0 -57 24t-24 56
q0 34 23.5 57.5t57.5 23.5q33 0 56.5 -23.5t23.5 -57.5q0 -32 -23.5 -56t-56.5 -24z" />
    <glyph glyph-name="cdotaccent" unicode="&#x10b;" horiz-adv-x="556" 
d="M298 -11q-112 0 -189 74t-77 187t77 187t189 74q77 0 142 -40t97 -106l-132 -70q-33 75 -107 75q-48 0 -81 -34t-33 -86t33 -86t81 -34q74 0 107 75l132 -70q-32 -66 -97 -106t-142 -40zM298 562q-33 0 -57 23.5t-24 55.5q0 34 23.5 57.5t57.5 23.5q33 0 56.5 -23.5
t23.5 -57.5q0 -32 -23.5 -55.5t-56.5 -23.5z" />
    <glyph glyph-name="Ccaron" unicode="&#x10c;" horiz-adv-x="752" 
d="M402 -12q-152 0 -259.5 107.5t-107.5 259.5t107.5 259.5t259.5 107.5q109 0 197 -53t135 -141l-140 -76q-64 116 -192 116q-86 0 -146.5 -63t-60.5 -150t60.5 -150t146.5 -63q128 0 192 116l140 -76q-47 -88 -135 -141t-197 -53zM333 768l-114 137h133l50 -49l49 49h134
l-114 -137h-138z" />
    <glyph glyph-name="ccaron" unicode="&#x10d;" horiz-adv-x="556" 
d="M298 -11q-112 0 -189 74t-77 187t77 187t189 74q77 0 142 -40t97 -106l-132 -70q-33 75 -107 75q-48 0 -81 -34t-33 -86t33 -86t81 -34q74 0 107 75l132 -70q-32 -66 -97 -106t-142 -40zM108 730h129l61 -61l61 61h129l-127 -152h-126z" />
    <glyph glyph-name="Dcaron" unicode="&#x10e;" horiz-adv-x="715" 
d="M75 0v710h242q150 0 256 -104t106 -251t-106 -251t-256 -104h-242zM234 146h83q88 0 144.5 60.5t56.5 148.5t-56.5 148.5t-144.5 60.5h-83v-418zM268 768l-114 137h133l50 -49l49 49h134l-114 -137h-138z" />
    <glyph glyph-name="dcaron" unicode="&#x10f;" horiz-adv-x="609" 
d="M278 -11q-108 0 -177 76.5t-69 184.5t69 184.5t177 76.5q71 0 118 -42v261h151v-730h-151v32q-46 -43 -118 -43zM301 126q59 0 95 48v153q-37 47 -95 47q-50 0 -81.5 -36t-31.5 -88t31.5 -88t81.5 -36zM563 570l20 160h151l-69 -160h-102z" />
    <glyph glyph-name="Dcroat" unicode="&#x110;" horiz-adv-x="732" 
d="M92 0v710h242q150 0 256 -104t106 -251t-106 -251t-256 -104h-242zM251 146h83q88 0 144.5 60.5t56.5 148.5t-56.5 148.5t-144.5 60.5h-83v-418zM20 289v138h351v-138h-351z" />
    <glyph glyph-name="dcroat" unicode="&#x111;" horiz-adv-x="609" 
d="M278 -11q-108 0 -177 76.5t-69 184.5t69 184.5t177 76.5q71 0 118 -42v261h151v-730h-151v32q-46 -43 -118 -43zM301 126q59 0 95 48v153q-37 47 -95 47q-50 0 -81.5 -36t-31.5 -88t31.5 -88t81.5 -36zM609 564h-343v96h343v-96z" />
    <glyph glyph-name="Emacron" unicode="&#x112;" horiz-adv-x="571" 
d="M75 0v710h450v-152h-291v-127h231v-152h-231v-127h291v-152h-450zM125 787v104h348v-104h-348z" />
    <glyph glyph-name="emacron" unicode="&#x113;" horiz-adv-x="577" 
d="M298 -11q-113 0 -189.5 71.5t-76.5 189.5q0 112 75 186.5t188 74.5q105 0 177 -64t72 -180q0 -29 -3 -53h-363q6 -43 41 -65.5t81 -22.5q41 0 73 16.5t48 40.5l112 -84q-36 -51 -97 -80.5t-138 -29.5zM182 313h212q-9 37 -38 56t-65 19q-38 0 -69 -18.5t-40 -56.5z
M126 606v104h348v-104h-348z" />
    <glyph glyph-name="Ebreve" unicode="&#x114;" horiz-adv-x="571" 
d="M75 0v710h450v-152h-291v-127h231v-152h-231v-127h291v-152h-450zM299 747q-76 0 -127 49.5t-51 130.5h86q0 -45 26 -69t66 -24t66 24t26 69h86q0 -81 -51 -130.5t-127 -49.5z" />
    <glyph glyph-name="ebreve" unicode="&#x115;" horiz-adv-x="577" 
d="M298 -11q-113 0 -189.5 71.5t-76.5 189.5q0 112 75 186.5t188 74.5q105 0 177 -64t72 -180q0 -29 -3 -53h-363q6 -43 41 -65.5t81 -22.5q41 0 73 16.5t48 40.5l112 -84q-36 -51 -97 -80.5t-138 -29.5zM182 313h212q-9 37 -38 56t-65 19q-38 0 -69 -18.5t-40 -56.5z
M300 545q-76 0 -127 49.5t-51 128.5v7h86v-7q0 -44 26 -68t66 -24t66 24t26 68v7h86v-7q0 -79 -51 -128.5t-127 -49.5z" />
    <glyph glyph-name="Edotaccent" unicode="&#x116;" horiz-adv-x="571" 
d="M75 0v710h450v-152h-291v-127h231v-152h-231v-127h291v-152h-450zM299 768q-33 0 -57 24t-24 56q0 34 23.5 57.5t57.5 23.5q33 0 56.5 -23.5t23.5 -57.5q0 -32 -23.5 -56t-56.5 -24z" />
    <glyph glyph-name="edotaccent" unicode="&#x117;" horiz-adv-x="577" 
d="M298 -11q-113 0 -189.5 71.5t-76.5 189.5q0 112 75 186.5t188 74.5q105 0 177 -64t72 -180q0 -29 -3 -53h-363q6 -43 41 -65.5t81 -22.5q41 0 73 16.5t48 40.5l112 -84q-36 -51 -97 -80.5t-138 -29.5zM182 313h212q-9 37 -38 56t-65 19q-38 0 -69 -18.5t-40 -56.5z
M300 562q-33 0 -57 23.5t-24 55.5q0 34 23.5 57.5t57.5 23.5q33 0 56.5 -23.5t23.5 -57.5q0 -32 -23.5 -55.5t-56.5 -23.5z" />
    <glyph glyph-name="Eogonek" unicode="&#x118;" horiz-adv-x="571" 
d="M75 0v710h450v-152h-291v-127h231v-152h-231v-127h291v-152h-450zM423 -204q-48 0 -80.5 25.5t-32.5 68.5q0 51 56 110h159q-79 -36 -79 -72q0 -11 8 -17t16 -6q14 0 26 9l43 -85q-50 -33 -116 -33z" />
    <glyph glyph-name="eogonek" unicode="&#x119;" horiz-adv-x="577" 
d="M431 -204q-53 0 -83.5 28.5t-30.5 74.5q0 54 63 100q-34 -10 -82 -10q-113 0 -189.5 71.5t-76.5 189.5q0 112 75 186.5t188 74.5q105 0 177 -64t72 -180q0 -29 -3 -53h-363q6 -43 41 -65.5t81 -22.5q41 0 73 16.5t48 40.5l112 -84q-87 -104 -87 -162q0 -19 10 -29t25 -10
q11 0 26 9l40 -78q-48 -33 -116 -33zM291 388q-38 0 -69 -18.5t-40 -56.5h212q-9 37 -38 56t-65 19z" />
    <glyph glyph-name="Ecaron" unicode="&#x11a;" horiz-adv-x="571" 
d="M75 0v710h450v-152h-291v-127h231v-152h-231v-127h291v-152h-450zM230 768l-114 137h133l50 -49l49 49h134l-114 -137h-138z" />
    <glyph glyph-name="ecaron" unicode="&#x11b;" horiz-adv-x="577" 
d="M298 -11q-113 0 -189.5 71.5t-76.5 189.5q0 112 75 186.5t188 74.5q105 0 177 -64t72 -180q0 -29 -3 -53h-363q6 -43 41 -65.5t81 -22.5q41 0 73 16.5t48 40.5l112 -84q-36 -51 -97 -80.5t-138 -29.5zM182 313h212q-9 37 -38 56t-65 19q-38 0 -69 -18.5t-40 -56.5z
M110 730h129l61 -61l61 61h129l-127 -152h-126z" />
    <glyph glyph-name="Gcircumflex" unicode="&#x11c;" horiz-adv-x="763" 
d="M422 -12q-165 0 -275.5 105.5t-110.5 261.5q0 154 105.5 260.5t268.5 106.5q183 0 291 -121l-112 -109q-71 76 -179 76q-94 0 -154 -62.5t-60 -150.5q0 -92 61 -152.5t163 -60.5q94 0 138 34v105h-139v149h294v-337q-46 -52 -123 -78.5t-168 -26.5zM230 768l114 137h138
l114 -137h-134l-49 48l-50 -48h-133z" />
    <glyph glyph-name="gcircumflex" unicode="&#x11d;" horiz-adv-x="614" 
d="M286 -204q-137 0 -219 64l79 113q59 -45 138 -45q47 0 82 25t35 72v29q-46 -43 -120 -43q-107 0 -178 72t-71 178t71 178t178 72q73 0 120 -42v31h151v-473q0 -53 -16 -94t-41.5 -66t-61.5 -41.5t-71.5 -23t-75.5 -6.5zM306 148q59 0 95 48v131q-37 47 -95 47
q-52 0 -85 -31.5t-33 -81.5t33 -81.5t85 -31.5zM117 578l127 152h126l127 -152h-129l-61 61l-61 -61h-129z" />
    <glyph glyph-name="Gbreve" unicode="&#x11e;" horiz-adv-x="763" 
d="M422 -12q-165 0 -275.5 105.5t-110.5 261.5q0 154 105.5 260.5t268.5 106.5q183 0 291 -121l-112 -109q-71 76 -179 76q-94 0 -154 -62.5t-60 -150.5q0 -92 61 -152.5t163 -60.5q94 0 138 34v105h-139v149h294v-337q-46 -52 -123 -78.5t-168 -26.5zM413 747
q-76 0 -127 49.5t-51 130.5h86q0 -45 26 -69t66 -24t66 24t26 69h86q0 -81 -51 -130.5t-127 -49.5z" />
    <glyph glyph-name="gbreve" unicode="&#x11f;" horiz-adv-x="614" 
d="M286 -204q-137 0 -219 64l79 113q59 -45 138 -45q47 0 82 25t35 72v29q-46 -43 -120 -43q-107 0 -178 72t-71 178t71 178t178 72q73 0 120 -42v31h151v-473q0 -53 -16 -94t-41.5 -66t-61.5 -41.5t-71.5 -23t-75.5 -6.5zM306 148q59 0 95 48v131q-37 47 -95 47
q-52 0 -85 -31.5t-33 -81.5t33 -81.5t85 -31.5zM307 545q-76 0 -127 49.5t-51 128.5v7h86v-7q0 -44 26 -68t66 -24t66 24t26 68v7h86v-7q0 -79 -51 -128.5t-127 -49.5z" />
    <glyph glyph-name="Gdotaccent" unicode="&#x120;" horiz-adv-x="763" 
d="M422 -12q-165 0 -275.5 105.5t-110.5 261.5q0 154 105.5 260.5t268.5 106.5q183 0 291 -121l-112 -109q-71 76 -179 76q-94 0 -154 -62.5t-60 -150.5q0 -92 61 -152.5t163 -60.5q94 0 138 34v105h-139v149h294v-337q-46 -52 -123 -78.5t-168 -26.5zM413 768q-33 0 -57 24
t-24 56q0 34 23.5 57.5t57.5 23.5q33 0 56.5 -23.5t23.5 -57.5q0 -32 -23.5 -56t-56.5 -24z" />
    <glyph glyph-name="gdotaccent" unicode="&#x121;" horiz-adv-x="614" 
d="M286 -204q-137 0 -219 64l79 113q59 -45 138 -45q47 0 82 25t35 72v29q-46 -43 -120 -43q-107 0 -178 72t-71 178t71 178t178 72q73 0 120 -42v31h151v-473q0 -53 -16 -94t-41.5 -66t-61.5 -41.5t-71.5 -23t-75.5 -6.5zM306 148q59 0 95 48v131q-37 47 -95 47
q-52 0 -85 -31.5t-33 -81.5t33 -81.5t85 -31.5zM307 562q-33 0 -57 23.5t-24 55.5q0 34 23.5 57.5t57.5 23.5q33 0 56.5 -23.5t23.5 -57.5q0 -32 -23.5 -55.5t-56.5 -23.5z" />
    <glyph glyph-name="uni0122" unicode="&#x122;" horiz-adv-x="763" 
d="M422 -12q-165 0 -275.5 105.5t-110.5 261.5q0 154 105.5 260.5t268.5 106.5q183 0 291 -121l-112 -109q-71 76 -179 76q-94 0 -154 -62.5t-60 -150.5q0 -92 61 -152.5t163 -60.5q94 0 138 34v105h-139v149h294v-337q-46 -52 -123 -78.5t-168 -26.5zM444 -335h-67l34 117
h-58v139h141v-139z" />
    <glyph glyph-name="uni0123" unicode="&#x123;" horiz-adv-x="614" 
d="M286 -204q-137 0 -219 64l79 113q59 -45 138 -45q47 0 82 25t35 72v29q-46 -43 -120 -43q-107 0 -178 72t-71 178t71 178t178 72q73 0 120 -42v31h151v-473q0 -53 -16 -94t-41.5 -66t-61.5 -41.5t-71.5 -23t-75.5 -6.5zM306 148q59 0 95 48v131q-37 47 -95 47
q-52 0 -85 -31.5t-33 -81.5t33 -81.5t85 -31.5zM287 829h67l-33 -117h57v-140h-141v140z" />
    <glyph glyph-name="Hcircumflex" unicode="&#x124;" horiz-adv-x="754" 
d="M75 0v710h159v-278h286v278h159v-710h-159v281h-286v-281h-159zM194 768l114 137h138l114 -137h-134l-49 48l-50 -48h-133z" />
    <glyph glyph-name="hcircumflex" unicode="&#x125;" horiz-adv-x="602" 
d="M213 0h-151v730h151v-266q50 47 130 47q96 0 149.5 -61.5t53.5 -164.5v-285h-151v259q0 53 -21 84t-64 31q-61 0 -97 -46v-328zM150 768l114 137h138l114 -137h-134l-49 48l-50 -48h-133z" />
    <glyph glyph-name="Hbar" unicode="&#x126;" horiz-adv-x="790" 
d="M93 0v710h159v-278h286v278h159v-710h-159v281h-286v-281h-159zM21 518v108h748v-108h-748z" />
    <glyph glyph-name="hbar" unicode="&#x127;" horiz-adv-x="602" 
d="M213 0h-151v730h151v-266q50 47 130 47q96 0 149.5 -61.5t53.5 -164.5v-285h-151v259q0 53 -21 84t-64 31q-61 0 -97 -46v-328zM346 564h-343v96h343v-96z" />
    <glyph glyph-name="Itilde" unicode="&#x128;" horiz-adv-x="309" 
d="M75 0v710h159v-710h-159zM-38 776l4 28q8 55 42.5 86t78.5 31q35 0 78 -23.5t55 -23.5q19 0 28 11.5t16 36.5h83l-4 -28q-8 -55 -43 -86t-79 -31q-35 0 -78 23.5t-54 23.5q-19 0 -28.5 -11t-16.5 -37h-82z" />
    <glyph glyph-name="itilde" unicode="&#x129;" horiz-adv-x="275" 
d="M62 0v500h151v-500h-151zM-55 565l4 28q8 55 42.5 86t78.5 31q35 0 78 -23.5t55 -23.5q19 0 28 11.5t16 36.5h83l-4 -28q-8 -54 -43 -85.5t-78 -31.5q-35 0 -78 23.5t-55 23.5q-19 0 -28 -11.5t-16 -36.5h-83z" />
    <glyph glyph-name="Imacron" unicode="&#x12a;" horiz-adv-x="309" 
d="M75 0v710h159v-710h-159zM-19 787v104h348v-104h-348z" />
    <glyph glyph-name="imacron" unicode="&#x12b;" horiz-adv-x="275" 
d="M62 0v500h151v-500h-151zM-36 606v104h348v-104h-348z" />
    <glyph glyph-name="Ibreve" unicode="&#x12c;" horiz-adv-x="309" 
d="M75 0v710h159v-710h-159zM155 747q-76 0 -127 49.5t-51 130.5h86q0 -45 26 -69t66 -24t66 24t26 69h86q0 -81 -51 -130.5t-127 -49.5z" />
    <glyph glyph-name="ibreve" unicode="&#x12d;" horiz-adv-x="275" 
d="M62 0v500h151v-500h-151zM138 545q-76 0 -127 49.5t-51 128.5v7h86v-7q0 -44 26 -68t66 -24t66 24t26 68v7h86v-7q0 -79 -51 -128.5t-127 -49.5z" />
    <glyph glyph-name="Iogonek" unicode="&#x12e;" horiz-adv-x="309" 
d="M75 0v710h159v-710h-159zM132 -204q-48 0 -80.5 25.5t-32.5 68.5q0 51 56 110h159q-79 -36 -79 -72q0 -11 8 -17t16 -6q14 0 26 9l43 -85q-50 -33 -116 -33z" />
    <glyph glyph-name="iogonek" unicode="&#x12f;" horiz-adv-x="275" 
d="M137 548q-38 0 -66 27.5t-28 66.5t28 66.5t66 27.5q40 0 67.5 -27.5t27.5 -66.5t-27.5 -66.5t-67.5 -27.5zM62 0v500h151v-500h-151zM116 -204q-51 0 -81.5 25t-30.5 67q0 58 58 112h151q-79 -36 -79 -75q0 -27 28 -27q11 0 26 9l39 -78q-50 -33 -111 -33z" />
    <glyph glyph-name="Idotaccent" unicode="&#x130;" horiz-adv-x="309" 
d="M75 0v710h159v-710h-159zM155 768q-33 0 -57 24t-24 56q0 34 23.5 57.5t57.5 23.5q33 0 56.5 -23.5t23.5 -57.5q0 -32 -23.5 -56t-56.5 -24z" />
    <glyph glyph-name="dotlessi" unicode="&#x131;" horiz-adv-x="275" 
d="M62 0v500h151v-500h-151z" />
    <glyph glyph-name="Jcircumflex" unicode="&#x134;" horiz-adv-x="471" 
d="M177 -12q-105 0 -178 66l88 118q39 -36 83 -36q31 0 51.5 17t20.5 51v506h159v-516q0 -101 -65.5 -153.5t-158.5 -52.5zM138 768l114 137h138l114 -137h-134l-49 48l-50 -48h-133z" />
    <glyph glyph-name="jcircumflex" unicode="&#x135;" horiz-adv-x="283" 
d="M26 -199q-72 0 -124 24l35 123q33 -17 68 -17q65 0 65 84v485h151v-510q0 -92 -54.5 -140.5t-140.5 -48.5zM-43 578l127 152h126l127 -152h-129l-61 61l-61 -61h-129z" />
    <glyph glyph-name="uni0136" unicode="&#x136;" horiz-adv-x="700" 
d="M522 0l-289 318v-318h-158v710h158v-297l241 297h195l-280 -341l337 -369h-204zM397 -335h-67l34 117h-58v139h141v-139z" />
    <glyph glyph-name="uni0137" unicode="&#x137;" horiz-adv-x="560" 
d="M399 0l-186 223v-223h-151v730h151v-409l146 179h179l-184 -226l228 -274h-183zM327 -335h-67l34 117h-58v139h141v-139z" />
    <glyph glyph-name="Lacute" unicode="&#x139;" horiz-adv-x="552" 
d="M75 0v710h159v-558h294v-152h-453zM105 768l70 137h165l-125 -137h-110z" />
    <glyph glyph-name="lacute" unicode="&#x13a;" horiz-adv-x="275" 
d="M62 0v730h151v-730h-151zM79 786l80 174h173l-143 -174h-110z" />
    <glyph glyph-name="uni013B" unicode="&#x13b;" horiz-adv-x="552" 
d="M75 0v710h159v-558h294v-152h-453zM323 -335h-67l34 117h-58v139h141v-139z" />
    <glyph glyph-name="uni013C" unicode="&#x13c;" horiz-adv-x="275" 
d="M62 0v730h151v-730h-151zM159 -335h-67l34 117h-58v139h141v-139z" />
    <glyph glyph-name="Lcaron" unicode="&#x13d;" horiz-adv-x="554" 
d="M75 0v710h159v-558h294v-152h-453zM296 570l20 160h151l-69 -160h-102z" />
    <glyph glyph-name="lcaron" unicode="&#x13e;" horiz-adv-x="275" 
d="M62 0v730h151v-730h-151zM229 570l20 160h151l-69 -160h-102z" />
    <glyph glyph-name="Ldot" unicode="&#x13f;" horiz-adv-x="560" 
d="M75 0v710h159v-558h294v-152h-453zM425 351q-34 0 -57.5 23.5t-23.5 56.5q0 34 23.5 57.5t57.5 23.5q33 0 56.5 -23.5t23.5 -57.5q0 -33 -23.5 -56.5t-56.5 -23.5z" />
    <glyph glyph-name="ldot" unicode="&#x140;" horiz-adv-x="410" 
d="M62 0v730h151v-730h-151zM343 293q-34 0 -57.5 23.5t-23.5 56.5q0 34 23.5 57.5t57.5 23.5q33 0 56.5 -23.5t23.5 -57.5q0 -33 -23.5 -56.5t-56.5 -23.5z" />
    <glyph glyph-name="Lslash" unicode="&#x141;" horiz-adv-x="583" 
d="M106 0v710h159v-558h294v-152h-453zM394 418l-360 -205v124l360 206v-125z" />
    <glyph glyph-name="lslash" unicode="&#x142;" horiz-adv-x="358" 
d="M104 0v730h151v-730h-151zM328 401l-297 -170v115l297 171v-116z" />
    <glyph glyph-name="Nacute" unicode="&#x143;" horiz-adv-x="792" 
d="M717 0h-137l-346 439v-439h-159v710h137l345 -439v439h160v-710zM343 768l70 137h165l-125 -137h-110z" />
    <glyph glyph-name="nacute" unicode="&#x144;" horiz-adv-x="602" 
d="M62 0v500h151v-36q50 47 130 47q96 0 149.5 -61.5t53.5 -164.5v-285h-151v259q0 53 -21 84t-64 31q-61 0 -97 -46v-328h-151zM244 556l80 174h173l-143 -174h-110z" />
    <glyph glyph-name="uni0145" unicode="&#x145;" horiz-adv-x="792" 
d="M717 0h-137l-346 439v-439h-159v710h137l345 -439v439h160v-710zM415 -335h-67l34 117h-58v139h141v-139z" />
    <glyph glyph-name="uni0146" unicode="&#x146;" horiz-adv-x="602" 
d="M62 0v500h151v-36q50 47 130 47q96 0 149.5 -61.5t53.5 -164.5v-285h-151v259q0 53 -21 84t-64 31q-61 0 -97 -46v-328h-151zM324 -335h-67l34 117h-58v139h141v-139z" />
    <glyph glyph-name="Ncaron" unicode="&#x147;" horiz-adv-x="792" 
d="M717 0h-137l-346 439v-439h-159v710h137l345 -439v439h160v-710zM327 768l-114 137h133l50 -49l49 49h134l-114 -137h-138z" />
    <glyph glyph-name="ncaron" unicode="&#x148;" horiz-adv-x="602" 
d="M62 0v500h151v-36q50 47 130 47q96 0 149.5 -61.5t53.5 -164.5v-285h-151v259q0 53 -21 84t-64 31q-61 0 -97 -46v-328h-151zM113 730h129l61 -61l61 61h129l-127 -152h-126z" />
    <glyph glyph-name="Eng" unicode="&#x14a;" horiz-adv-x="792" 
d="M717 710v-724q0 -81 -48.5 -130.5t-129.5 -49.5h-77v129h26q36 0 52.5 16.5t16.5 54.5v23l-323 410v-439h-159v710h137l345 -439v439h160z" />
    <glyph glyph-name="eng" unicode="&#x14b;" horiz-adv-x="602" 
d="M62 0v500h151v-36q50 47 130 47q96 0 149.5 -61.5t53.5 -164.5v-300q0 -93 -55.5 -141t-148.5 -48q-44 0 -78 10l32 130q12 -3 28 -3q67 0 71 74v252q0 53 -21 84t-64 31q-61 0 -97 -46v-328h-151z" />
    <glyph glyph-name="Omacron" unicode="&#x14c;" horiz-adv-x="804" 
d="M402 142q86 0 146 63t60 150t-60 150t-146 63t-146.5 -63t-60.5 -150t60.5 -150t146.5 -63zM402 -12q-152 0 -259.5 107.5t-107.5 259.5t107.5 259.5t259.5 107.5t259.5 -108t107.5 -259t-107.5 -259t-259.5 -108zM228 787v104h348v-104h-348z" />
    <glyph glyph-name="omacron" unicode="&#x14d;" horiz-adv-x="588" 
d="M294 -11q-109 0 -186 75.5t-77 185.5t77 185.5t186 75.5t186 -75.5t77 -185.5t-77 -185.5t-186 -75.5zM294 130q48 0 79.5 33t31.5 87t-31.5 87t-79.5 33t-79.5 -33t-31.5 -87t31.5 -87t79.5 -33zM120 606v104h348v-104h-348z" />
    <glyph glyph-name="Obreve" unicode="&#x14e;" horiz-adv-x="804" 
d="M402 142q86 0 146 63t60 150t-60 150t-146 63t-146.5 -63t-60.5 -150t60.5 -150t146.5 -63zM402 -12q-152 0 -259.5 107.5t-107.5 259.5t107.5 259.5t259.5 107.5t259.5 -108t107.5 -259t-107.5 -259t-259.5 -108zM402 747q-76 0 -127 49.5t-51 130.5h86q0 -45 26 -69
t66 -24t66 24t26 69h86q0 -81 -51 -130.5t-127 -49.5z" />
    <glyph glyph-name="obreve" unicode="&#x14f;" horiz-adv-x="588" 
d="M294 -11q-109 0 -186 75.5t-77 185.5t77 185.5t186 75.5t186 -75.5t77 -185.5t-77 -185.5t-186 -75.5zM294 130q48 0 79.5 33t31.5 87t-31.5 87t-79.5 33t-79.5 -33t-31.5 -87t31.5 -87t79.5 -33zM294 545q-76 0 -127 49.5t-51 128.5v7h86v-7q0 -44 26 -68t66 -24t66 24
t26 68v7h86v-7q0 -79 -51 -128.5t-127 -49.5z" />
    <glyph glyph-name="Ohungarumlaut" unicode="&#x150;" horiz-adv-x="804" 
d="M402 142q86 0 146 63t60 150t-60 150t-146 63t-146.5 -63t-60.5 -150t60.5 -150t146.5 -63zM402 -12q-152 0 -259.5 107.5t-107.5 259.5t107.5 259.5t259.5 107.5t259.5 -108t107.5 -259t-107.5 -259t-259.5 -108zM268 768l52 137h160l-114 -137h-98zM458 768l52 137h160
l-114 -137h-98z" />
    <glyph glyph-name="ohungarumlaut" unicode="&#x151;" horiz-adv-x="588" 
d="M294 -11q-109 0 -186 75.5t-77 185.5t77 185.5t186 75.5t186 -75.5t77 -185.5t-77 -185.5t-186 -75.5zM294 130q48 0 79.5 33t31.5 87t-31.5 87t-79.5 33t-79.5 -33t-31.5 -87t31.5 -87t79.5 -33zM160 556l52 174h160l-114 -174h-98zM350 556l52 174h160l-114 -174h-98z
" />
    <glyph glyph-name="OE" unicode="&#x152;" horiz-adv-x="1104" 
d="M402 142q86 0 146 63t60 150t-60 150t-146 63t-146.5 -63t-60.5 -150t60.5 -150t146.5 -63zM608 0v56q-72 -68 -206 -68q-152 0 -259.5 107.5t-107.5 259.5t107.5 259.5t259.5 107.5q134 0 206 -68v56h450v-152h-290v-127h230v-152h-230v-127h290v-152h-450z" />
    <glyph glyph-name="oe" unicode="&#x153;" horiz-adv-x="950" 
d="M671 -11q-117 0 -193 74q-76 -74 -184 -74q-109 0 -186 75.5t-77 185.5t77 185.5t186 75.5q108 0 185 -75q75 75 189 75q105 0 177 -64t72 -180q0 -29 -3 -53h-363q6 -43 41 -65.5t81 -22.5q41 0 73 16.5t48 40.5l112 -84q-36 -51 -97 -80.5t-138 -29.5zM294 130
q48 0 79.5 33t31.5 87t-31.5 87t-79.5 33t-79.5 -33t-31.5 -87t31.5 -87t79.5 -33zM664 388q-38 0 -69 -18.5t-40 -56.5h212q-9 37 -38 56t-65 19z" />
    <glyph glyph-name="Racute" unicode="&#x154;" horiz-adv-x="662" 
d="M75 0v710h280q98 0 159 -62t61 -152q0 -134 -139 -183l251 -313h-191l-237 293h-25v-293h-159zM234 428h102q36 0 58.5 19t22.5 49q0 32 -22.5 50t-58.5 18h-102v-136zM248 768l70 137h165l-125 -137h-110z" />
    <glyph glyph-name="racute" unicode="&#x155;" horiz-adv-x="394" 
d="M62 0v500h151v-56q12 27 43 44.5t68 17.5q34 0 61 -10l-23 -141q-8 6 -42 6q-75 0 -107 -45v-316h-151zM162 556l80 174h173l-143 -174h-110z" />
    <glyph glyph-name="uni0156" unicode="&#x156;" horiz-adv-x="662" 
d="M75 0v710h280q98 0 159 -62t61 -152q0 -134 -139 -183l251 -313h-191l-237 293h-25v-293h-159zM234 428h102q36 0 58.5 19t22.5 49q0 32 -22.5 50t-58.5 18h-102v-136zM385 -335h-67l34 117h-58v139h141v-139z" />
    <glyph glyph-name="uni0157" unicode="&#x157;" horiz-adv-x="394" 
d="M62 0v500h151v-56q12 27 43 44.5t68 17.5q34 0 61 -10l-23 -141q-8 6 -42 6q-75 0 -107 -45v-316h-151zM158 -335h-67l34 117h-58v139h141v-139z" />
    <glyph glyph-name="Rcaron" unicode="&#x158;" horiz-adv-x="662" 
d="M75 0v710h280q98 0 159 -62t61 -152q0 -134 -139 -183l251 -313h-191l-237 293h-25v-293h-159zM234 428h102q36 0 58.5 19t22.5 49q0 32 -22.5 50t-58.5 18h-102v-136zM232 768l-114 137h133l50 -49l49 49h134l-114 -137h-138z" />
    <glyph glyph-name="rcaron" unicode="&#x159;" horiz-adv-x="394" 
d="M62 0v500h151v-56q12 27 43 44.5t68 17.5q34 0 61 -10l-23 -141q-8 6 -42 6q-75 0 -107 -45v-316h-151zM31 730h129l61 -61l61 61h129l-127 -152h-126z" />
    <glyph glyph-name="Sacute" unicode="&#x15a;" horiz-adv-x="574" 
d="M286 -12q-84 0 -152.5 33.5t-110.5 93.5l122 103q26 -37 66.5 -59t80.5 -22q39 0 62.5 16.5t23.5 42.5q0 27 -23 47t-76 38l-50 17q-179 60 -179 205q0 101 68.5 160t176.5 59q138 0 229 -98l-104 -110q-49 59 -123 59q-35 0 -60.5 -14t-25.5 -40q0 -27 24 -43.5
t86 -38.5l50 -18q170 -61 169 -212q0 -97 -71.5 -158t-182.5 -61zM244 768l70 137h165l-125 -137h-110z" />
    <glyph glyph-name="sacute" unicode="&#x15b;" horiz-adv-x="461" 
d="M234 -11q-139 0 -208 90l100 91q36 -52 108 -52q46 0 46 28q0 13 -12 21.5t-49 17.5l-33 8q-71 17 -107.5 60t-34.5 104q2 69 55.5 111.5t136.5 42.5q116 0 176 -83l-98 -81q-32 40 -79 40q-41 0 -41 -26q0 -24 42 -36l46 -12q72 -19 109.5 -56.5t37.5 -101.5
q0 -71 -56.5 -118.5t-138.5 -47.5zM172 556l80 174h173l-143 -174h-110z" />
    <glyph glyph-name="Scircumflex" unicode="&#x15c;" horiz-adv-x="574" 
d="M286 -12q-84 0 -152.5 33.5t-110.5 93.5l122 103q26 -37 66.5 -59t80.5 -22q39 0 62.5 16.5t23.5 42.5q0 27 -23 47t-76 38l-50 17q-179 60 -179 205q0 101 68.5 160t176.5 59q138 0 229 -98l-104 -110q-49 59 -123 59q-35 0 -60.5 -14t-25.5 -40q0 -27 24 -43.5
t86 -38.5l50 -18q170 -61 169 -212q0 -97 -71.5 -158t-182.5 -61zM114 768l114 137h138l114 -137h-134l-49 48l-50 -48h-133z" />
    <glyph glyph-name="scircumflex" unicode="&#x15d;" horiz-adv-x="461" 
d="M234 -11q-139 0 -208 90l100 91q36 -52 108 -52q46 0 46 28q0 13 -12 21.5t-49 17.5l-33 8q-71 17 -107.5 60t-34.5 104q2 69 55.5 111.5t136.5 42.5q116 0 176 -83l-98 -81q-32 40 -79 40q-41 0 -41 -26q0 -24 42 -36l46 -12q72 -19 109.5 -56.5t37.5 -101.5
q0 -71 -56.5 -118.5t-138.5 -47.5zM41 578l127 152h126l127 -152h-129l-61 61l-61 -61h-129z" />
    <glyph glyph-name="Scedilla" unicode="&#x15e;" horiz-adv-x="574" 
d="M286 -12q-84 0 -152.5 33.5t-110.5 93.5l122 103q26 -37 66.5 -59t80.5 -22q39 0 62.5 16.5t23.5 42.5q0 27 -23 47t-76 38l-50 17q-179 60 -179 205q0 101 68.5 160t176.5 59q138 0 229 -98l-104 -110q-49 59 -123 59q-35 0 -60.5 -14t-25.5 -40q0 -27 24 -43.5
t86 -38.5l50 -18q170 -61 169 -212q0 -97 -71.5 -158t-182.5 -61zM167 -188l14 64q31 -17 68 -17q49 0 49 27q0 24 -32 24q-24 0 -43 -12l-36 19l52 86h64l-28 -47q15 12 47 12q34 0 58 -21.5t24 -54.5q0 -42 -41 -69t-96 -27q-61 0 -100 16z" />
    <glyph glyph-name="scedilla" unicode="&#x15f;" horiz-adv-x="461" 
d="M234 -11q-139 0 -208 90l100 91q36 -52 108 -52q46 0 46 28q0 13 -12 21.5t-49 17.5l-33 8q-71 17 -107.5 60t-34.5 104q2 69 55.5 111.5t136.5 42.5q116 0 176 -83l-98 -81q-32 40 -79 40q-41 0 -41 -26q0 -24 42 -36l46 -12q72 -19 109.5 -56.5t37.5 -101.5
q0 -71 -56.5 -118.5t-138.5 -47.5zM107 -188l14 64q31 -17 68 -17q49 0 49 27q0 24 -33 24q-23 0 -42 -12l-36 19l52 86h64l-28 -47q15 12 46 12q35 0 59 -21.5t24 -54.5q0 -42 -41 -69t-96 -27q-61 0 -100 16z" />
    <glyph glyph-name="Scaron" unicode="&#x160;" horiz-adv-x="574" 
d="M286 -12q-84 0 -152.5 33.5t-110.5 93.5l122 103q26 -37 66.5 -59t80.5 -22q39 0 62.5 16.5t23.5 42.5q0 27 -23 47t-76 38l-50 17q-179 60 -179 205q0 101 68.5 160t176.5 59q138 0 229 -98l-104 -110q-49 59 -123 59q-35 0 -60.5 -14t-25.5 -40q0 -27 24 -43.5
t86 -38.5l50 -18q170 -61 169 -212q0 -97 -71.5 -158t-182.5 -61zM228 768l-114 137h133l50 -49l49 49h134l-114 -137h-138z" />
    <glyph glyph-name="scaron" unicode="&#x161;" horiz-adv-x="461" 
d="M234 -11q-139 0 -208 90l100 91q36 -52 108 -52q46 0 46 28q0 13 -12 21.5t-49 17.5l-33 8q-71 17 -107.5 60t-34.5 104q2 69 55.5 111.5t136.5 42.5q116 0 176 -83l-98 -81q-32 40 -79 40q-41 0 -41 -26q0 -24 42 -36l46 -12q72 -19 109.5 -56.5t37.5 -101.5
q0 -71 -56.5 -118.5t-138.5 -47.5zM41 730h129l61 -61l61 61h129l-127 -152h-126z" />
    <glyph glyph-name="uni0162" unicode="&#x162;" horiz-adv-x="568" 
d="M203 0v558h-181v152h524v-152h-183v-558h-160zM305 -335h-67l34 117h-58v139h141v-139z" />
    <glyph glyph-name="uni0163" unicode="&#x163;" horiz-adv-x="478" 
d="M338 -6q-93 0 -148.5 48t-55.5 141v186h-120v131h120v152h151v-152h150v-131h-150v-155q0 -44 18 -63.5t57 -19.5q38 0 68 16l45 -123q-19 -11 -59 -20.5t-76 -9.5zM329 -335h-67l34 117h-58v139h141v-139z" />
    <glyph glyph-name="Tcaron" unicode="&#x164;" horiz-adv-x="568" 
d="M203 0v558h-181v152h524v-152h-183v-558h-160zM215 768l-114 137h133l50 -49l49 49h134l-114 -137h-138z" />
    <glyph glyph-name="tcaron" unicode="&#x165;" horiz-adv-x="478" 
d="M338 -6q-93 0 -148.5 48t-55.5 141v186h-120v131h120v152h151v-152h150v-131h-150v-155q0 -44 18 -63.5t57 -19.5q38 0 68 16l45 -123q-19 -11 -59 -20.5t-76 -9.5zM301 550l20 160h151l-69 -160h-102z" />
    <glyph glyph-name="Tbar" unicode="&#x166;" horiz-adv-x="592" 
d="M215 0v558h-181v152h524v-152h-183v-558h-160zM80 287v138h431v-138h-431z" />
    <glyph glyph-name="tbar" unicode="&#x167;" horiz-adv-x="490" 
d="M347 -6q-93 0 -148.5 48t-55.5 141v186h-120v131h120v152h151v-152h150v-131h-150v-155q0 -44 18 -63.5t57 -19.5q38 0 68 16l45 -123q-19 -11 -59 -20.5t-76 -9.5zM23 207v96h421v-96h-421z" />
    <glyph glyph-name="Utilde" unicode="&#x168;" horiz-adv-x="718" 
d="M359 -12q-129 0 -210.5 80.5t-81.5 212.5v429h159v-431q0 -63 36.5 -100t96.5 -37t96.5 37t36.5 100v431h159v-429q0 -132 -81.5 -212.5t-210.5 -80.5zM166 776l4 28q8 55 42.5 86t78.5 31q35 0 78 -23.5t55 -23.5q19 0 28 11.5t16 36.5h83l-4 -28q-8 -55 -43 -86
t-79 -31q-35 0 -78 23.5t-54 23.5q-19 0 -28.5 -11t-16.5 -37h-82z" />
    <glyph glyph-name="utilde" unicode="&#x169;" horiz-adv-x="591" 
d="M529 500v-500h-151v34q-48 -45 -116 -45q-98 0 -152 61.5t-54 164.5v285h151v-259q0 -115 87 -115q48 0 84 46v328h151zM100 565l4 28q8 55 42.5 86t78.5 31q35 0 78 -23.5t55 -23.5q19 0 28 11.5t16 36.5h83l-4 -28q-8 -54 -43 -85.5t-78 -31.5q-35 0 -78 23.5t-55 23.5
q-19 0 -28 -11.5t-16 -36.5h-83z" />
    <glyph glyph-name="Umacron" unicode="&#x16a;" horiz-adv-x="718" 
d="M359 -12q-129 0 -210.5 80.5t-81.5 212.5v429h159v-431q0 -63 36.5 -100t96.5 -37t96.5 37t36.5 100v431h159v-429q0 -132 -81.5 -212.5t-210.5 -80.5zM185 787v104h348v-104h-348z" />
    <glyph glyph-name="umacron" unicode="&#x16b;" horiz-adv-x="591" 
d="M529 500v-500h-151v34q-48 -45 -116 -45q-98 0 -152 61.5t-54 164.5v285h151v-259q0 -115 87 -115q48 0 84 46v328h151zM119 606v104h348v-104h-348z" />
    <glyph glyph-name="Ubreve" unicode="&#x16c;" horiz-adv-x="718" 
d="M359 -12q-129 0 -210.5 80.5t-81.5 212.5v429h159v-431q0 -63 36.5 -100t96.5 -37t96.5 37t36.5 100v431h159v-429q0 -132 -81.5 -212.5t-210.5 -80.5zM359 747q-76 0 -127 49.5t-51 130.5h86q0 -45 26 -69t66 -24t66 24t26 69h86q0 -81 -51 -130.5t-127 -49.5z" />
    <glyph glyph-name="ubreve" unicode="&#x16d;" horiz-adv-x="591" 
d="M529 500v-500h-151v34q-48 -45 -116 -45q-98 0 -152 61.5t-54 164.5v285h151v-259q0 -115 87 -115q48 0 84 46v328h151zM293 545q-76 0 -127 49.5t-51 128.5v7h86v-7q0 -44 26 -68t66 -24t66 24t26 68v7h86v-7q0 -79 -51 -128.5t-127 -49.5z" />
    <glyph glyph-name="Uring" unicode="&#x16e;" horiz-adv-x="718" 
d="M359 -12q-129 0 -210.5 80.5t-81.5 212.5v429h159v-431q0 -63 36.5 -100t96.5 -37t96.5 37t36.5 100v431h159v-429q0 -132 -81.5 -212.5t-210.5 -80.5zM360 753q-50 0 -86 35.5t-36 84.5t36 84.5t86 35.5t86 -35.5t36 -84.5t-36 -84.5t-86 -35.5zM360 818q23 0 39.5 16
t16.5 39t-16.5 39t-39.5 16t-39.5 -16t-16.5 -39t16.5 -39t39.5 -16z" />
    <glyph glyph-name="uring" unicode="&#x16f;" horiz-adv-x="591" 
d="M529 500v-500h-151v34q-48 -45 -116 -45q-98 0 -152 61.5t-54 164.5v285h151v-259q0 -115 87 -115q48 0 84 46v328h151zM293 543q-50 0 -86 35.5t-36 84.5t36 84.5t86 35.5t86 -35.5t36 -84.5t-36 -84.5t-86 -35.5zM293 608q23 0 39.5 16t16.5 39t-16.5 39t-39.5 16
t-39.5 -16t-16.5 -39t16.5 -39t39.5 -16z" />
    <glyph glyph-name="Uhungarumlaut" unicode="&#x170;" horiz-adv-x="718" 
d="M359 -12q-129 0 -210.5 80.5t-81.5 212.5v429h159v-431q0 -63 36.5 -100t96.5 -37t96.5 37t36.5 100v431h159v-429q0 -132 -81.5 -212.5t-210.5 -80.5zM225 768l52 137h160l-114 -137h-98zM415 768l52 137h160l-114 -137h-98z" />
    <glyph glyph-name="uhungarumlaut" unicode="&#x171;" horiz-adv-x="591" 
d="M529 500v-500h-151v34q-48 -45 -116 -45q-98 0 -152 61.5t-54 164.5v285h151v-259q0 -115 87 -115q48 0 84 46v328h151zM159 556l52 174h160l-114 -174h-98zM349 556l52 174h160l-114 -174h-98z" />
    <glyph glyph-name="Uogonek" unicode="&#x172;" horiz-adv-x="718" 
d="M410 -204q-46 0 -79.5 25t-33.5 66q0 57 45 102q-129 8 -202 88t-73 204v429h159v-431q0 -63 36.5 -100t96.5 -37t96.5 37t36.5 100v431h159v-429q0 -143 -103 -233q-90 -76 -103 -95q-11 -14 -11 -27q0 -21 23 -21q14 0 26 9l43 -85q-50 -33 -116 -33z" />
    <glyph glyph-name="uogonek" unicode="&#x173;" horiz-adv-x="591" 
d="M529 500v-500h-151v34q-48 -45 -116 -45q-98 0 -152 61.5t-54 164.5v285h151v-259q0 -115 87 -115q48 0 84 46v328h151zM432 -204q-51 0 -81.5 25t-30.5 67q0 58 58 112h151q-79 -36 -79 -75q0 -27 28 -27q11 0 26 9l39 -78q-50 -33 -111 -33z" />
    <glyph glyph-name="Wcircumflex" unicode="&#x174;" horiz-adv-x="1026" 
d="M228 0l-221 710h168l129 -452l138 452h140l138 -453l129 453h170l-221 -710h-144l-142 467l-141 -467h-143zM331 768l114 137h138l114 -137h-134l-49 48l-50 -48h-133z" />
    <glyph glyph-name="wcircumflex" unicode="&#x175;" horiz-adv-x="810" 
d="M491 0l-86 264l-85 -264h-152l-165 500h162l87 -307l95 307h116l95 -307l87 307h162l-164 -500h-152zM217 578l127 152h126l127 -152h-129l-61 61l-61 -61h-129z" />
    <glyph glyph-name="Ycircumflex" unicode="&#x176;" horiz-adv-x="694" 
d="M267 0v299l-259 411h185l153 -256l155 256h185l-259 -412v-298h-160zM164 768l114 137h138l114 -137h-134l-49 48l-50 -48h-133z" />
    <glyph glyph-name="ycircumflex" unicode="&#x177;" horiz-adv-x="576" 
d="M274 -194h-163l97 223l-208 471h165l124 -309l123 309h166zM101 578l127 152h126l127 -152h-129l-61 61l-61 -61h-129z" />
    <glyph glyph-name="Ydieresis" unicode="&#x178;" horiz-adv-x="694" 
d="M267 0v299l-259 411h185l153 -256l155 256h185l-259 -412v-298h-160zM229 768q-33 0 -57 24t-24 56q0 34 23.5 57.5t57.5 23.5q32 0 55.5 -24t23.5 -57q0 -32 -23.5 -56t-55.5 -24zM466 768q-33 0 -56.5 24t-23.5 56q0 34 23.5 57.5t56.5 23.5t56.5 -23.5t23.5 -57.5
q0 -32 -23.5 -56t-56.5 -24z" />
    <glyph glyph-name="Zacute" unicode="&#x179;" horiz-adv-x="626" 
d="M39 0v109l326 449h-321v152h537v-109l-327 -449h333v-152h-548zM260 768l70 137h165l-125 -137h-110z" />
    <glyph glyph-name="zacute" unicode="&#x17a;" horiz-adv-x="502" 
d="M41 0v118l219 246h-216v136h412v-119l-219 -245h227v-136h-423zM191 556l80 174h173l-143 -174h-110z" />
    <glyph glyph-name="Zdotaccent" unicode="&#x17b;" horiz-adv-x="626" 
d="M39 0v109l326 449h-321v152h537v-109l-327 -449h333v-152h-548zM313 768q-33 0 -57 24t-24 56q0 34 23.5 57.5t57.5 23.5q33 0 56.5 -23.5t23.5 -57.5q0 -32 -23.5 -56t-56.5 -24z" />
    <glyph glyph-name="zdotaccent" unicode="&#x17c;" horiz-adv-x="502" 
d="M41 0v118l219 246h-216v136h412v-119l-219 -245h227v-136h-423zM250 562q-33 0 -57 23.5t-24 55.5q0 34 23.5 57.5t57.5 23.5q33 0 56.5 -23.5t23.5 -57.5q0 -32 -23.5 -55.5t-56.5 -23.5z" />
    <glyph glyph-name="Zcaron" unicode="&#x17d;" horiz-adv-x="626" 
d="M39 0v109l326 449h-321v152h537v-109l-327 -449h333v-152h-548zM244 768l-114 137h133l50 -49l49 49h134l-114 -137h-138z" />
    <glyph glyph-name="zcaron" unicode="&#x17e;" horiz-adv-x="502" 
d="M41 0v118l219 246h-216v136h412v-119l-219 -245h227v-136h-423zM60 730h129l61 -61l61 61h129l-127 -152h-126z" />
    <glyph glyph-name="uni018F" unicode="&#x18f;" horiz-adv-x="801" 
d="M399 -12q-155 0 -261 107t-106 260v66h564q-20 66 -75 106.5t-127 40.5q-110 0 -179 -80l-107 108q53 58 128 92t163 34q150 0 258.5 -106.5t108.5 -260.5q0 -153 -106 -260t-261 -107zM399 142q70 0 122 38.5t74 100.5h-392q16 -61 70.5 -100t125.5 -39z" />
    <glyph glyph-name="uni0218" unicode="&#x218;" horiz-adv-x="574" 
d="M286 -12q-84 0 -152.5 33.5t-110.5 93.5l122 103q26 -37 66.5 -59t80.5 -22q39 0 62.5 16.5t23.5 42.5q0 27 -23 47t-76 38l-50 17q-179 60 -179 205q0 101 68.5 160t176.5 59q138 0 229 -98l-104 -110q-49 59 -123 59q-35 0 -60.5 -14t-25.5 -40q0 -27 24 -43.5
t86 -38.5l50 -18q170 -61 169 -212q0 -97 -71.5 -158t-182.5 -61zM307 -335h-67l34 117h-58v139h141v-139z" />
    <glyph glyph-name="uni0219" unicode="&#x219;" horiz-adv-x="461" 
d="M234 -11q-139 0 -208 90l100 91q36 -52 108 -52q46 0 46 28q0 13 -12 21.5t-49 17.5l-33 8q-71 17 -107.5 60t-34.5 104q2 69 55.5 111.5t136.5 42.5q116 0 176 -83l-98 -81q-32 40 -79 40q-41 0 -41 -26q0 -24 42 -36l46 -12q72 -19 109.5 -56.5t37.5 -101.5
q0 -71 -56.5 -118.5t-138.5 -47.5zM243 -335h-67l34 117h-58v139h141v-139z" />
    <glyph glyph-name="uni021A" unicode="&#x21a;" horiz-adv-x="568" 
d="M203 0v558h-181v152h524v-152h-183v-558h-160zM305 -335h-67l34 117h-58v139h141v-139z" />
    <glyph glyph-name="uni021B" unicode="&#x21b;" horiz-adv-x="478" 
d="M338 -6q-93 0 -148.5 48t-55.5 141v186h-120v131h120v152h151v-152h150v-131h-150v-155q0 -44 18 -63.5t57 -19.5q38 0 68 16l45 -123q-19 -11 -59 -20.5t-76 -9.5zM329 -335h-67l34 117h-58v139h141v-139z" />
    <glyph glyph-name="uni0232" unicode="&#x232;" horiz-adv-x="694" 
d="M267 0v299l-259 411h185l153 -256l155 256h185l-259 -412v-298h-160zM173 787v104h348v-104h-348z" />
    <glyph glyph-name="uni0233" unicode="&#x233;" horiz-adv-x="576" 
d="M274 -194h-163l97 223l-208 471h165l124 -309l123 309h166zM117 606v104h348v-104h-348z" />
    <glyph glyph-name="uni0237" unicode="&#x237;" horiz-adv-x="283" 
d="M26 -199q-72 0 -124 24l35 123q33 -17 68 -17q65 0 65 84v485h151v-510q0 -92 -54.5 -140.5t-140.5 -48.5z" />
    <glyph glyph-name="uni0259" unicode="&#x259;" horiz-adv-x="575" 
d="M289 -11q-110 0 -184.5 66.5t-74.5 177.5q0 29 3 53h363q-6 42 -39 65t-73 23q-70 0 -109 -57l-112 84q82 110 221 110q113 0 185.5 -71t72.5 -190q0 -113 -70 -187t-183 -74zM288 112q34 0 64.5 18.5t39.5 56.5h-212q9 -38 38.5 -56.5t69.5 -18.5z" />
    <glyph glyph-name="uni02BB" unicode="&#x2bb;" horiz-adv-x="276" 
d="M203 710l-48 -170h72v-179h-179v179l71 170h84z" />
    <glyph glyph-name="uni02BC" unicode="&#x2bc;" horiz-adv-x="264" 
d="M69 361l48 170h-72v179h179v-179l-71 -170h-84z" />
    <glyph glyph-name="circumflex" unicode="&#x2c6;" 
d="M-190 578l127 152h126l127 -152h-129l-61 61l-61 -61h-129z" />
    <glyph glyph-name="caron" unicode="&#x2c7;" 
d="M-190 730h129l61 -61l61 61h129l-127 -152h-126z" />
    <glyph glyph-name="breve" unicode="&#x2d8;" 
d="M0 545q-76 0 -127 49.5t-51 128.5v7h86v-7q0 -44 26 -68t66 -24t66 24t26 68v7h86v-7q0 -79 -51 -128.5t-127 -49.5z" />
    <glyph glyph-name="dotaccent" unicode="&#x2d9;" 
d="M0 562q-33 0 -57 23.5t-24 55.5q0 34 23.5 57.5t57.5 23.5q33 0 56.5 -23.5t23.5 -57.5q0 -32 -23.5 -55.5t-56.5 -23.5z" />
    <glyph glyph-name="ring" unicode="&#x2da;" 
d="M0 543q-50 0 -86 35.5t-36 84.5t36 84.5t86 35.5t86 -35.5t36 -84.5t-36 -84.5t-86 -35.5zM0 608q23 0 39.5 16t16.5 39t-16.5 39t-39.5 16t-39.5 -16t-16.5 -39t16.5 -39t39.5 -16z" />
    <glyph glyph-name="ogonek" unicode="&#x2db;" 
d="M0 -204q-51 0 -81.5 25t-30.5 67q0 58 58 112h151q-79 -36 -79 -75q0 -27 28 -27q11 0 26 9l39 -78q-50 -33 -111 -33z" />
    <glyph glyph-name="tilde" unicode="&#x2dc;" 
d="M-193 565l4 28q8 55 42.5 86t78.5 31q35 0 78 -23.5t55 -23.5q19 0 28 11.5t16 36.5h83l-4 -28q-8 -54 -43 -85.5t-78 -31.5q-35 0 -78 23.5t-55 23.5q-19 0 -28 -11.5t-16 -36.5h-83z" />
    <glyph glyph-name="hungarumlaut" unicode="&#x2dd;" 
d="M-201 556l52 174h160l-114 -174h-98zM-11 556l52 174h160l-114 -174h-98z" />
    <glyph glyph-name="uni0401" unicode="&#x401;" horiz-adv-x="571" 
d="M75 0v710h450v-152h-291v-127h231v-152h-231v-127h291v-152h-450zM181 768q-33 0 -57 24t-24 56q0 34 23.5 57.5t57.5 23.5q32 0 55.5 -24t23.5 -57q0 -32 -23.5 -56t-55.5 -24zM418 768q-33 0 -56.5 24t-23.5 56q0 34 23.5 57.5t56.5 23.5t56.5 -23.5t23.5 -57.5
q0 -32 -23.5 -56t-56.5 -24z" />
    <glyph glyph-name="uni0402" unicode="&#x402;" horiz-adv-x="777" 
d="M504 449q113 0 178.5 -63.5t65.5 -173.5t-68.5 -167t-161.5 -57q-52 0 -91 11l25 142q40 -7 56 -7q35 0 59 20t24 56q0 87 -118 87q-63 0 -116 -20v-277h-160v558h-175v152h546v-152h-211v-130q63 21 147 21z" />
    <glyph glyph-name="uni0403" unicode="&#x403;" horiz-adv-x="523" 
d="M500 710v-152h-265v-558h-160v710h425zM235 768l70 137h165l-125 -137h-110z" />
    <glyph glyph-name="uni0404" unicode="&#x404;" horiz-adv-x="757" 
d="M402 -14q-152 0 -259.5 107.5t-107.5 259.5t107.5 259.5t259.5 107.5q109 0 197 -53t135 -141l-140 -76q-64 116 -192 116q-67 0 -120.5 -40.5t-74.5 -101.5h284v-140h-285q21 -63 74.5 -103.5t121.5 -40.5q128 0 192 116l140 -76q-47 -88 -135 -141t-197 -53z" />
    <glyph glyph-name="uni0405" unicode="&#x405;" horiz-adv-x="576" 
d="M287 -12q-84 0 -152.5 33.5t-110.5 93.5l122 103q26 -37 66.5 -59t80.5 -22q39 0 62.5 16.5t23.5 42.5q0 27 -23 47t-76 38l-50 17q-179 60 -179 205q0 101 68.5 160t176.5 59q138 0 229 -98l-104 -110q-49 59 -123 59q-35 0 -60.5 -14t-25.5 -40q0 -27 24 -43.5
t86 -38.5l50 -18q170 -61 169 -212q0 -97 -71.5 -158t-182.5 -61z" />
    <glyph glyph-name="uni0406" unicode="&#x406;" horiz-adv-x="309" 
d="M75 0v710h159v-710h-159z" />
    <glyph glyph-name="uni0407" unicode="&#x407;" horiz-adv-x="309" 
d="M75 0v710h159v-710h-159zM59 782q-33 0 -56.5 23.5t-23.5 55.5q0 33 23.5 56.5t56.5 23.5q32 0 55.5 -23.5t23.5 -56.5q0 -32 -23.5 -55.5t-55.5 -23.5zM246 782q-32 0 -55.5 23.5t-23.5 55.5q0 33 23.5 56.5t55.5 23.5q33 0 56.5 -23.5t23.5 -56.5q0 -32 -23.5 -55.5
t-56.5 -23.5z" />
    <glyph glyph-name="uni0408" unicode="&#x408;" horiz-adv-x="471" 
d="M177 -12q-105 0 -178 66l88 118q39 -36 83 -36q31 0 51.5 17t20.5 51v506h159v-516q0 -101 -65.5 -153.5t-158.5 -52.5z" />
    <glyph glyph-name="uni0409" unicode="&#x409;" horiz-adv-x="1050" 
d="M866 217q0 64 -90 64h-112v-131h112q90 0 90 67zM147 710h517v-278h114q111 0 177 -58.5t66 -152.5q0 -93 -69.5 -157t-173.5 -64h-274v558h-197v-315q0 -122 -55 -188.5t-152 -66.5q-55 0 -94 12l26 140q20 -5 41 -5q38 0 56 27t18 99v449z" />
    <glyph glyph-name="uni040A" unicode="&#x40a;" horiz-adv-x="1045" 
d="M75 0v710h160v-278h275v278h160v-278h104q111 0 177 -58.5t66 -152.5q0 -93 -69.5 -157t-173.5 -64h-264v281h-275v-281h-160zM772 281h-102v-131h102q90 0 90 67q0 64 -90 64z" />
    <glyph glyph-name="uni040B" unicode="&#x40b;" horiz-adv-x="787" 
d="M197 558h-175v152h546v-152h-211v-129q64 20 146 20q106 0 174.5 -64.5t68.5 -165.5v-219h-160v177q0 118 -111 118q-62 0 -118 -20v-275h-160v558z" />
    <glyph glyph-name="uni040C" unicode="&#x40c;" horiz-adv-x="700" 
d="M522 0l-289 318v-318h-158v710h158v-297l241 297h195l-280 -341l337 -369h-204zM299 768l70 137h165l-125 -137h-110z" />
    <glyph glyph-name="uni040E" unicode="&#x40e;" horiz-adv-x="731" 
d="M115 -1l31 148q38 -8 61 -8q56 0 84 38l-275 533h182l184 -356l175 356h182l-264 -529q-52 -103 -111 -148t-144 -45q-50 0 -105 11zM379 747q-76 0 -127 49.5t-51 130.5h96q0 -42 22 -67.5t60 -25.5t60 25.5t22 67.5h96q0 -81 -51 -130.5t-127 -49.5z" />
    <glyph glyph-name="uni040F" unicode="&#x40f;" horiz-adv-x="724" 
d="M434 0v-148h-143v148h-216v710h160v-558h254v558h160v-710h-215z" />
    <glyph glyph-name="uni0410" unicode="&#x410;" horiz-adv-x="750" 
d="M-1 0l304 710h144l304 -710h-166l-63 150h-294l-63 -150h-166zM375 501l-90 -213h179z" />
    <glyph glyph-name="uni0411" unicode="&#x411;" horiz-adv-x="640" 
d="M235 452h135q105 0 174 -64t69 -162t-69 -162t-174 -64h-295v710h478v-152h-318v-106zM458 226q0 37 -25 58.5t-65 21.5h-133v-159h133q40 0 65 21t25 58z" />
    <glyph glyph-name="uni0412" unicode="&#x412;" horiz-adv-x="635" 
d="M75 0v710h267q87 0 149 -61.5t62 -149.5q0 -71 -51 -122q46 -24 73.5 -68t27.5 -100q0 -88 -62 -148.5t-154 -60.5h-312zM234 146h140q32 0 53 20.5t21 50.5t-21.5 50.5t-53.5 20.5h-139v-142zM234 423h90q32 0 53 20t21 50t-21 51t-53 21h-90v-142z" />
    <glyph glyph-name="uni0413" unicode="&#x413;" horiz-adv-x="523" 
d="M500 710v-152h-265v-558h-160v710h425z" />
    <glyph glyph-name="uni0414" unicode="&#x414;" horiz-adv-x="779" 
d="M606 -148v148h-435v-148h-143v300h12q90 0 90 190v368h527v-558h92v-300h-143zM290 558v-229q0 -109 -36 -177h243v406h-207z" />
    <glyph glyph-name="uni0415" unicode="&#x415;" horiz-adv-x="571" 
d="M75 0v710h450v-152h-291v-127h231v-152h-231v-127h291v-152h-450z" />
    <glyph glyph-name="uni0416" unicode="&#x416;" horiz-adv-x="1035" 
d="M858 0l-261 307v-307h-160v306l-260 -306h-196l304 361l-273 349h187l238 -307v307h160v-308l239 308h187l-274 -349l305 -361h-196z" />
    <glyph glyph-name="uni0417" unicode="&#x417;" horiz-adv-x="578" 
d="M116 522l-85 112q102 88 253 88q100 0 166.5 -51t66.5 -143q0 -99 -66 -151q90 -58 90 -166q0 -102 -73.5 -162t-182.5 -60q-172 0 -270 127l114 97q61 -75 154 -75q51 0 77 23.5t26 61.5q0 35 -26 55t-76 20h-109v134h99q43 0 66 19.5t23 51.5q0 33 -23.5 53t-70.5 20
q-86 0 -153 -54z" />
    <glyph glyph-name="uni0418" unicode="&#x418;" horiz-adv-x="792" 
d="M212 0h-137v710h160v-439l345 439h137v-710h-159v439z" />
    <glyph glyph-name="uni0419" unicode="&#x419;" horiz-adv-x="792" 
d="M212 0h-137v710h160v-439l345 439h137v-710h-159v439zM406 747q-76 0 -127 49.5t-51 130.5h96q0 -42 22 -67.5t60 -25.5t60 25.5t22 67.5h96q0 -81 -51 -130.5t-127 -49.5z" />
    <glyph glyph-name="uni041A" unicode="&#x41a;" horiz-adv-x="700" 
d="M522 0l-289 318v-318h-158v710h158v-297l241 297h195l-280 -341l337 -369h-204z" />
    <glyph glyph-name="uni041B" unicode="&#x41b;" horiz-adv-x="749" 
d="M147 261v449h527v-710h-160v558h-207v-315q0 -122 -55 -188.5t-152 -66.5q-55 0 -94 12l26 140q20 -5 41 -5q38 0 56 27t18 99z" />
    <glyph glyph-name="uni041C" unicode="&#x41c;" horiz-adv-x="883" 
d="M75 0v710h145l221 -362l222 362h145v-710h-160v406l-154 -254h-104l-156 256v-408h-159z" />
    <glyph glyph-name="uni041D" unicode="&#x41d;" horiz-adv-x="754" 
d="M75 0v710h159v-278h286v278h159v-710h-159v281h-286v-281h-159z" />
    <glyph glyph-name="uni041E" unicode="&#x41e;" horiz-adv-x="804" 
d="M402 142q86 0 146 63t60 150t-60 150t-146 63t-146.5 -63t-60.5 -150t60.5 -150t146.5 -63zM402 -12q-152 0 -259.5 107.5t-107.5 259.5t107.5 259.5t259.5 107.5t259.5 -108t107.5 -259t-107.5 -259t-259.5 -108z" />
    <glyph glyph-name="uni041F" unicode="&#x41f;" horiz-adv-x="749" 
d="M514 0v558h-279v-558h-160v710h599v-710h-160z" />
    <glyph glyph-name="uni0420" unicode="&#x420;" horiz-adv-x="593" 
d="M566 467q0 -103 -71.5 -172.5t-178.5 -69.5h-82v-225h-159v710h241q107 0 178.5 -70t71.5 -173zM412 467q0 40 -27.5 66.5t-70.5 26.5h-80v-186h80q42 0 70 27t28 66z" />
    <glyph glyph-name="uni0421" unicode="&#x421;" horiz-adv-x="752" 
d="M402 -12q-152 0 -259.5 107.5t-107.5 259.5t107.5 259.5t259.5 107.5q109 0 197 -53t135 -141l-140 -76q-64 116 -192 116q-86 0 -146.5 -63t-60.5 -150t60.5 -150t146.5 -63q128 0 192 116l140 -76q-47 -88 -135 -141t-197 -53z" />
    <glyph glyph-name="uni0422" unicode="&#x422;" horiz-adv-x="568" 
d="M203 0v558h-181v152h524v-152h-183v-558h-160z" />
    <glyph glyph-name="uni0423" unicode="&#x423;" horiz-adv-x="731" 
d="M115 -1l31 148q38 -8 61 -8q56 0 84 38l-275 533h182l184 -356l175 356h182l-264 -529q-52 -103 -111 -148t-144 -45q-50 0 -105 11z" />
    <glyph glyph-name="uni0424" unicode="&#x424;" horiz-adv-x="906" 
d="M533 -30h-160v87q-157 0 -248 78.5t-91 223.5q0 143 91.5 222t247.5 79v80h160v-80q156 0 247.5 -79t91.5 -222q0 -145 -91 -223.5t-248 -78.5v-87zM533 517v-316q178 0 178 159q0 157 -178 157zM373 201v316q-178 0 -178 -157q0 -159 178 -159z" />
    <glyph glyph-name="uni0425" unicode="&#x425;" horiz-adv-x="704" 
d="M177 0h-186l266 359l-250 351h184l161 -228l161 228h184l-249 -351l265 -359h-185l-176 235z" />
    <glyph glyph-name="uni0426" unicode="&#x426;" horiz-adv-x="772" 
d="M649 152h93v-300h-143v148h-524v710h160v-558h254v558h160v-558z" />
    <glyph glyph-name="uni0427" unicode="&#x427;" horiz-adv-x="687" 
d="M612 0h-160v258q-64 -20 -152 -20q-107 0 -182 65t-75 165v242h160v-200q0 -62 35 -90t90 -28q79 0 124 20v298h160v-710z" />
    <glyph glyph-name="uni0428" unicode="&#x428;" horiz-adv-x="976" 
d="M75 0v710h160v-558h173v558h160v-558h173v558h160v-710h-826z" />
    <glyph glyph-name="uni0429" unicode="&#x429;" horiz-adv-x="1024" 
d="M851 -148v148h-776v710h160v-558h173v558h160v-558h173v558h160v-558h93v-300h-143z" />
    <glyph glyph-name="uni042A" unicode="&#x42a;" horiz-adv-x="740" 
d="M354 462h114q105 0 174 -65t69 -166q0 -100 -69.5 -165.5t-173.5 -65.5h-274v558h-172v152h332v-248zM354 147h112q41 0 65.5 21.5t24.5 62.5t-25 62.5t-65 21.5h-112v-168z" />
    <glyph glyph-name="uni042B" unicode="&#x42b;" horiz-adv-x="913" 
d="M679 0v710h159v-710h-159zM235 462h114q105 0 174 -65t69 -166q0 -100 -69.5 -165.5t-173.5 -65.5h-274v710h160v-248zM235 147h112q41 0 65.5 21.5t24.5 62.5t-24.5 62.5t-65.5 21.5h-112v-168z" />
    <glyph glyph-name="uni042C" unicode="&#x42c;" horiz-adv-x="621" 
d="M235 462h114q105 0 174 -65t69 -166q0 -100 -69.5 -165.5t-173.5 -65.5h-274v710h160v-248zM235 147h112q41 0 65.5 21.5t24.5 62.5t-24.5 62.5t-65.5 21.5h-112v-168z" />
    <glyph glyph-name="uni042D" unicode="&#x42d;" horiz-adv-x="757" 
d="M355 -14q-109 0 -197 53t-135 141l140 76q64 -116 192 -116q68 0 121.5 40.5t74.5 103.5h-285v140h284q-21 61 -74.5 101.5t-120.5 40.5q-128 0 -192 -116l-140 76q47 88 135 141t197 53q152 0 259.5 -107.5t107.5 -259.5t-107.5 -259.5t-259.5 -107.5z" />
    <glyph glyph-name="uni042E" unicode="&#x42e;" horiz-adv-x="1080" 
d="M75 0v710h160v-281h102q24 130 120 211.5t230 81.5q153 0 254.5 -104t101.5 -263t-101.5 -263t-254.5 -104q-134 0 -230 81t-120 212h-102v-281h-160zM882 355q0 94 -54.5 153.5t-140.5 59.5t-140.5 -59.5t-54.5 -153.5t54.5 -153.5t140.5 -59.5t140.5 59.5t54.5 153.5z
" />
    <glyph glyph-name="uni042F" unicode="&#x42f;" horiz-adv-x="653" 
d="M418 0v234h-41l-210 -234h-191l236 268q-59 30 -93.5 83t-34.5 121q0 104 66.5 171t176.5 67h251v-710h-160zM238 472q0 -42 25.5 -67.5t64.5 -25.5h90v186h-90q-39 0 -64.5 -25.5t-25.5 -67.5z" />
    <glyph glyph-name="uni0430" unicode="&#x430;" horiz-adv-x="610" 
d="M279 -11q-108 0 -177 76.5t-69 184.5t69 184.5t177 76.5q71 0 118 -42v31h151v-500h-151v32q-46 -43 -118 -43zM302 126q59 0 95 48v153q-37 47 -95 47q-50 0 -81.5 -36t-31.5 -88t31.5 -88t81.5 -36z" />
    <glyph glyph-name="uni0431" unicode="&#x431;" horiz-adv-x="601" 
d="M306 -11q-128 0 -194.5 82t-66.5 231v23q0 190 77 280t230 118l147 27l25 -139l-139 -25q-82 -15 -128 -49t-55 -98q54 46 133 46q108 0 170.5 -67t62.5 -168q0 -110 -76 -185.5t-186 -75.5zM305 130q49 0 80 30t31 86q0 44 -31 76t-80 32t-79.5 -32t-30.5 -76
q0 -56 30.5 -86t79.5 -30z" />
    <glyph glyph-name="uni0432" unicode="&#x432;" horiz-adv-x="559" 
d="M62 0v500h245q94 0 142 -46.5t48 -107.5q0 -45 -28 -80q60 -46 60 -112q0 -62 -45.5 -108t-138.5 -46h-283zM213 122h121q19 0 32 11.5t13 31.5t-13 31t-32 11h-121v-85zM213 306h91q43 0 43 40t-43 40h-91v-80z" />
    <glyph glyph-name="uni0433" unicode="&#x433;" horiz-adv-x="433" 
d="M62 0v500h353v-131h-202v-369h-151z" />
    <glyph glyph-name="uni0434" unicode="&#x434;" horiz-adv-x="660" 
d="M28 131h13q70 0 70 120v249h439v-369h82v-253h-134v122h-336v-122h-134v253zM262 369v-124q0 -73 -23 -114h160v238h-137z" />
    <glyph glyph-name="uni0435" unicode="&#x435;" horiz-adv-x="577" 
d="M298 -11q-113 0 -189.5 71.5t-76.5 189.5q0 112 75 186.5t188 74.5q105 0 177 -64t72 -180q0 -29 -3 -53h-363q6 -43 41 -65.5t81 -22.5q41 0 73 16.5t48 40.5l112 -84q-36 -51 -97 -80.5t-138 -29.5zM182 313h212q-9 37 -38 56t-65 19q-38 0 -69 -18.5t-40 -56.5z" />
    <glyph glyph-name="uni0436" unicode="&#x436;" horiz-adv-x="836" 
d="M664 0l-170 194v-194h-151v195l-171 -195h-185l224 254l-191 246h173l150 -197v197h151v-196l149 196h173l-191 -246l224 -254h-185z" />
    <glyph glyph-name="uni0437" unicode="&#x437;" horiz-adv-x="482" 
d="M233 -11q-146 0 -220 105l100 72q39 -54 105 -54q81 0 81 49q0 45 -62 45h-71v100h65q57 0 57 42q0 19 -16 31.5t-48 12.5q-63 0 -109 -48l-83 86q84 81 201 81q54 0 94.5 -14.5t62 -38t31.5 -48t10 -49.5q0 -62 -45 -97q65 -41 65 -115q0 -61 -55.5 -110.5t-162.5 -49.5
z" />
    <glyph glyph-name="uni0438" unicode="&#x438;" horiz-adv-x="618" 
d="M197 0h-135v500h151v-276l208 276h135v-500h-150v275z" />
    <glyph glyph-name="uni0439" unicode="&#x439;" horiz-adv-x="618" 
d="M197 0h-135v500h151v-276l208 276h135v-500h-150v275zM318 545q-76 0 -127 49.5t-51 128.5v7h96v-7q0 -42 22 -67t60 -25t60 25t22 67v7h96v-7q0 -79 -51 -128.5t-127 -49.5z" />
    <glyph glyph-name="uni043A" unicode="&#x43a;" horiz-adv-x="559" 
d="M387 0l-174 194v-194h-151v500h151v-197l155 197h177l-198 -247l231 -253h-191z" />
    <glyph glyph-name="uni043B" unicode="&#x43b;" horiz-adv-x="616" 
d="M88 -11q-41 0 -79 8l18 125q18 -2 26 -2q32 0 47 18t15 66v296h439v-500h-151v369h-137v-181q0 -99 -52 -149t-126 -50z" />
    <glyph glyph-name="uni043C" unicode="&#x43c;" horiz-adv-x="694" 
d="M62 500h127l159 -229l157 229h127v-500h-151v248l-92 -134h-84l-92 134v-248h-151v500z" />
    <glyph glyph-name="uni043D" unicode="&#x43d;" horiz-adv-x="614" 
d="M62 0v500h151v-184h188v184h151v-500h-151v185h-188v-185h-151z" />
    <glyph glyph-name="uni043E" unicode="&#x43e;" horiz-adv-x="588" 
d="M294 -11q-109 0 -186 75.5t-77 185.5t77 185.5t186 75.5t186 -75.5t77 -185.5t-77 -185.5t-186 -75.5zM294 130q48 0 79.5 33t31.5 87t-31.5 87t-79.5 33t-79.5 -33t-31.5 -87t31.5 -87t79.5 -33z" />
    <glyph glyph-name="uni043F" unicode="&#x43f;" horiz-adv-x="604" 
d="M62 0v500h480v-500h-151v369h-178v-369h-151z" />
    <glyph glyph-name="uni0440" unicode="&#x440;" horiz-adv-x="609" 
d="M62 -194v694h151v-31q47 42 118 42q108 0 177 -76.5t69 -184.5t-69 -184.5t-177 -76.5q-72 0 -118 43v-226h-151zM308 126q50 0 81.5 36t31.5 88t-31.5 88t-81.5 36q-58 0 -95 -47v-153q36 -48 95 -48z" />
    <glyph glyph-name="uni0441" unicode="&#x441;" horiz-adv-x="556" 
d="M298 -11q-112 0 -189 74t-77 187t77 187t189 74q77 0 142 -40t97 -106l-132 -70q-33 75 -107 75q-48 0 -81 -34t-33 -86t33 -86t81 -34q74 0 107 75l132 -70q-32 -66 -97 -106t-142 -40z" />
    <glyph glyph-name="uni0442" unicode="&#x442;" horiz-adv-x="463" 
d="M151 0v369h-133v131h427v-131h-143v-369h-151z" />
    <glyph glyph-name="uni0443" unicode="&#x443;" horiz-adv-x="576" 
d="M578 500l-235 -536q-38 -85 -87 -124t-125 -39q-52 0 -83 9l25 127q21 -5 43 -5q48 0 79 68l13 29l-208 471h165l129 -295l118 295h166z" />
    <glyph glyph-name="uni0444" unicode="&#x444;" horiz-adv-x="773" 
d="M462 -193h-151v182h-12q-124 0 -195.5 76t-71.5 185t71.5 185t195.5 76h12v219h151v-219h12q124 0 195.5 -76t71.5 -185t-71.5 -185t-195.5 -76h-12v-182zM474 373h-12v-246h12q52 0 83.5 35.5t31.5 87.5t-31.5 87.5t-83.5 35.5zM311 127v246h-12q-52 0 -83.5 -35.5
t-31.5 -87.5t31.5 -87.5t83.5 -35.5h12z" />
    <glyph glyph-name="uni0445" unicode="&#x445;" horiz-adv-x="577" 
d="M395 0l-106 136l-106 -136h-181l192 242l-190 258h178l106 -146l106 146h180l-190 -258l191 -242h-180z" />
    <glyph glyph-name="uni0446" unicode="&#x446;" horiz-adv-x="652" 
d="M627 131v-253h-134v122h-431v500h151v-369h179v369h151v-369h84z" />
    <glyph glyph-name="uni0447" unicode="&#x447;" horiz-adv-x="570" 
d="M508 0h-151v173q-17 -10 -56 -17.5t-73 -7.5q-81 0 -137 44t-56 130v178h151v-160q0 -60 80 -60q60 0 91 25v195h151v-500z" />
    <glyph glyph-name="uni0448" unicode="&#x448;" horiz-adv-x="837" 
d="M62 0v500h151v-369h130v369h151v-369h130v369h151v-500h-713z" />
    <glyph glyph-name="uni0449" unicode="&#x449;" horiz-adv-x="886" 
d="M859 131v-253h-134v122h-663v500h151v-369h130v369h151v-369h130v369h151v-369h84z" />
    <glyph glyph-name="uni044A" unicode="&#x44a;" horiz-adv-x="587" 
d="M140 0v369h-121v131h272v-140h88q39 0 71 -11.5t52.5 -30t34.5 -42.5t20 -47.5t6 -46.5q0 -29 -10 -59.5t-30.5 -58.5t-58 -46t-85.5 -18h-239zM291 232v-104h69q62 0 62 53q0 51 -62 51h-69z" />
    <glyph glyph-name="uni044B" unicode="&#x44b;" horiz-adv-x="763" 
d="M550 0v500h151v-500h-151zM62 0v500h151v-140h88q39 0 71 -11.5t52.5 -30t34.5 -42.5t20 -47.5t6 -46.5q0 -29 -10 -59.5t-30.5 -58.5t-58 -46t-85.5 -18h-239zM213 232v-104h69q62 0 62 53q0 51 -62 51h-69z" />
    <glyph glyph-name="uni044C" unicode="&#x44c;" horiz-adv-x="509" 
d="M62 0v500h151v-140h88q39 0 71 -11.5t52.5 -30t34.5 -42.5t20 -47.5t6 -46.5q0 -29 -10 -59.5t-30.5 -58.5t-58 -46t-85.5 -18h-239zM213 232v-104h69q62 0 62 53q0 51 -62 51h-69z" />
    <glyph glyph-name="uni044D" unicode="&#x44d;" horiz-adv-x="559" 
d="M261 -11q-77 0 -142 40t-97 106l132 70q33 -75 107 -75q38 0 67 21t41 57h-153v96h148q-14 30 -42 48t-61 18q-74 0 -107 -75l-132 70q32 66 97 106t142 40q112 0 189 -74t77 -187t-77 -187t-189 -74z" />
    <glyph glyph-name="uni044E" unicode="&#x44e;" horiz-adv-x="825" 
d="M537 -11q-91 0 -159 55t-89 140h-76v-184h-151v500h151v-185h75q21 86 89 141t160 55q109 0 182.5 -76t73.5 -185t-73.5 -185t-182.5 -76zM537 130q47 0 75.5 33t28.5 87t-28.5 87t-75.5 33q-48 0 -76 -32.5t-28 -86.5t28.5 -87.5t75.5 -33.5z" />
    <glyph glyph-name="uni044F" unicode="&#x44f;" horiz-adv-x="546" 
d="M-13 0l165 190q-83 46 -83 139q0 76 49 123.5t135 47.5h231v-500h-151v151h-43l-135 -151h-168zM262 271h71v109h-72q-51 0 -51 -58q0 -23 15.5 -37t36.5 -14z" />
    <glyph glyph-name="uni0451" unicode="&#x451;" horiz-adv-x="577" 
d="M298 -11q-113 0 -189.5 71.5t-76.5 189.5q0 112 75 186.5t188 74.5q105 0 177 -64t72 -180q0 -29 -3 -53h-363q6 -43 41 -65.5t81 -22.5q41 0 73 16.5t48 40.5l112 -84q-36 -51 -97 -80.5t-138 -29.5zM182 313h212q-9 37 -38 56t-65 19q-38 0 -69 -18.5t-40 -56.5z
M177 562q-33 0 -57 23.5t-24 55.5q0 34 23.5 57.5t57.5 23.5q32 0 55.5 -24t23.5 -57q0 -32 -23.5 -55.5t-55.5 -23.5zM414 562q-33 0 -56.5 23.5t-23.5 55.5q0 34 23.5 57.5t56.5 23.5t56.5 -23.5t23.5 -57.5q0 -32 -23.5 -55.5t-56.5 -23.5z" />
    <glyph glyph-name="uni0452" unicode="&#x452;" horiz-adv-x="602" 
d="M227 -175l35 123q33 -17 68 -17q65 0 65 84v244q0 53 -21 84t-64 31q-61 0 -97 -46v-328h-151v565h-91v96h91v69h151v-69h164v-96h-164v-101q50 47 130 47q96 0 149.5 -61.5t53.5 -164.5v-295q0 -92 -54.5 -140.5t-140.5 -48.5q-72 0 -124 24z" />
    <glyph glyph-name="uni0453" unicode="&#x453;" horiz-adv-x="433" 
d="M62 0v500h353v-131h-202v-369h-151zM179 556l80 174h173l-143 -174h-110z" />
    <glyph glyph-name="uni0454" unicode="&#x454;" horiz-adv-x="559" 
d="M298 -11q-112 0 -189 74t-77 187t77 187t189 74q77 0 142 -40t97 -106l-132 -70q-33 75 -107 75q-33 0 -61 -18t-42 -48h148v-96h-153q12 -36 41 -57t67 -21q74 0 107 75l132 -70q-32 -66 -97 -106t-142 -40z" />
    <glyph glyph-name="uni0455" unicode="&#x455;" horiz-adv-x="463" 
d="M235 -11q-139 0 -208 90l100 91q36 -52 108 -52q46 0 46 28q0 13 -12 21.5t-49 17.5l-33 8q-71 17 -107.5 60t-34.5 104q2 69 55.5 111.5t136.5 42.5q116 0 176 -83l-98 -81q-32 40 -79 40q-41 0 -41 -26q0 -24 42 -36l46 -12q72 -19 109.5 -56.5t37.5 -101.5
q0 -71 -56.5 -118.5t-138.5 -47.5z" />
    <glyph glyph-name="uni0456" unicode="&#x456;" horiz-adv-x="275" 
d="M137 548q-38 0 -66 27.5t-28 66.5t28 66.5t66 27.5q40 0 67.5 -27.5t27.5 -66.5t-27.5 -66.5t-67.5 -27.5zM62 0v500h151v-500h-151z" />
    <glyph glyph-name="uni0457" unicode="&#x457;" horiz-adv-x="275" 
d="M62 0v500h151v-500h-151zM44 572q-33 0 -56.5 23.5t-23.5 55.5q0 33 23.5 56.5t56.5 23.5q32 0 55.5 -23.5t23.5 -56.5q0 -32 -23.5 -55.5t-55.5 -23.5zM231 572q-32 0 -55.5 23.5t-23.5 55.5q0 33 23.5 56.5t55.5 23.5q33 0 56.5 -23.5t23.5 -56.5q0 -32 -23.5 -55.5
t-56.5 -23.5z" />
    <glyph glyph-name="uni0458" unicode="&#x458;" horiz-adv-x="283" 
d="M26 -199q-72 0 -124 24l35 123q33 -17 68 -17q65 0 65 84v485h151v-510q0 -92 -54.5 -140.5t-140.5 -48.5zM145 548q-38 0 -66 27.5t-28 66.5t28 66.5t66 27.5q40 0 67.5 -27.5t27.5 -66.5t-27.5 -66.5t-67.5 -27.5z" />
    <glyph glyph-name="uni0459" unicode="&#x459;" horiz-adv-x="837" 
d="M552 191v-66h82q38 0 38 32q0 34 -38 34h-82zM115 500h437v-184h98q82 0 122.5 -47t40.5 -107q0 -27 -9 -54t-27 -52t-51 -40.5t-76 -15.5h-249v369h-135v-181q0 -99 -52 -149t-126 -50q-41 0 -79 8l18 125q18 -2 26 -2q32 0 47 18t15 66v296z" />
    <glyph glyph-name="uni045A" unicode="&#x45a;" horiz-adv-x="827" 
d="M662 157q0 34 -38 34h-82v-66h82q38 0 38 32zM803 162q0 -27 -9 -54t-27 -52t-51 -40.5t-76 -15.5h-249v185h-178v-185h-151v500h151v-184h178v184h151v-184h98q82 0 122.5 -47t40.5 -107z" />
    <glyph glyph-name="uni045B" unicode="&#x45b;" horiz-adv-x="602" 
d="M395 0v259q0 53 -21 84t-64 31q-61 0 -97 -46v-328h-151v565h-91v96h91v69h151v-69h164v-96h-164v-101q50 47 130 47q96 0 149.5 -61.5t53.5 -164.5v-285h-151z" />
    <glyph glyph-name="uni045C" unicode="&#x45c;" horiz-adv-x="559" 
d="M387 0l-174 194v-194h-151v500h151v-197l155 197h177l-198 -247l231 -253h-191zM242 556l80 174h173l-143 -174h-110z" />
    <glyph glyph-name="uni045E" unicode="&#x45e;" horiz-adv-x="576" 
d="M578 500l-235 -536q-38 -85 -87 -124t-125 -39q-52 0 -83 9l25 127q21 -5 43 -5q48 0 79 68l13 29l-208 471h165l129 -295l118 295h166zM289 545q-76 0 -127 49.5t-51 128.5v7h96v-7q0 -42 22 -67t60 -25t60 25t22 67v7h96v-7q0 -79 -51 -128.5t-127 -49.5z" />
    <glyph glyph-name="uni045F" unicode="&#x45f;" horiz-adv-x="604" 
d="M542 0h-173v-122h-134v122h-173v500h151v-368h178v368h151v-500z" />
    <glyph glyph-name="uni0462" unicode="&#x462;" horiz-adv-x="762" 
d="M369 442h114q105 0 174 -62t69 -159q0 -96 -69 -158.5t-174 -62.5h-274v511h-180v140h180v59h160v-59h216v-140h-216v-69zM369 147h112q41 0 65.5 18.5t24.5 55.5t-24.5 55.5t-65.5 18.5h-112v-148z" />
    <glyph glyph-name="uni0463" unicode="&#x463;" horiz-adv-x="565" 
d="M16 404v96h95v230h151v-230h161v-96h-161v-44h88q39 0 71 -11.5t52.5 -30t34.5 -42.5t20 -47.5t6 -46.5q0 -29 -10 -59.5t-30.5 -58.5t-58 -46t-85.5 -18h-239v404h-95zM331 232h-69v-104h69q62 0 62 53q0 51 -62 51z" />
    <glyph glyph-name="uni0472" unicode="&#x472;" horiz-adv-x="804" 
d="M402 142q86 0 146 63t60 150t-60 150t-146 63t-146.5 -63t-60.5 -150t60.5 -150t146.5 -63zM402 -12q-152 0 -259.5 107.5t-107.5 259.5t107.5 259.5t259.5 107.5t259.5 -108t107.5 -259t-107.5 -259t-259.5 -108zM492 408q69 0 121 36v-138q-52 -36 -121 -36
q-34 0 -93.5 18t-88.5 18q-69 0 -121 -36v138q52 36 121 36q44 0 99 -18t83 -18z" />
    <glyph glyph-name="uni0473" unicode="&#x473;" horiz-adv-x="588" 
d="M294 -11q-109 0 -186 75.5t-77 185.5t77 185.5t186 75.5t186 -75.5t77 -185.5t-77 -185.5t-186 -75.5zM294 130q48 0 79.5 33t31.5 87t-31.5 87t-79.5 33t-79.5 -33t-31.5 -87t31.5 -87t79.5 -33zM107 297v-92h374v92h-374z" />
    <glyph glyph-name="uni0474" unicode="&#x474;" horiz-adv-x="794" 
d="M174 710l189 -474l122 307q39 99 87.5 139t122.5 40q55 0 97 -16l-38 -143q-44 11 -70.5 -6t-48.5 -71l-200 -486h-143l-291 710h173z" />
    <glyph glyph-name="uni0475" unicode="&#x475;" horiz-adv-x="610" 
d="M-1 500h167l122 -304l59 152q38 92 80 127.5t109 35.5q39 0 75 -9l-31 -132q-29 6 -48 -5t-34 -46l-140 -319h-140z" />
    <glyph glyph-name="uni0490" unicode="&#x490;" horiz-adv-x="523" 
d="M500 710v-152h-265v-558h-160v710h425zM500 710h-143v148h143v-148z" />
    <glyph glyph-name="uni0491" unicode="&#x491;" horiz-adv-x="433" 
d="M62 0v500h353v-131h-202v-369h-151zM415 500h-134v122h134v-122z" />
    <glyph glyph-name="uni0492" unicode="&#x492;" horiz-adv-x="558" 
d="M534 710v-152h-265v-558h-160v710h425zM20 285v140h407v-140h-407z" />
    <glyph glyph-name="uni0493" unicode="&#x493;" horiz-adv-x="470" 
d="M99 0v500h353v-131h-202v-369h-151zM350 189h-330v96h330v-96z" />
    <glyph glyph-name="uni0496" unicode="&#x496;" horiz-adv-x="1063" 
d="M858 0l-261 307v-307h-160v306l-260 -306h-196l304 361l-273 349h187l238 -307v307h160v-308l239 308h187l-274 -349l305 -361h-196zM913 -148v148h-23v152h166v-300h-143z" />
    <glyph glyph-name="uni0497" unicode="&#x497;" horiz-adv-x="858" 
d="M664 0l-170 194v-194h-151v195l-171 -195h-185l224 254l-191 246h173l150 -197v197h151v-196l149 196h173l-191 -246l224 -254h-185zM716 -122v122h-22v131h156v-253h-134z" />
    <glyph glyph-name="uni049A" unicode="&#x49a;" horiz-adv-x="730" 
d="M522 0l-289 318v-318h-158v710h158v-297l241 297h195l-280 -341l337 -369h-204zM584 -148v148h-23v152h166v-300h-143z" />
    <glyph glyph-name="uni049B" unicode="&#x49b;" horiz-adv-x="583" 
d="M387 0l-174 194v-194h-151v500h151v-197l155 197h177l-198 -247l231 -253h-191zM447 -122v122h-22v131h156v-253h-134z" />
    <glyph glyph-name="uni04A2" unicode="&#x4a2;" horiz-adv-x="803" 
d="M75 0v710h159v-278h286v278h159v-710h-159v281h-286v-281h-159zM630 -148v148h-23v152h166v-300h-143z" />
    <glyph glyph-name="uni04A3" unicode="&#x4a3;" horiz-adv-x="663" 
d="M62 0v500h151v-184h188v184h151v-500h-151v185h-188v-185h-151zM503 -122v122h-22v131h156v-253h-134z" />
    <glyph glyph-name="uni04AE" unicode="&#x4ae;" horiz-adv-x="694" 
d="M267 0v299l-259 411h185l153 -256l155 256h185l-259 -412v-298h-160z" />
    <glyph glyph-name="uni04AF" unicode="&#x4af;" horiz-adv-x="580" 
d="M214 -194v194l-215 500h168l123 -315l123 315h168l-216 -500v-194h-151z" />
    <glyph glyph-name="uni04B0" unicode="&#x4b0;" horiz-adv-x="685" 
d="M263 0v299l-259 411h185l153 -256l155 256h185l-259 -412v-298h-160zM566 298v-140h-448v140h448z" />
    <glyph glyph-name="uni04B1" unicode="&#x4b1;" horiz-adv-x="580" 
d="M214 -194v194l-215 500h168l123 -315l123 315h168l-216 -500v-194h-151zM88 -96v96h402v-96h-402z" />
    <glyph glyph-name="uni04B2" unicode="&#x4b2;" horiz-adv-x="750" 
d="M177 0h-186l266 359l-250 351h184l161 -228l161 228h184l-249 -351l265 -359h-185l-176 235zM600 -148v148h-23v152h166v-300h-143z" />
    <glyph glyph-name="uni04B3" unicode="&#x4b3;" horiz-adv-x="598" 
d="M395 0l-106 136l-106 -136h-181l192 242l-190 258h178l106 -146l106 146h180l-190 -258l191 -242h-180zM448 -122v122h-22v131h156v-253h-134z" />
    <glyph glyph-name="uni04B6" unicode="&#x4b6;" horiz-adv-x="736" 
d="M612 0h-160v258q-64 -20 -152 -20q-107 0 -182 65t-75 165v242h160v-200q0 -62 35 -90t90 -28q79 0 124 20v298h160v-710zM563 -148v148h-23v152h166v-300h-143z" />
    <glyph glyph-name="uni04B7" unicode="&#x4b7;" horiz-adv-x="619" 
d="M508 0h-151v173q-17 -10 -56 -17.5t-73 -7.5q-81 0 -137 44t-56 130v178h151v-160q0 -60 80 -60q60 0 91 25v195h151v-500zM459 -122v122h-22v131h156v-253h-134z" />
    <glyph glyph-name="uni04BA" unicode="&#x4ba;" horiz-adv-x="687" 
d="M75 710h160v-258q64 20 152 20q107 0 182 -65t75 -165v-242h-160v200q0 62 -35 90t-90 28q-79 0 -124 -20v-298h-160v710z" />
    <glyph glyph-name="uni04BB" unicode="&#x4bb;" horiz-adv-x="602" 
d="M213 0h-151v730h151v-266q50 47 130 47q96 0 149.5 -61.5t53.5 -164.5v-285h-151v259q0 53 -21 84t-64 31q-61 0 -97 -46v-328z" />
    <glyph glyph-name="uni04C0" unicode="&#x4c0;" horiz-adv-x="309" 
d="M75 0v710h159v-710h-159z" />
    <glyph glyph-name="uni04CF" unicode="&#x4cf;" horiz-adv-x="275" 
d="M62 0v730h151v-730h-151z" />
    <glyph glyph-name="uni04D8" unicode="&#x4d8;" horiz-adv-x="802" 
d="M32 355v66h563q-21 72 -78.5 109.5t-122.5 37.5q-110 0 -179 -80l-107 108q53 58 128 92t163 34q150 0 258.5 -106.5t108.5 -260.5q0 -153 -106 -260t-261 -107t-261 107t-106 260zM399 142q63 0 119 36t77 103h-392q16 -61 70.5 -100t125.5 -39z" />
    <glyph glyph-name="uni04D9" unicode="&#x4d9;" horiz-adv-x="577" 
d="M279 511q113 0 189.5 -71.5t76.5 -189.5q0 -112 -74.5 -186.5t-188.5 -74.5q-105 0 -177 64t-72 180q0 29 3 53h363q-6 43 -41 65.5t-81 22.5q-41 0 -73 -16.5t-48 -40.5l-112 84q36 51 97 80.5t138 29.5zM286 112q38 0 69 18.5t40 56.5h-212q9 -37 38 -56t65 -19z" />
    <glyph glyph-name="uni04E2" unicode="&#x4e2;" horiz-adv-x="792" 
d="M212 0h-137v710h160v-439l345 439h137v-710h-159v439zM232 787v104h348v-104h-348z" />
    <glyph glyph-name="uni04E3" unicode="&#x4e3;" horiz-adv-x="618" 
d="M197 0h-135v500h151v-276l208 276h135v-500h-150v275zM144 606v104h348v-104h-348z" />
    <glyph glyph-name="uni04E8" unicode="&#x4e8;" horiz-adv-x="804" 
d="M402 142q86 0 146 63t60 150t-60 150t-146 63t-146.5 -63t-60.5 -150t60.5 -150t146.5 -63zM402 -12q-152 0 -259.5 107.5t-107.5 259.5t107.5 259.5t259.5 107.5t259.5 -108t107.5 -259t-107.5 -259t-259.5 -108zM109 424v-140h584v140h-584z" />
    <glyph glyph-name="uni04E9" unicode="&#x4e9;" horiz-adv-x="588" 
d="M294 -11q-109 0 -186 75.5t-77 185.5t77 185.5t186 75.5t186 -75.5t77 -185.5t-77 -185.5t-186 -75.5zM294 130q48 0 79.5 33t31.5 87t-31.5 87t-79.5 33t-79.5 -33t-31.5 -87t31.5 -87t79.5 -33zM107 297v-92h374v92h-374z" />
    <glyph glyph-name="uni04EE" unicode="&#x4ee;" horiz-adv-x="731" 
d="M115 -1l31 148q38 -8 61 -8q56 0 84 38l-275 533h182l184 -356l175 356h182l-264 -529q-52 -103 -111 -148t-144 -45q-50 0 -105 11zM205 787v104h348v-104h-348z" />
    <glyph glyph-name="uni04EF" unicode="&#x4ef;" horiz-adv-x="576" 
d="M578 500l-235 -536q-38 -85 -87 -124t-125 -39q-52 0 -83 9l25 127q21 -5 43 -5q48 0 79 68l13 29l-208 471h165l129 -295l118 295h166zM115 606v104h348v-104h-348z" />
    <glyph glyph-name="Wgrave" unicode="&#x1e80;" horiz-adv-x="1026" 
d="M228 0l-221 710h168l129 -452l138 452h140l138 -453l129 453h170l-221 -710h-144l-142 467l-141 -467h-143zM567 768h-110l-125 137h165z" />
    <glyph glyph-name="wgrave" unicode="&#x1e81;" horiz-adv-x="810" 
d="M491 0l-86 264l-85 -264h-152l-165 500h162l87 -307l95 307h116l95 -307l87 307h162l-164 -500h-152zM466 556h-110l-143 174h173z" />
    <glyph glyph-name="Wacute" unicode="&#x1e82;" horiz-adv-x="1026" 
d="M228 0l-221 710h168l129 -452l138 452h140l138 -453l129 453h170l-221 -710h-144l-142 467l-141 -467h-143zM461 768l70 137h165l-125 -137h-110z" />
    <glyph glyph-name="wacute" unicode="&#x1e83;" horiz-adv-x="810" 
d="M491 0l-86 264l-85 -264h-152l-165 500h162l87 -307l95 307h116l95 -307l87 307h162l-164 -500h-152zM348 556l80 174h173l-143 -174h-110z" />
    <glyph glyph-name="Wdieresis" unicode="&#x1e84;" horiz-adv-x="1026" 
d="M228 0l-221 710h168l129 -452l138 452h140l138 -453l129 453h170l-221 -710h-144l-142 467l-141 -467h-143zM396 768q-33 0 -57 24t-24 56q0 34 23.5 57.5t57.5 23.5q32 0 55.5 -24t23.5 -57q0 -32 -23.5 -56t-55.5 -24zM633 768q-33 0 -56.5 24t-23.5 56q0 34 23.5 57.5
t56.5 23.5t56.5 -23.5t23.5 -57.5q0 -32 -23.5 -56t-56.5 -24z" />
    <glyph glyph-name="wdieresis" unicode="&#x1e85;" horiz-adv-x="810" 
d="M491 0l-86 264l-85 -264h-152l-165 500h162l87 -307l95 307h116l95 -307l87 307h162l-164 -500h-152zM289 562q-33 0 -57 23.5t-24 55.5q0 34 23.5 57.5t57.5 23.5q32 0 55.5 -24t23.5 -57q0 -32 -23.5 -55.5t-55.5 -23.5zM526 562q-33 0 -56.5 23.5t-23.5 55.5
q0 34 23.5 57.5t56.5 23.5t56.5 -23.5t23.5 -57.5q0 -32 -23.5 -55.5t-56.5 -23.5z" />
    <glyph glyph-name="uni1E9E" unicode="&#x1e9e;" horiz-adv-x="652" 
d="M75 0v710h496v-108l-91 -143q134 -55 134 -211q0 -115 -72.5 -181.5t-188.5 -66.5h-48v152h43q45 0 75 25t30 71t-30 71t-75 25h-43v108l72 113h-143v-565h-159z" />
    <glyph glyph-name="uni1ECA" unicode="&#x1eca;" horiz-adv-x="309" 
d="M75 0v710h159v-710h-159zM155 -227q-34 0 -57.5 23.5t-23.5 56.5t23.5 56.5t57.5 23.5q33 0 56.5 -23.5t23.5 -56.5t-23.5 -56.5t-56.5 -23.5z" />
    <glyph glyph-name="uni1ECB" unicode="&#x1ecb;" horiz-adv-x="275" 
d="M137 548q-38 0 -66 27.5t-28 66.5t28 66.5t66 27.5q40 0 67.5 -27.5t27.5 -66.5t-27.5 -66.5t-67.5 -27.5zM62 0v500h151v-500h-151zM138 -228q-34 0 -57.5 23.5t-23.5 56.5t23.5 56.5t57.5 23.5q33 0 56.5 -23.5t23.5 -56.5t-23.5 -56.5t-56.5 -23.5z" />
    <glyph glyph-name="uni1ECC" unicode="&#x1ecc;" horiz-adv-x="804" 
d="M402 142q86 0 146 63t60 150t-60 150t-146 63t-146.5 -63t-60.5 -150t60.5 -150t146.5 -63zM402 -12q-152 0 -259.5 107.5t-107.5 259.5t107.5 259.5t259.5 107.5t259.5 -108t107.5 -259t-107.5 -259t-259.5 -108zM402 -227q-34 0 -57.5 23.5t-23.5 56.5t23.5 56.5
t57.5 23.5q33 0 56.5 -23.5t23.5 -56.5t-23.5 -56.5t-56.5 -23.5z" />
    <glyph glyph-name="uni1ECD" unicode="&#x1ecd;" horiz-adv-x="588" 
d="M294 -11q-109 0 -186 75.5t-77 185.5t77 185.5t186 75.5t186 -75.5t77 -185.5t-77 -185.5t-186 -75.5zM294 130q48 0 79.5 33t31.5 87t-31.5 87t-79.5 33t-79.5 -33t-31.5 -87t31.5 -87t79.5 -33zM294 -228q-34 0 -57.5 23.5t-23.5 56.5t23.5 56.5t57.5 23.5
q33 0 56.5 -23.5t23.5 -56.5t-23.5 -56.5t-56.5 -23.5z" />
    <glyph glyph-name="uni1EE4" unicode="&#x1ee4;" horiz-adv-x="718" 
d="M359 -12q-129 0 -210.5 80.5t-81.5 212.5v429h159v-431q0 -63 36.5 -100t96.5 -37t96.5 37t36.5 100v431h159v-429q0 -132 -81.5 -212.5t-210.5 -80.5zM359 -227q-34 0 -57.5 23.5t-23.5 56.5t23.5 56.5t57.5 23.5q33 0 56.5 -23.5t23.5 -56.5t-23.5 -56.5t-56.5 -23.5z
" />
    <glyph glyph-name="uni1EE5" unicode="&#x1ee5;" horiz-adv-x="591" 
d="M529 500v-500h-151v34q-48 -45 -116 -45q-98 0 -152 61.5t-54 164.5v285h151v-259q0 -115 87 -115q48 0 84 46v328h151zM300 -228q-34 0 -57.5 23.5t-23.5 56.5t23.5 56.5t57.5 23.5q33 0 56.5 -23.5t23.5 -56.5t-23.5 -56.5t-56.5 -23.5z" />
    <glyph glyph-name="Ygrave" unicode="&#x1ef2;" horiz-adv-x="694" 
d="M267 0v299l-259 411h185l153 -256l155 256h185l-259 -412v-298h-160zM400 768h-110l-125 137h165z" />
    <glyph glyph-name="ygrave" unicode="&#x1ef3;" horiz-adv-x="576" 
d="M274 -194h-163l97 223l-208 471h165l124 -309l123 309h166zM350 556h-110l-143 174h173z" />
    <glyph glyph-name="uni2007" unicode="&#x2007;" horiz-adv-x="590" 
 />
    <glyph glyph-name="uni2008" unicode="&#x2008;" horiz-adv-x="289" 
 />
    <glyph glyph-name="uni2009" unicode="&#x2009;" horiz-adv-x="125" 
 />
    <glyph glyph-name="uni200B" unicode="&#x200b;" 
 />
    <glyph glyph-name="endash" unicode="&#x2013;" horiz-adv-x="593" 
d="M55 208v144h483v-144h-483z" />
    <glyph glyph-name="emdash" unicode="&#x2014;" horiz-adv-x="949" 
d="M55 208v144h839v-144h-839z" />
    <glyph glyph-name="quoteleft" unicode="&#x2018;" horiz-adv-x="276" 
d="M203 710l-48 -170h72v-179h-179v179l71 170h84z" />
    <glyph glyph-name="quoteright" unicode="&#x2019;" horiz-adv-x="264" 
d="M69 361l48 170h-72v179h179v-179l-71 -170h-84z" />
    <glyph glyph-name="quotesinglbase" unicode="&#x201a;" horiz-adv-x="289" 
d="M79 -170l48 170h-72v179h179v-179l-71 -170h-84z" />
    <glyph glyph-name="quotedblleft" unicode="&#x201c;" horiz-adv-x="518" 
d="M203 710l-48 -170h72v-179h-179v179l71 170h84zM445 710l-48 -170h72v-179h-179v179l71 170h84z" />
    <glyph glyph-name="quotedblright" unicode="&#x201d;" horiz-adv-x="506" 
d="M69 361l48 170h-72v179h179v-179l-71 -170h-84zM311 361l48 170h-72v179h179v-179l-71 -170h-84z" />
    <glyph glyph-name="quotedblbase" unicode="&#x201e;" horiz-adv-x="531" 
d="M79 -170l48 170h-72v179h179v-179l-71 -170h-84zM321 -170l48 170h-72v179h179v-179l-71 -170h-84z" />
    <glyph glyph-name="dagger" unicode="&#x2020;" horiz-adv-x="520" 
d="M197 -98v480h-171v118h171v210h126v-210h171v-118h-171v-480h-126z" />
    <glyph glyph-name="daggerdbl" unicode="&#x2021;" horiz-adv-x="544" 
d="M506 112h-171v-210h-126v210h-171v118h171v152h-171v118h171v210h126v-210h171v-118h-171v-152h171v-118z" />
    <glyph glyph-name="bullet" unicode="&#x2022;" horiz-adv-x="395" 
d="M197 166q-56 0 -96 39.5t-40 96.5t40 96.5t96 39.5q57 0 97 -39.5t40 -96.5t-40 -96.5t-97 -39.5z" />
    <glyph glyph-name="ellipsis" unicode="&#x2026;" horiz-adv-x="837" 
d="M230 0h-179v179h179v-179zM508 0h-179v179h179v-179zM787 0h-179v179h179v-179z" />
    <glyph glyph-name="perthousand" unicode="&#x2030;" horiz-adv-x="1395" 
d="M1171 -8q-82 0 -139.5 58t-57.5 139q0 82 57.5 139.5t139.5 57.5q81 0 139 -57.5t58 -139.5q0 -81 -58 -139t-139 -58zM1171 118q29 0 49 21t20 50t-20 50t-49 21t-49.5 -21t-20.5 -50t20.5 -50t49.5 -21zM341 0h-155l450 710h155zM753 -8q-82 0 -139.5 58t-57.5 139
q0 82 57.5 139.5t139.5 57.5q81 0 139 -57.5t58 -139.5q0 -81 -58 -139t-139 -58zM753 118q29 0 49 21t20 50t-20 50t-49 21t-49.5 -21t-20.5 -50t20.5 -50t49.5 -21zM224 324q-82 0 -139.5 58t-57.5 139q0 82 57.5 139.5t139.5 57.5q81 0 139 -57.5t58 -139.5
q0 -81 -58 -139t-139 -58zM224 450q29 0 49 21t20 50t-20 50t-49 21q-30 0 -50 -20.5t-20 -50.5t20 -50.5t50 -20.5z" />
    <glyph glyph-name="guilsinglleft" unicode="&#x2039;" horiz-adv-x="313" 
d="M185 250l90 -173l-95 -61l-152 234l152 234l95 -61z" />
    <glyph glyph-name="guilsinglright" unicode="&#x203a;" horiz-adv-x="313" 
d="M38 77l90 173l-90 173l95 61l152 -234l-152 -234z" />
    <glyph glyph-name="fraction" unicode="&#x2044;" horiz-adv-x="180" 
d="M-94 0h-128l500 710h128z" />
    <glyph glyph-name="uni2060" unicode="&#x2060;" horiz-adv-x="216" 
 />
    <glyph glyph-name="uni2070" unicode="&#x2070;" horiz-adv-x="389" 
d="M195 403q-74 0 -120.5 50t-46.5 126v94q0 76 46.5 126t120.5 50q73 0 119.5 -50t46.5 -126v-94q0 -76 -46.5 -126t-119.5 -50zM195 507q27 0 44 19.5t17 52.5v94q0 34 -16.5 53t-44.5 19t-45 -18.5t-17 -53.5v-94q0 -33 17 -52.5t45 -19.5z" />
    <glyph glyph-name="uni2074" unicode="&#x2074;" horiz-adv-x="396" 
d="M219 410v86h-205v85l215 261h95v-251h54v-95h-54v-86h-105zM140 591h79v96z" />
    <glyph glyph-name="uni2075" unicode="&#x2075;" horiz-adv-x="359" 
d="M182 403q-55 0 -102 31.5t-60 81.5l99 39q19 -48 66 -48q22 0 35.5 13.5t13.5 34.5q0 20 -14 34.5t-34 14.5q-35 0 -48 -31h-97v269h268v-102h-163v-57q28 15 62 15q60 0 95.5 -41t35.5 -108q0 -70 -41.5 -108t-115.5 -38z" />
    <glyph glyph-name="uni2076" unicode="&#x2076;" horiz-adv-x="338" 
d="M167 403q-70 0 -112 42.5t-42 101.5q0 25 7 46.5t14 33.5t31 48l108 167h128l-97 -150q47 -7 82 -42t35 -95q0 -66 -41.5 -109t-112.5 -43zM167 504q21 0 34.5 14.5t13.5 35.5t-13.5 35.5t-34.5 14.5q-22 0 -35.5 -14.5t-13.5 -35.5q0 -22 13 -36t36 -14z" />
    <glyph glyph-name="uni2077" unicode="&#x2077;" horiz-adv-x="349" 
d="M144 410h-120l190 330h-188v102h313v-92z" />
    <glyph glyph-name="uni2078" unicode="&#x2078;" horiz-adv-x="364" 
d="M182 403q-67 0 -113 40t-46 99q0 63 51 99q-33 34 -33 89q0 48 38.5 83.5t102.5 35.5q63 0 101.5 -35.5t38.5 -83.5q0 -55 -33 -89q52 -36 52 -99q0 -59 -46 -99t-113 -40zM182 499q23 0 36.5 15t13.5 34t-13.5 33.5t-36.5 14.5t-37 -14.5t-14 -33.5t14 -34t37 -15z
M182 677q18 0 30.5 11t12.5 29t-12.5 29.5t-30.5 11.5t-30.5 -11.5t-12.5 -29.5t12.5 -29t30.5 -11z" />
    <glyph glyph-name="uni2079" unicode="&#x2079;" horiz-adv-x="338" 
d="M37 410l97 150q-47 7 -82 42t-35 95q0 66 41.5 109t112.5 43q70 0 112 -42.5t42 -101.5q0 -13 -2 -24.5t-3.5 -19.5t-7.5 -19.5t-9.5 -17.5t-14 -22t-15.5 -25l-108 -167h-128zM171 648q22 0 35.5 14.5t13.5 35.5q0 22 -13 36t-36 14q-21 0 -34.5 -14.5t-13.5 -35.5
t13.5 -35.5t34.5 -14.5z" />
    <glyph glyph-name="uni2080" unicode="&#x2080;" horiz-adv-x="389" 
d="M195 -121q-74 0 -120.5 50t-46.5 126v94q0 76 46.5 126t120.5 50q73 0 119.5 -50t46.5 -126v-94q0 -76 -46.5 -126t-119.5 -50zM195 -17q27 0 44 19.5t17 52.5v94q0 34 -16.5 53t-44.5 19t-45 -18.5t-17 -53.5v-94q0 -33 17 -52.5t45 -19.5z" />
    <glyph glyph-name="uni2081" unicode="&#x2081;" horiz-adv-x="249" 
d="M101 -114v329h-87v103h192v-432h-105z" />
    <glyph glyph-name="uni2082" unicode="&#x2082;" horiz-adv-x="356" 
d="M26 -114v93l169 164q25 23 25 45q0 14 -9.5 23.5t-27.5 9.5q-40 0 -61 -51l-101 26q16 62 59.5 95.5t105.5 33.5q59 0 98.5 -33t39.5 -98q0 -31 -10 -56.5t-22.5 -41t-35.5 -38.5l-71 -69h143v-103h-302z" />
    <glyph glyph-name="uni2083" unicode="&#x2083;" horiz-adv-x="352" 
d="M174 -122q-55 0 -101 31t-60 82l100 40q19 -49 64 -49q21 0 34 11.5t13 31.5q0 21 -15.5 34t-41.5 13h-59v87l63 57h-134v102h266v-90l-81 -73q52 -11 79.5 -46.5t27.5 -85.5q0 -66 -43 -105.5t-112 -39.5z" />
    <glyph glyph-name="uni2084" unicode="&#x2084;" horiz-adv-x="396" 
d="M219 -114v86h-205v85l215 261h95v-251h54v-95h-54v-86h-105zM140 67h79v96z" />
    <glyph glyph-name="uni2085" unicode="&#x2085;" horiz-adv-x="359" 
d="M182 -121q-55 0 -102 31.5t-60 81.5l99 39q19 -48 66 -48q22 0 35.5 13.5t13.5 34.5q0 20 -14 34.5t-34 14.5q-35 0 -48 -31h-97v269h268v-102h-163v-57q28 15 62 15q60 0 95.5 -41t35.5 -108q0 -70 -41.5 -108t-115.5 -38z" />
    <glyph glyph-name="uni2086" unicode="&#x2086;" horiz-adv-x="338" 
d="M167 -121q-70 0 -112 42.5t-42 101.5q0 25 7 46.5t14 33.5t31 48l108 167h128l-97 -150q47 -7 82 -42t35 -95q0 -66 -41.5 -109t-112.5 -43zM167 -20q21 0 34.5 14.5t13.5 35.5t-13.5 35.5t-34.5 14.5q-22 0 -35.5 -14.5t-13.5 -35.5q0 -22 13 -36t36 -14z" />
    <glyph glyph-name="uni2087" unicode="&#x2087;" horiz-adv-x="349" 
d="M144 -114h-120l190 330h-188v102h313v-92z" />
    <glyph glyph-name="uni2088" unicode="&#x2088;" horiz-adv-x="364" 
d="M182 -121q-67 0 -113 40t-46 99q0 63 51 99q-33 34 -33 89q0 48 38.5 83.5t102.5 35.5q63 0 101.5 -35.5t38.5 -83.5q0 -55 -33 -89q52 -36 52 -99q0 -59 -46 -99t-113 -40zM182 -25q23 0 36.5 15t13.5 34t-13.5 33.5t-36.5 14.5t-37 -14.5t-14 -33.5t14 -34t37 -15z
M182 153q18 0 30.5 11t12.5 29t-12.5 29.5t-30.5 11.5t-30.5 -11.5t-12.5 -29.5t12.5 -29t30.5 -11z" />
    <glyph glyph-name="uni2089" unicode="&#x2089;" horiz-adv-x="338" 
d="M37 -114l97 150q-47 7 -82 42t-35 95q0 66 41.5 109t112.5 43q70 0 112 -42.5t42 -101.5q0 -13 -2 -24.5t-3.5 -19.5t-7.5 -19.5t-9.5 -17.5t-14 -22t-15.5 -25l-108 -167h-128zM171 124q22 0 35.5 14.5t13.5 35.5q0 22 -13 36t-36 14q-21 0 -34.5 -14.5t-13.5 -35.5
t13.5 -35.5t34.5 -14.5z" />
    <glyph glyph-name="Euro" unicode="&#x20ac;" horiz-adv-x="771" 
d="M96 389h-70l20 57h60q30 119 130 197.5t228 78.5q82 0 154 -32t120 -89l-101 -108q-71 80 -173 80q-68 0 -120 -35t-78 -92h350l-18 -57h-349q-2 -22 -2 -34q0 -11 2 -33h328l-18 -57h-293q25 -58 77.5 -93t120.5 -35q102 0 173 80l101 -108q-48 -57 -120 -89t-154 -32
q-128 0 -228 78t-130 199h-80l20 57h50q-1 11 -1 33q0 23 1 34z" />
    <glyph glyph-name="uni20B4" unicode="&#x20b4;" horiz-adv-x="632" 
d="M37 279v58h554v-58h-343q-32 -24 -32 -72q0 -34 25.5 -55.5t74.5 -21.5q42 0 82.5 20.5t69.5 58.5l114 -94q-42 -60 -110.5 -93.5t-152.5 -33.5q-111 0 -182.5 58.5t-71.5 145.5q0 54 30 87h-58zM37 388v58h341q27 21 27 58q0 35 -26.5 55.5t-69.5 20.5q-80 0 -130 -61
l-98 105q91 98 238 98q102 0 169 -55t67 -139q0 -51 -22 -82h58v-58h-554z" />
    <glyph glyph-name="uni20B8" unicode="&#x20b8;" horiz-adv-x="584" 
d="M216 0v452h-186v149h524v-149h-187v-452h-151zM30 652v58h524v-58h-524z" />
    <glyph glyph-name="uni20BD" unicode="&#x20bd;" horiz-adv-x="620" 
d="M48 248v145h85v317h216q106 0 174.5 -64t68.5 -168t-68.5 -167t-174.5 -63h-65v-66h150v-58h-150v-124h-151v124h-85v58h85v66h-85zM284 393h64q41 0 65.5 22t24.5 63q0 43 -24.5 64.5t-65.5 21.5h-64v-171z" />
    <glyph glyph-name="uni2116" unicode="&#x2116;" horiz-adv-x="1098" 
d="M717 0h-137l-346 439v-439h-159v710h137l345 -439v439h160v-710zM908 405q-63 0 -108.5 46t-45.5 109t45.5 109t108.5 46t109 -46t46 -109t-46 -109t-109 -46zM759 263v96h299v-96h-299zM909 501q24 0 41 17.5t17 41.5t-17 41.5t-41 17.5t-41 -17.5t-17 -41.5t17 -41.5
t41 -17.5z" />
    <glyph glyph-name="uni2117" unicode="&#x2117;" horiz-adv-x="803" 
d="M401 -12q-151 0 -258.5 108t-107.5 259t107.5 259t258.5 108t259 -108t108 -259t-108 -259t-259 -108zM401 76q115 0 197 82t82 197t-82 197t-197 82t-196.5 -82t-81.5 -197t81.5 -197t196.5 -82zM558 412q0 -54 -37.5 -91t-93.5 -37h-40v-115h-88v371h128q56 0 93.5 -37
t37.5 -91zM474 412q0 20 -14 33t-34 13h-39v-92h39q20 0 34 13.5t14 32.5z" />
    <glyph glyph-name="trademark" unicode="&#x2122;" horiz-adv-x="804" 
d="M387 354v356h105l71 -142l71 142h105v-356h-109v171l-41 -70h-51l-42 71v-172h-109zM124 354v243h-93v113h301v-113h-93v-243h-115z" />
    <glyph glyph-name="uni2150" unicode="&#x2150;" horiz-adv-x="867" 
d="M101 278v329h-87v103h192v-432h-105zM197 0h-128l500 710h128zM662 1h-120l190 330h-188v102h313v-92z" />
    <glyph glyph-name="uni2151" unicode="&#x2151;" horiz-adv-x="809" 
d="M101 278v329h-87v103h192v-432h-105zM197 0h-128l500 710h128zM508 1l97 150q-47 7 -82 42t-35 95q0 66 41.5 109t112.5 43q70 0 112 -42.5t42 -101.5q0 -13 -2 -24.5t-3.5 -19.5t-7.5 -19.5t-9.5 -17.5t-14 -22t-15.5 -25l-108 -167h-128zM642 239q22 0 35.5 14.5
t13.5 35.5q0 22 -13 36t-36 14q-21 0 -34.5 -14.5t-13.5 -35.5t13.5 -35.5t34.5 -14.5z" />
    <glyph glyph-name="uni2152" unicode="&#x2152;" horiz-adv-x="1170" 
d="M101 278v329h-87v103h192v-432h-105zM197 0h-128l500 710h128zM632 1v329h-87v103h192v-432h-105zM976 -6q-74 0 -120.5 50t-46.5 126v94q0 76 46.5 126t120.5 50q73 0 119.5 -50t46.5 -126v-94q0 -76 -46.5 -126t-119.5 -50zM976 98q27 0 44 19.5t17 52.5v94
q0 34 -16.5 53t-44.5 19t-45 -18.5t-17 -53.5v-94q0 -33 17 -52.5t45 -19.5z" />
    <glyph glyph-name="onethird" unicode="&#x2153;" horiz-adv-x="859" 
d="M101 278v329h-87v103h192v-432h-105zM197 0h-128l500 710h128zM681 -7q-55 0 -101 31t-60 82l100 40q19 -49 64 -49q21 0 34 11.5t13 31.5q0 21 -15.5 34t-41.5 13h-59v87l63 57h-134v102h266v-90l-81 -73q52 -11 79.5 -46.5t27.5 -85.5q0 -66 -43 -105.5t-112 -39.5z
" />
    <glyph glyph-name="twothirds" unicode="&#x2154;" horiz-adv-x="952" 
d="M26 278v93l169 164q25 23 25 45q0 14 -9.5 23.5t-27.5 9.5q-40 0 -61 -51l-101 26q16 62 59.5 95.5t105.5 33.5q59 0 98.5 -33t39.5 -98q0 -31 -10 -56.5t-22.5 -41t-35.5 -38.5l-71 -69h143v-103h-302zM290 0h-128l500 710h128zM774 -7q-55 0 -101 31t-60 82l100 40
q19 -49 64 -49q21 0 34 11.5t13 31.5q0 21 -15.5 34t-41.5 13h-59v87l63 57h-134v102h266v-90l-81 -73q52 -11 79.5 -46.5t27.5 -85.5q0 -66 -43 -105.5t-112 -39.5z" />
    <glyph glyph-name="uni2155" unicode="&#x2155;" horiz-adv-x="863" 
d="M101 278v329h-87v103h192v-432h-105zM197 0h-128l500 710h128zM686 -6q-55 0 -102 31.5t-60 81.5l99 39q19 -48 66 -48q22 0 35.5 13.5t13.5 34.5q0 20 -14 34.5t-34 14.5q-35 0 -48 -31h-97v269h268v-102h-163v-57q28 15 62 15q60 0 95.5 -41t35.5 -108
q0 -70 -41.5 -108t-115.5 -38z" />
    <glyph glyph-name="uni2156" unicode="&#x2156;" horiz-adv-x="956" 
d="M26 278v93l169 164q25 23 25 45q0 14 -9.5 23.5t-27.5 9.5q-40 0 -61 -51l-101 26q16 62 59.5 95.5t105.5 33.5q59 0 98.5 -33t39.5 -98q0 -31 -10 -56.5t-22.5 -41t-35.5 -38.5l-71 -69h143v-103h-302zM290 0h-128l500 710h128zM779 -6q-55 0 -102 31.5t-60 81.5l99 39
q19 -48 66 -48q22 0 35.5 13.5t13.5 34.5q0 20 -14 34.5t-34 14.5q-35 0 -48 -31h-97v269h268v-102h-163v-57q28 15 62 15q60 0 95.5 -41t35.5 -108q0 -70 -41.5 -108t-115.5 -38z" />
    <glyph glyph-name="uni2157" unicode="&#x2157;" horiz-adv-x="924" 
d="M174 270q-55 0 -101 31t-60 82l100 40q19 -49 64 -49q21 0 34 11.5t13 31.5q0 21 -15.5 34t-41.5 13h-59v87l63 57h-134v102h266v-90l-81 -73q52 -11 79.5 -46.5t27.5 -85.5q0 -66 -43 -105.5t-112 -39.5zM258 0h-128l500 710h128zM747 -6q-55 0 -102 31.5t-60 81.5
l99 39q19 -48 66 -48q22 0 35.5 13.5t13.5 34.5q0 20 -14 34.5t-34 14.5q-35 0 -48 -31h-97v269h268v-102h-163v-57q28 15 62 15q60 0 95.5 -41t35.5 -108q0 -70 -41.5 -108t-115.5 -38z" />
    <glyph glyph-name="uni2158" unicode="&#x2158;" horiz-adv-x="968" 
d="M219 278v86h-205v85l215 261h95v-251h54v-95h-54v-86h-105zM140 459h79v96zM302 0h-128l500 710h128zM791 -6q-55 0 -102 31.5t-60 81.5l99 39q19 -48 66 -48q22 0 35.5 13.5t13.5 34.5q0 20 -14 34.5t-34 14.5q-35 0 -48 -31h-97v269h268v-102h-163v-57q28 15 62 15
q60 0 95.5 -41t35.5 -108q0 -70 -41.5 -108t-115.5 -38z" />
    <glyph glyph-name="uni2159" unicode="&#x2159;" horiz-adv-x="780" 
d="M101 278v329h-87v103h192v-432h-105zM197 0h-128l500 710h128zM609 -6q-70 0 -112 42.5t-42 101.5q0 25 7 46.5t14 33.5t31 48l108 167h128l-97 -150q47 -7 82 -42t35 -95q0 -66 -41.5 -109t-112.5 -43zM609 95q21 0 34.5 14.5t13.5 35.5t-13.5 35.5t-34.5 14.5
q-22 0 -35.5 -14.5t-13.5 -35.5q0 -22 13 -36t36 -14z" />
    <glyph glyph-name="uni215A" unicode="&#x215a;" horiz-adv-x="848" 
d="M182 271q-55 0 -102 31.5t-60 81.5l99 39q19 -48 66 -48q22 0 35.5 13.5t13.5 34.5q0 20 -14 34.5t-34 14.5q-35 0 -48 -31h-97v269h268v-102h-163v-57q28 15 62 15q60 0 95.5 -41t35.5 -108q0 -70 -41.5 -108t-115.5 -38zM265 0h-128l500 710h128zM677 -6
q-70 0 -112 42.5t-42 101.5q0 25 7 46.5t14 33.5t31 48l108 167h128l-97 -150q47 -7 82 -42t35 -95q0 -66 -41.5 -109t-112.5 -43zM677 95q21 0 34.5 14.5t13.5 35.5t-13.5 35.5t-34.5 14.5q-22 0 -35.5 -14.5t-13.5 -35.5q0 -22 13 -36t36 -14z" />
    <glyph glyph-name="oneeighth" unicode="&#x215b;" horiz-adv-x="835" 
d="M101 278v329h-87v103h192v-432h-105zM197 0h-128l500 710h128zM653 -6q-67 0 -113 40t-46 99q0 63 51 99q-33 34 -33 89q0 48 38.5 83.5t102.5 35.5q63 0 101.5 -35.5t38.5 -83.5q0 -55 -33 -89q52 -36 52 -99q0 -59 -46 -99t-113 -40zM653 90q23 0 36.5 15t13.5 34
t-13.5 33.5t-36.5 14.5t-37 -14.5t-14 -33.5t14 -34t37 -15zM653 268q18 0 30.5 11t12.5 29t-12.5 29.5t-30.5 11.5t-30.5 -11.5t-12.5 -29.5t12.5 -29t30.5 -11z" />
    <glyph glyph-name="threeeighths" unicode="&#x215c;" horiz-adv-x="896" 
d="M174 270q-55 0 -101 31t-60 82l100 40q19 -49 64 -49q21 0 34 11.5t13 31.5q0 21 -15.5 34t-41.5 13h-59v87l63 57h-134v102h266v-90l-81 -73q52 -11 79.5 -46.5t27.5 -85.5q0 -66 -43 -105.5t-112 -39.5zM258 0h-128l500 710h128zM714 -6q-67 0 -113 40t-46 99
q0 63 51 99q-33 34 -33 89q0 48 38.5 83.5t102.5 35.5q63 0 101.5 -35.5t38.5 -83.5q0 -55 -33 -89q52 -36 52 -99q0 -59 -46 -99t-113 -40zM714 90q23 0 36.5 15t13.5 34t-13.5 33.5t-36.5 14.5t-37 -14.5t-14 -33.5t14 -34t37 -15zM714 268q18 0 30.5 11t12.5 29
t-12.5 29.5t-30.5 11.5t-30.5 -11.5t-12.5 -29.5t12.5 -29t30.5 -11z" />
    <glyph glyph-name="fiveeighths" unicode="&#x215d;" horiz-adv-x="903" 
d="M182 271q-55 0 -102 31.5t-60 81.5l99 39q19 -48 66 -48q22 0 35.5 13.5t13.5 34.5q0 20 -14 34.5t-34 14.5q-35 0 -48 -31h-97v269h268v-102h-163v-57q28 15 62 15q60 0 95.5 -41t35.5 -108q0 -70 -41.5 -108t-115.5 -38zM265 0h-128l500 710h128zM721 -6q-67 0 -113 40
t-46 99q0 63 51 99q-33 34 -33 89q0 48 38.5 83.5t102.5 35.5q63 0 101.5 -35.5t38.5 -83.5q0 -55 -33 -89q52 -36 52 -99q0 -59 -46 -99t-113 -40zM721 90q23 0 36.5 15t13.5 34t-13.5 33.5t-36.5 14.5t-37 -14.5t-14 -33.5t14 -34t37 -15zM721 268q18 0 30.5 11t12.5 29
t-12.5 29.5t-30.5 11.5t-30.5 -11.5t-12.5 -29.5t12.5 -29t30.5 -11z" />
    <glyph glyph-name="seveneighths" unicode="&#x215e;" horiz-adv-x="833" 
d="M144 278h-120l190 330h-188v102h313v-92zM195 0h-128l500 710h128zM651 -6q-67 0 -113 40t-46 99q0 63 51 99q-33 34 -33 89q0 48 38.5 83.5t102.5 35.5q63 0 101.5 -35.5t38.5 -83.5q0 -55 -33 -89q52 -36 52 -99q0 -59 -46 -99t-113 -40zM651 90q23 0 36.5 15t13.5 34
t-13.5 33.5t-36.5 14.5t-37 -14.5t-14 -33.5t14 -34t37 -15zM651 268q18 0 30.5 11t12.5 29t-12.5 29.5t-30.5 11.5t-30.5 -11.5t-12.5 -29.5t12.5 -29t30.5 -11z" />
    <glyph glyph-name="uni215F" unicode="&#x215f;" horiz-adv-x="471" 
d="M101 278v329h-87v103h192v-432h-105zM197 0h-128l500 710h128z" />
    <glyph glyph-name="arrowleft" unicode="&#x2190;" horiz-adv-x="816" 
d="M345 -57l-306 306l306 306l83 -86l-160 -160h491v-120h-491l160 -160z" />
    <glyph glyph-name="arrowup" unicode="&#x2191;" horiz-adv-x="694" 
d="M287 0v493l-160 -161l-86 84l306 306l306 -306l-86 -84l-160 161v-493h-120z" />
    <glyph glyph-name="arrowright" unicode="&#x2192;" horiz-adv-x="816" 
d="M471 -57l-83 85l160 161h-491v120h491l-160 160l83 86l306 -306z" />
    <glyph glyph-name="arrowdown" unicode="&#x2193;" horiz-adv-x="690" 
d="M651 294l-306 -306l-306 306l86 84l160 -161v493h120v-493l160 161z" />
    <glyph glyph-name="uni2196" unicode="&#x2196;" horiz-adv-x="719" 
d="M676 72l-84 -84l-381 380v-229h-120v433h433v-121h-228z" />
    <glyph glyph-name="uni2197" unicode="&#x2197;" horiz-adv-x="719" 
d="M127 -12l-84 84l380 379h-228v121h433v-433h-120v229z" />
    <glyph glyph-name="uni2198" unicode="&#x2198;" horiz-adv-x="714" 
d="M196 0v121h228l-380 379l84 84l381 -380v229h120v-433h-433z" />
    <glyph glyph-name="uni2199" unicode="&#x2199;" horiz-adv-x="714" 
d="M205 204l381 380l84 -84l-380 -379h228v-121h-433v433h120v-229z" />
    <glyph glyph-name="uni21B0" unicode="&#x21b0;" horiz-adv-x="837" 
d="M759 -194h-121v383h-370l160 -161l-83 -85l-306 306l306 306l83 -86l-160 -160h491v-503z" />
    <glyph glyph-name="uni21B1" unicode="&#x21b1;" horiz-adv-x="837" 
d="M78 -194v503h491l-160 160l83 86l306 -306l-306 -306l-83 85l160 161h-370v-383h-121z" />
    <glyph glyph-name="uni21B2" unicode="&#x21b2;" horiz-adv-x="847" 
d="M345 -57l-306 306l306 306l83 -85l-160 -161h370v401h121v-521h-491l160 -160z" />
    <glyph glyph-name="uni21B3" unicode="&#x21b3;" horiz-adv-x="847" 
d="M808 249l-306 -306l-83 86l160 160h-491v521h121v-401h370l-160 161l83 85z" />
    <glyph glyph-name="minus" unicode="&#x2212;" horiz-adv-x="536" 
d="M58 224v131h420v-131h-420z" />
    <glyph glyph-name="uniF6D1" unicode="&#xf6d1;" 
d="M0 747q-76 0 -127 49.5t-51 130.5h96q0 -42 22 -67.5t60 -25.5t60 25.5t22 67.5h96q0 -81 -51 -130.5t-127 -49.5z" />
    <glyph glyph-name="uniF6D4" unicode="&#xf6d4;" 
d="M0 545q-76 0 -127 49.5t-51 128.5v7h96v-7q0 -42 22 -67t60 -25t60 25t22 67v7h96v-7q0 -79 -51 -128.5t-127 -49.5z" />
    <glyph glyph-name="f_f" unicode="&#xfb00;" horiz-adv-x="863" 
d="M138 0v369h-122v131h122v28q0 88 52.5 148t150.5 60q72 0 134 -30l-55 -123q-32 17 -59 17q-33 0 -52.5 -20t-19.5 -52v-28h126v-131h-126v-369h-151zM531 0v369h-69v131h69v28q0 88 52.5 148t150.5 60q72 0 134 -30l-55 -123q-32 17 -59 17q-33 0 -52.5 -20t-19.5 -52
v-28h167v-131h-167v-369h-151z" />
    <glyph glyph-name="fi" unicode="&#xfb01;" horiz-adv-x="743" 
d="M605 548q-38 0 -66 27.5t-28 66.5t28 66.5t66 27.5q40 0 67.5 -27.5t27.5 -66.5t-27.5 -66.5t-67.5 -27.5zM530 0v500h151v-500h-151zM136 0v369h-120v131h120v28q0 88 52.5 148t150.5 60q72 0 134 -30l-55 -123q-32 17 -59 17q-33 0 -52.5 -20t-19.5 -52v-28h167v-131
h-167v-369h-151z" />
    <glyph glyph-name="fl" unicode="&#xfb02;" horiz-adv-x="743" 
d="M136 0v369h-120v131h120v28q0 88 52.5 148t150.5 60q72 0 134 -30l-55 -123q-32 17 -59 17q-33 0 -52.5 -20t-19.5 -52v-28h167v-131h-167v-369h-151zM530 0v730h151v-730h-151z" />
    <glyph glyph-name="f_f_i" unicode="&#xfb03;" horiz-adv-x="1138" 
d="M1000 548q-38 0 -66 27.5t-28 66.5t28 66.5t66 27.5q40 0 67.5 -27.5t27.5 -66.5t-27.5 -66.5t-67.5 -27.5zM925 0v500h151v-500h-151zM138 0v369h-122v131h122v28q0 88 52.5 148t150.5 60q72 0 134 -30l-55 -123q-32 17 -59 17q-33 0 -52.5 -20t-19.5 -52v-28h126v-131
h-126v-369h-151zM531 0v369h-69v131h69v28q0 88 52.5 148t150.5 60q72 0 134 -30l-55 -123q-32 17 -59 17q-33 0 -52.5 -20t-19.5 -52v-28h167v-131h-167v-369h-151z" />
    <glyph glyph-name="f_f_l" unicode="&#xfb04;" horiz-adv-x="1138" 
d="M925 0v730h151v-730h-151zM138 0v369h-122v131h122v28q0 88 52.5 148t150.5 60q72 0 134 -30l-55 -123q-32 17 -59 17q-33 0 -52.5 -20t-19.5 -52v-28h126v-131h-126v-369h-151zM531 0v369h-69v131h69v28q0 88 52.5 148t150.5 60q72 0 134 -30l-55 -123q-32 17 -59 17
q-33 0 -52.5 -20t-19.5 -52v-28h167v-131h-167v-369h-151z" />
    <glyph glyph-name="uniFEFF" unicode="&#xfeff;" 
 />
    <glyph glyph-name="NULL" 
 />
    <glyph glyph-name="CR" horiz-adv-x="225" 
 />
    <glyph glyph-name="L_periodcentered" horiz-adv-x="560" 
d="M75 0v710h159v-558h294v-152h-453zM425 351q-34 0 -57.5 23.5t-23.5 56.5q0 34 23.5 57.5t57.5 23.5q33 0 56.5 -23.5t23.5 -57.5q0 -33 -23.5 -56.5t-56.5 -23.5z" />
    <glyph glyph-name="l_periodcentered" horiz-adv-x="410" 
d="M62 0v730h151v-730h-151zM343 293q-34 0 -57.5 23.5t-23.5 56.5q0 34 23.5 57.5t57.5 23.5q33 0 56.5 -23.5t23.5 -57.5q0 -33 -23.5 -56.5t-56.5 -23.5z" />
    <glyph glyph-name="_358" horiz-adv-x="535" 
d="M234 675l129 48l-131 -252l233 10l-415 -492l242 402l-205 -12zM455 465q5 0 5 -5q0 4 4 5q-4 0 -4 5t5 5t5 -5t-4 -5q3 -1 4 -4q0 4 5 4t5 -5t-4 -5q4 -1 4 -5q0 -5 -4 -5q3 -1 4 -4q0 4 5 4t5 -5t-4 -5q4 -1 4 -5q0 -5 -5 -5t-5 4q-1 -4 -4 -4q4 -1 4 -5q0 -5 -5 -5
t-5 4q-1 -4 -4 -4q4 -1 4 -5q0 -5 -5 -5t-5 4q-1 -4 -4 -4q4 -1 4 -5q0 -5 -5 -5t-5 4q-1 -4 -4 -4q4 -1 4 -5q0 -5 -5 -5t-5 4q-1 -4 -4 -4q4 -1 4 -5q0 -5 -5 -5t-5 4q-1 -4 -4 -4q4 -1 4 -5q0 -5 -5 -5t-5 4q-1 -4 -4 -4q4 -1 4 -5q0 -5 -4 -5q4 -1 4 -5q0 -5 -5 -5t-5 4
q-1 -4 -4 -4q4 -1 4 -5q0 -5 -5 -5t-5 4q-1 -4 -4 -4q4 -1 4 -5q0 -5 -5 -5t-5 4q-1 -4 -4 -4q4 -1 4 -5q0 -5 -5 -5t-5 4q-1 -4 -4 -4q4 -1 4 -5q0 -5 -5 -5t-5 4q-1 -4 -4 -4q4 -1 4 -5q0 -5 -5 -5t-5 4q-1 -4 -4 -4q4 -1 4 -5q0 -5 -5 -5t-5 4q-1 -4 -4 -4q4 -1 4 -5
q0 -5 -5 -5t-5 4q-1 -4 -4 -4q4 -1 4 -5q0 -5 -5 -5t-5 4q-1 -4 -4 -4q4 -1 4 -5q0 -5 -5 -5t-5 4q-1 -4 -4 -4q4 -1 4 -5q0 -5 -5 -5t-5 4q-1 -4 -4 -4q4 -1 4 -5q0 -5 -5 -5t-5 4q-1 -4 -4 -4q4 -1 4 -5q0 -5 -5 -5t-5 4q-1 -4 -4 -4q4 -1 4 -5q0 -5 -4 -5q4 -1 4 -5
q0 -5 -5 -5t-5 4q-1 -4 -4 -4q4 -1 4 -5q0 -5 -5 -5t-5 4q-1 -4 -4 -4q4 -1 4 -5q0 -5 -5 -5t-5 4q-1 -4 -4 -4q4 -1 4 -5q0 -5 -5 -5t-5 4q-1 -4 -4 -4q4 -1 4 -5q0 -5 -5 -5t-5 4q-1 -4 -4 -4q4 -1 4 -5q0 -5 -5 -5t-5 4q-1 -4 -4 -4q4 -1 4 -5q0 -5 -5 -5t-5 4
q-1 -4 -4 -4q4 -1 4 -5q0 -5 -5 -5t-5 4q-1 -4 -4 -4q4 -1 4 -5q0 -5 -5 -5t-5 4q-1 -4 -4 -4q4 -1 4 -5q0 -5 -5 -5t-5 4q-1 -4 -4 -4q4 -1 4 -5q0 -5 -5 -5t-5 4q-1 -4 -4 -4q4 -1 4 -5q0 -5 -4 -5q4 -1 4 -5q0 -5 -5 -5t-5 4q-1 -4 -4 -4q4 -1 4 -5q0 -5 -5 -5t-5 4
q-1 -4 -4 -4q4 -1 4 -5q0 -5 -5 -5t-5 4q-1 -4 -4 -4q4 -1 4 -5q0 -5 -5 -5t-5 4q-1 -4 -4 -4q4 -1 4 -5q0 -5 -5 -5t-5 4q-1 -4 -4 -4q4 -1 4 -5q0 -5 -5 -5t-5 4q-1 -4 -4 -4q4 -1 4 -5q0 -5 -5 -5t-5 4q-1 -4 -4 -4q4 -1 4 -5q0 -5 -5 -5t-5 4q-1 -4 -4 -4q4 -1 4 -5
q0 -5 -5 -5t-5 4q-1 -4 -4 -4q4 -1 4 -5q0 -5 -5 -5t-5 4q-1 -3 -4 -4q4 0 4 -5t-5 -5t-5 4q-1 -3 -4 -4q4 0 4 -5t-5 -5t-5 5t4 5q-4 1 -4 5q0 5 5 5t5 -5q0 5 4 5q-4 1 -4 5t4 5q-4 0 -4 5t5 5t5 -5q0 4 4 5q-4 0 -4 5t5 5q4 0 5 -4q0 3 4 4q-4 0 -4 5t5 5q4 0 5 -4
q0 3 4 4q-4 0 -4 5t5 5q4 0 5 -4q0 3 4 4q-4 0 -4 5t5 5t5 -5q0 4 4 5q-4 0 -4 5t5 5t5 -5q0 4 4 5q-4 0 -4 5q0 4 4 5q-4 0 -4 5t5 5t5 -5q0 4 4 5q-4 0 -4 5t5 5q4 0 5 -4q0 3 4 4q-4 0 -4 5t5 5q4 0 5 -4q0 3 4 4q-4 0 -4 5t5 5t5 -5q0 4 4 5q-4 0 -4 5t5 5t5 -5q0 4 4 5
q-4 0 -4 5q0 4 4 5q-4 0 -4 5t5 5q4 0 5 -4q0 3 4 4q-4 0 -4 5t5 5t5 -5q0 4 4 5q-4 0 -4 5t5 5t5 -5q0 4 4 5q-4 0 -4 5t5 5t5 -5q0 4 4 5q-4 0 -4 5t5 5t5 -5q0 4 4 5q-4 0 -4 5q0 4 4 5q-4 0 -4 5t5 5t5 -5q0 4 4 5q-4 0 -4 5t5 5q4 0 5 -4q0 3 4 4q-4 0 -4 5t5 5t5 -5
q0 4 4 5q-4 0 -4 5t5 5t5 -5q0 4 4 5q-4 0 -4 5t5 5t5 -5q0 4 4 5q-4 0 -4 5t5 5t5 -5q0 4 4 5q-4 0 -4 5q0 4 4 5q-4 0 -4 5t5 5t5 -5q0 4 4 5q-4 0 -4 5t5 5q4 0 5 -4q0 3 4 4q-4 0 -4 5t5 5t5 -5q0 4 4 5q-4 0 -4 5t5 5q4 0 5 -4q0 3 4 4q-4 0 -4 5t5 5q4 0 5 -4q0 3 4 4
q-4 0 -4 5q0 4 4 5q-4 0 -4 5t5 5t5 -5q0 4 4 5q-4 0 -4 5t5 5t5 -5q0 4 4 5q-4 0 -4 5t5 5t5 -5q0 4 4 5q-4 0 -4 5t5 5t5 -5q0 4 4 5q-4 0 -4 5t5 5t5 -5q0 4 4 5q-4 0 -4 5q0 4 4 5q-4 0 -4 5t5 5t5 -5q0 4 4 5q-4 0 -4 5t5 5q4 0 5 -4q0 3 4 4q-4 0 -4 5t5 5q4 0 5 -4
q0 3 4 4q-4 0 -4 5t5 5q4 0 5 -4q0 3 4 4q-4 0 -4 5t5 5t5 -5q0 4 4 5q-4 0 -4 5t5 5q4 0 5 -4q0 3 4 4q-4 0 -4 5q0 4 4 5q-4 0 -4 5t5 5zM355 695q4 0 5 -4q0 3 4 4q-4 0 -4 5q0 4 4 5q-4 0 -4 5t5 5t5 -5t-4 -5q3 -1 4 -4q0 4 5 4t5 -5t-4 -5q3 -1 4 -4q0 4 5 4t5 -5
t-4 -5q4 -1 4 -5q0 -5 -5 -5t-5 4q-1 -4 -4 -4q4 -1 4 -5q0 -5 -4 -5q4 -1 4 -5q0 -5 -5 -5t-5 4q-1 -4 -4 -4q4 -1 4 -5q0 -5 -5 -5t-5 4q-1 -4 -4 -4q4 -1 4 -5q0 -5 -4 -5q4 -1 4 -5q0 -5 -5 -5t-5 4q-1 -4 -4 -4q4 -1 4 -5q0 -5 -4 -5q4 -1 4 -5q0 -5 -5 -5t-5 4
q-1 -4 -4 -4q4 -1 4 -5q0 -5 -4 -5q4 -1 4 -5q0 -5 -5 -5t-5 4q-1 -4 -4 -4q4 -1 4 -5q0 -5 -5 -5t-5 4q-1 -4 -4 -4q4 -1 4 -5q0 -5 -4 -5q4 -1 4 -5q0 -5 -5 -5t-5 4q-1 -4 -4 -4q4 -1 4 -5q0 -5 -4 -5q4 -1 4 -5q0 -5 -5 -5t-5 4q-1 -4 -4 -4q4 -1 4 -5q0 -5 -4 -5
q4 -1 4 -5q0 -5 -5 -5t-5 4q-1 -4 -4 -4q4 -1 4 -5q0 -5 -4 -5q4 -1 4 -5q0 -5 -5 -5t-5 4q-1 -4 -4 -4q4 -1 4 -5q0 -5 -4 -5q4 -1 4 -5q0 -5 -5 -5t-5 4q-1 -4 -5 -4q-5 0 -5 4q-1 -4 -5 -4q-5 0 -5 4q-1 -4 -5 -4q-5 0 -5 5t5 5q4 0 5 -4q0 3 4 4q-4 0 -4 5q0 4 4 5
q-4 0 -4 5t5 5q4 0 5 -4q0 3 4 4q-4 0 -4 5q0 4 4 5q-4 0 -4 5t5 5t5 -5q0 4 4 5q-4 0 -4 5q0 4 4 5q-4 0 -4 5t5 5q4 0 5 -4q0 3 4 4q-4 0 -4 5q0 4 4 5q-4 0 -4 5t5 5t5 -5q0 4 4 5q-4 0 -4 5q0 4 4 5q-4 0 -4 5t5 5q4 0 5 -4q0 3 4 4q-4 0 -4 5q0 4 4 5q-4 0 -4 5t5 5
t5 -5q0 4 4 5q-4 0 -4 5t5 5q4 0 5 -4q0 3 4 4q-4 0 -4 5q0 4 4 5q-4 0 -4 5t5 5q4 0 5 -4q0 3 4 4q-4 0 -4 5q0 4 4 5q-4 0 -4 5t5 5q4 0 5 -4q0 3 4 4q-4 0 -4 5q0 4 4 5q-4 0 -4 5t5 5t5 -5q0 4 4 5q-4 0 -4 5q0 4 4 5q-4 0 -4 5t5 5zM275 385q5 0 5 -5t-5 -5t-5 4
q-1 -4 -4 -4q4 -1 4 -5q0 -5 -4 -5q4 -1 4 -5q0 -5 -5 -5t-5 4q-1 -4 -5 -4q-5 0 -5 4q-1 -4 -5 -4q-5 0 -5 4q-1 -4 -5 -4q-5 0 -5 4q-1 -4 -5 -4q-5 0 -5 4q-1 -4 -5 -4q-5 0 -5 4q-1 -4 -5 -4q-5 0 -5 4q-1 -4 -5 -4q-5 0 -5 4q-1 -4 -4 -4q4 -1 4 -5q0 -5 -5 -5t-5 4
q-1 -4 -5 -4q-5 0 -5 4q-1 -4 -5 -4q-5 0 -5 4q-1 -4 -5 -4q-5 0 -5 4q-1 -4 -5 -4q-5 0 -5 4q-1 -4 -5 -4q-5 0 -5 4q-1 -4 -5 -4q-5 0 -5 4q-1 -4 -5 -4q-5 0 -5 4q-1 -4 -5 -4q-5 0 -5 5q0 4 4 5q-4 0 -4 4q-1 -4 -5 -4q-5 0 -5 5q0 4 4 5q-4 0 -4 5t5 5t5 -5q0 5 5 5
t5 -5q0 5 5 5q4 0 5 -4q0 4 5 4t5 -5q0 5 5 5q4 0 5 -4q0 4 5 4t5 -5q0 5 5 5t5 -5q0 5 5 5t5 -5q0 5 5 5t5 -5q0 5 5 5t5 -5q0 4 4 5q-4 0 -4 5t5 5q4 0 5 -4q0 4 5 4t5 -5q0 5 5 5q4 0 5 -4q0 4 5 4t5 -5q0 5 5 5t5 -5q0 5 5 5q4 0 5 -4q0 4 5 4q4 0 5 -4q0 4 5 4
q4 0 5 -4q0 4 5 4zM110 39q-1 -4 -4 -4q4 -1 4 -5q0 4 4 5q-4 0 -4 4zM120 49q-1 -4 -4 -4q4 -1 4 -5q0 4 4 5q-4 0 -4 4zM130 59q-1 -4 -4 -4q4 -1 4 -5q0 4 4 5q-4 0 -4 4zM140 69q-1 -4 -4 -4q3 -1 4 -4q0 3 4 4q-4 0 -4 4zM140 79q-1 -4 -4 -4q3 -1 4 -4q0 3 4 4
q-4 0 -4 4zM154 75q-4 0 -4 4q-1 -4 -4 -4q3 -1 4 -4q0 3 4 4zM160 89q-1 -4 -4 -4q3 -1 4 -4q0 3 4 4q-4 0 -4 4zM154 85q-4 0 -4 4q-1 -4 -4 -4q3 -1 4 -4q0 3 4 4zM170 99q-1 -4 -4 -4q4 -1 4 -5q0 4 4 5q-4 0 -4 4zM160 99q-1 -4 -4 -4q3 -1 4 -4q0 3 4 4q-4 0 -4 4z
M170 109q-1 -4 -4 -4q4 -1 4 -5q0 4 4 5q-4 0 -4 4zM180 119q-1 -4 -4 -4q4 -1 4 -5q0 4 4 5q-4 0 -4 4zM190 129q-1 -4 -4 -4q3 -1 4 -4q0 3 4 4q-4 0 -4 4zM260 369q-1 -4 -4 -4q3 -1 4 -4q0 3 4 4q-4 0 -4 4zM250 369q-1 -4 -4 -4q4 -1 4 -5q0 4 4 5q-4 0 -4 4zM240 369
q-1 -4 -4 -4q4 -1 4 -5q0 4 4 5q-4 0 -4 4zM230 369q-1 -4 -4 -4q4 -1 4 -5q0 4 4 5q-4 0 -4 4zM220 369q-1 -4 -4 -4q4 -1 4 -5q0 4 4 5q-4 0 -4 4zM260 379q-1 -4 -4 -4q3 -1 4 -4q0 3 4 4q-4 0 -4 4zM250 379q-1 -4 -4 -4q3 -1 4 -4q0 3 4 4q-4 0 -4 4zM240 379
q-1 -4 -4 -4q4 -1 4 -5q0 4 4 5q-4 0 -4 4zM230 379q-1 -4 -4 -4q3 -1 4 -4q0 3 4 4q-4 0 -4 4zM220 379q-1 -4 -4 -4q3 -1 4 -4q0 3 4 4q-4 0 -4 4zM180 359q-1 -4 -4 -4q3 -1 4 -4q0 3 4 4q-4 0 -4 4zM170 359q-1 -4 -4 -4q4 -1 4 -5q0 4 4 5q-4 0 -4 4zM160 359
q-1 -4 -4 -4q4 -1 4 -5q0 4 4 5q-4 0 -4 4zM210 369q-1 -4 -4 -4q4 -1 4 -5q0 4 4 5q-4 0 -4 4zM200 369q-1 -4 -4 -4q3 -1 4 -4q0 3 4 4q-4 0 -4 4zM190 369q-1 -4 -4 -4q4 -1 4 -5q0 4 4 5q-4 0 -4 4zM180 369q-1 -4 -4 -4q4 -1 4 -5q0 4 4 5q-4 0 -4 4zM170 369
q-1 -4 -4 -4q4 -1 4 -5q0 4 4 5q-4 0 -4 4zM160 369q-1 -4 -4 -4q4 -1 4 -5q0 4 4 5q-4 0 -4 4zM210 379q-1 -4 -4 -4q4 -1 4 -5q0 4 4 5q-4 0 -4 4zM200 379q-1 -4 -4 -4q3 -1 4 -4q0 3 4 4q-4 0 -4 4zM150 359q-1 -4 -4 -4q4 -1 4 -5q0 4 4 5q-4 0 -4 4zM140 359
q-1 -4 -4 -4q4 -1 4 -5q0 4 4 5q-4 0 -4 4zM130 359q-1 -4 -4 -4q4 -1 4 -5q0 4 4 5q-4 0 -4 4zM120 359q-1 -4 -4 -4q4 -1 4 -5q0 4 4 5q-4 0 -4 4zM110 359q-1 -4 -4 -4q4 -1 4 -5q0 4 4 5q-4 0 -4 4zM150 369q-1 -4 -4 -4q4 -1 4 -5q0 4 4 5q-4 0 -4 4zM140 369
q-1 -4 -4 -4q4 -1 4 -5q0 4 4 5q-4 0 -4 4zM130 369q-1 -4 -4 -4q4 -1 4 -5q0 4 4 5q-4 0 -4 4zM120 369q-1 -4 -4 -4q4 -1 4 -5q0 4 4 5q-4 0 -4 4zM110 369q-1 -4 -4 -4q4 -1 4 -5q0 4 4 5q-4 0 -4 4zM100 369q-1 -4 -4 -4q4 -1 4 -5q0 4 4 5q-4 0 -4 4zM410 369
q-1 -4 -4 -4q4 -1 4 -5q0 4 4 5q-4 0 -4 4zM200 139q-1 -4 -4 -4q4 -1 4 -5q0 4 4 5q-4 0 -4 4zM194 135q-4 0 -4 4q-1 -4 -4 -4q4 -1 4 -5q0 4 4 5zM210 149q-1 -4 -4 -4q4 -1 4 -5q0 4 4 5q-4 0 -4 4zM200 149q-1 -4 -4 -4q3 -1 4 -4q0 3 4 4q-4 0 -4 4zM220 159
q-1 -4 -4 -4q4 -1 4 -5q0 4 4 5q-4 0 -4 4zM210 159q-1 -4 -4 -4q4 -1 4 -5q0 4 4 5q-4 0 -4 4zM230 169q-1 -4 -4 -4q4 -1 4 -5q0 4 4 5q-4 0 -4 4zM220 169q-1 -4 -4 -4q4 -1 4 -5q0 4 4 5q-4 0 -4 4zM240 179q-1 -4 -4 -4q4 -1 4 -5q0 4 4 5q-4 0 -4 4zM230 179
q-1 -4 -4 -4q4 -1 4 -5q0 4 4 5q-4 0 -4 4zM240 189q-1 -4 -4 -4q4 -1 4 -5q0 4 4 5q-4 0 -4 4zM240 199q-1 -4 -4 -4q4 -1 4 -5q0 4 4 5q-4 0 -4 4zM254 185q-4 0 -4 4q-1 -4 -4 -4q3 -1 4 -4q0 3 4 4zM260 199q-1 -4 -4 -4q4 -1 4 -5q0 4 4 5q-4 0 -4 4zM254 195
q-4 0 -4 4q-1 -4 -4 -4q4 -1 4 -5q0 4 4 5zM270 209q-1 -4 -4 -4q4 -1 4 -5q0 4 4 5q-4 0 -4 4zM260 209q-1 -4 -4 -4q4 -1 4 -5q0 4 4 5q-4 0 -4 4zM254 205q-4 0 -4 4q-1 -4 -4 -4q4 -1 4 -5q0 4 4 5zM280 219q-1 -4 -4 -4q3 -1 4 -4q0 3 4 4q-4 0 -4 4zM270 219
q-1 -4 -4 -4q4 -1 4 -5q0 4 4 5q-4 0 -4 4zM260 219q-1 -4 -4 -4q3 -1 4 -4q0 3 4 4q-4 0 -4 4zM280 229q-1 -4 -4 -4q4 -1 4 -5q0 4 4 5q-4 0 -4 4zM270 229q-1 -4 -4 -4q3 -1 4 -4q0 3 4 4q-4 0 -4 4zM290 239q-1 -4 -4 -4q3 -1 4 -4q0 3 4 4q-4 0 -4 4zM280 239
q-1 -4 -4 -4q4 -1 4 -5q0 4 4 5q-4 0 -4 4zM300 249q-1 -4 -4 -4q4 -1 4 -5q0 4 4 5q-4 0 -4 4zM290 249q-1 -4 -4 -4q4 -1 4 -5q0 4 4 5q-4 0 -4 4zM300 259q-1 -4 -4 -4q4 -1 4 -5q0 4 4 5q-4 0 -4 4zM300 269q-1 -4 -4 -4q3 -1 4 -4q0 3 4 4q-4 0 -4 4zM314 255
q-4 0 -4 4q-1 -4 -4 -4q4 -1 4 -5q0 4 4 5zM320 269q-1 -4 -4 -4q4 -1 4 -5q0 4 4 5q-4 0 -4 4zM314 265q-4 0 -4 4q-1 -4 -4 -4q4 -1 4 -5q0 4 4 5zM330 279q-1 -4 -4 -4q3 -1 4 -4q0 3 4 4q-4 0 -4 4zM320 279q-1 -4 -4 -4q3 -1 4 -4q0 3 4 4q-4 0 -4 4zM314 275
q-4 0 -4 4q-1 -4 -4 -4q3 -1 4 -4q0 3 4 4zM340 289q-1 -4 -4 -4q4 -1 4 -5q0 4 4 5q-4 0 -4 4zM330 289q-1 -4 -4 -4q4 -1 4 -5q0 4 4 5q-4 0 -4 4zM320 289q-1 -4 -4 -4q4 -1 4 -5q0 4 4 5q-4 0 -4 4zM350 299q-1 -4 -4 -4q4 -1 4 -5q0 4 4 5q-4 0 -4 4zM340 299
q-1 -4 -4 -4q3 -1 4 -4q0 3 4 4q-4 0 -4 4zM330 299q-1 -4 -4 -4q4 -1 4 -5q0 4 4 5q-4 0 -4 4zM360 309q-1 -4 -4 -4q4 -1 4 -5q0 4 4 5q-4 0 -4 4zM350 309q-1 -4 -4 -4q3 -1 4 -4q0 3 4 4q-4 0 -4 4zM340 309q-1 -4 -4 -4q4 -1 4 -5q0 4 4 5q-4 0 -4 4zM270 489
q-1 -4 -4 -4q3 -1 4 -4q0 3 4 4q-4 0 -4 4zM260 489q-1 -4 -4 -4q3 -1 4 -4q0 3 4 4q-4 0 -4 4zM270 499q-1 -4 -4 -4q4 -1 4 -5q0 4 4 5q-4 0 -4 4zM260 499q-1 -4 -4 -4q3 -1 4 -4q0 3 4 4q-4 0 -4 4zM280 509q-1 -4 -4 -4q3 -1 4 -4q0 3 4 4q-4 0 -4 4zM270 509
q-1 -4 -4 -4q4 -1 4 -5q0 4 4 5q-4 0 -4 4zM280 519q-1 -4 -4 -4q4 -1 4 -5q0 4 4 5q-4 0 -4 4zM270 519q-1 -4 -4 -4q4 -1 4 -5q0 4 4 5q-4 0 -4 4zM280 529q-1 -4 -4 -4q4 -1 4 -5q0 4 4 5q-4 0 -4 4zM280 539q-1 -4 -4 -4q4 -1 4 -5q0 4 4 5q-4 0 -4 4zM360 319
q-1 -4 -4 -4q4 -1 4 -5q0 4 4 5q-4 0 -4 4zM350 319q-1 -4 -4 -4q3 -1 4 -4q0 3 4 4q-4 0 -4 4zM360 329q-1 -4 -4 -4q4 -1 4 -5q0 4 4 5q-4 0 -4 4zM350 329q-1 -4 -4 -4q4 -1 4 -5q0 4 4 5q-4 0 -4 4zM360 339q-1 -4 -4 -4q3 -1 4 -4q0 3 4 4q-4 0 -4 4zM374 315
q-4 0 -4 4q-1 -4 -4 -4q3 -1 4 -4q0 3 4 4zM380 329q-1 -4 -4 -4q3 -1 4 -4q0 3 4 4q-4 0 -4 4zM374 325q-4 0 -4 4q-1 -4 -4 -4q4 -1 4 -5q0 4 4 5zM390 339q-1 -4 -4 -4q4 -1 4 -5q0 4 4 5q-4 0 -4 4zM380 339q-1 -4 -4 -4q4 -1 4 -5q0 4 4 5q-4 0 -4 4zM374 335
q-4 0 -4 4q-1 -4 -4 -4q3 -1 4 -4q0 3 4 4zM400 349q-1 -4 -4 -4q4 -1 4 -5q0 4 4 5q-4 0 -4 4zM390 349q-1 -4 -4 -4q3 -1 4 -4q0 3 4 4q-4 0 -4 4zM380 349q-1 -4 -4 -4q4 -1 4 -5q0 4 4 5q-4 0 -4 4zM374 345q-4 0 -4 4q-1 -4 -4 -4q4 -1 4 -5q0 4 4 5zM410 359
q-1 -4 -4 -4q4 -1 4 -5q0 4 4 5q-4 0 -4 4zM400 359q-1 -4 -4 -4q3 -1 4 -4q0 3 4 4q-4 0 -4 4zM390 359q-1 -4 -4 -4q3 -1 4 -4q0 3 4 4q-4 0 -4 4zM380 359q-1 -4 -4 -4q3 -1 4 -4q0 3 4 4q-4 0 -4 4zM300 549q-1 -4 -4 -4q3 -1 4 -4q0 3 4 4q-4 0 -4 4zM400 369
q-1 -4 -4 -4q4 -1 4 -5q0 4 4 5q-4 0 -4 4zM390 369q-1 -4 -4 -4q3 -1 4 -4q0 3 4 4q-4 0 -4 4zM420 379q-1 -4 -4 -4q3 -1 4 -4q0 3 4 4q-4 0 -4 4zM410 379q-1 -4 -4 -4q3 -1 4 -4q0 3 4 4q-4 0 -4 4zM400 379q-1 -4 -4 -4q4 -1 4 -5q0 4 4 5q-4 0 -4 4zM420 389
q-1 -4 -4 -4q4 -1 4 -5q0 4 4 5q-4 0 -4 4zM410 389q-1 -4 -4 -4q4 -1 4 -5q0 4 4 5q-4 0 -4 4zM400 389q-1 -4 -4 -4q3 -1 4 -4q0 3 4 4q-4 0 -4 4zM420 399q-1 -4 -4 -4q4 -1 4 -5q0 4 4 5q-4 0 -4 4zM410 399q-1 -4 -4 -4q4 -1 4 -5q0 4 4 5q-4 0 -4 4zM420 409
q-1 -4 -4 -4q4 -1 4 -5q0 4 4 5q-4 0 -4 4zM434 385q-4 0 -4 4q-1 -4 -4 -4q4 -1 4 -5q0 4 4 5zM440 399q-1 -4 -4 -4q4 -1 4 -5q0 4 4 5q-4 0 -4 4zM434 395q-4 0 -4 4q-1 -4 -4 -4q3 -1 4 -4q0 3 4 4zM450 409q-1 -4 -4 -4q4 -1 4 -5q0 4 4 5q-4 0 -4 4zM440 409
q-1 -4 -4 -4q3 -1 4 -4q0 3 4 4q-4 0 -4 4zM434 405q-4 0 -4 4q-1 -4 -4 -4q4 -1 4 -5q0 4 4 5zM460 419q-1 -4 -4 -4q4 -1 4 -5q0 4 4 5q-4 0 -4 4zM450 419q-1 -4 -4 -4q3 -1 4 -4q0 3 4 4q-4 0 -4 4zM440 419q-1 -4 -4 -4q4 -1 4 -5q0 4 4 5q-4 0 -4 4zM434 415
q-4 0 -4 4q-1 -4 -4 -4q3 -1 4 -4q0 3 4 4zM470 429q-1 -4 -4 -4q3 -1 4 -4q0 3 4 4q-4 0 -4 4zM460 429q-1 -4 -4 -4q4 -1 4 -5q0 4 4 5q-4 0 -4 4zM450 429q-1 -4 -4 -4q3 -1 4 -4q0 3 4 4q-4 0 -4 4zM440 429q-1 -4 -4 -4q3 -1 4 -4q0 3 4 4q-4 0 -4 4zM480 439
q-1 -4 -4 -4q3 -1 4 -4q0 3 4 4q-4 0 -4 4zM470 439q-1 -4 -4 -4q3 -1 4 -4q0 3 4 4q-4 0 -4 4zM460 439q-1 -4 -4 -4q4 -1 4 -5q0 4 4 5q-4 0 -4 4zM450 439q-1 -4 -4 -4q3 -1 4 -4q0 3 4 4q-4 0 -4 4zM470 449q-1 -4 -4 -4q3 -1 4 -4q0 3 4 4q-4 0 -4 4zM460 449
q-1 -4 -4 -4q3 -1 4 -4q0 3 4 4q-4 0 -4 4zM470 459q-1 -4 -4 -4q4 -1 4 -5q0 4 4 5q-4 0 -4 4zM460 459q-1 -4 -4 -4q4 -1 4 -5q0 4 4 5q-4 0 -4 4zM340 629q-1 -4 -4 -4q3 -1 4 -4q0 3 4 4q-4 0 -4 4zM294 525q-4 0 -4 4q-1 -4 -4 -4q4 -1 4 -5q0 4 4 5zM294 535
q-4 0 -4 4q-1 -4 -4 -4q4 -1 4 -5q0 4 4 5zM330 629q-1 -4 -4 -4q3 -1 4 -4q0 3 4 4q-4 0 -4 4zM294 545q-4 0 -4 4q-1 -4 -4 -4q4 -1 4 -5q0 4 4 5zM300 559q-1 -4 -4 -4q3 -1 4 -4q0 3 4 4q-4 0 -4 4zM294 555q-4 0 -4 4q-1 -4 -4 -4q4 -1 4 -5q0 4 4 5zM310 569
q-1 -4 -4 -4q4 -1 4 -5q0 4 4 5q-4 0 -4 4zM300 569q-1 -4 -4 -4q4 -1 4 -5q0 4 4 5q-4 0 -4 4zM310 579q-1 -4 -4 -4q4 -1 4 -5q0 4 4 5q-4 0 -4 4zM300 579q-1 -4 -4 -4q3 -1 4 -4q0 3 4 4q-4 0 -4 4zM320 589q-1 -4 -4 -4q4 -1 4 -5q0 4 4 5q-4 0 -4 4zM310 589
q-1 -4 -4 -4q4 -1 4 -5q0 4 4 5q-4 0 -4 4zM330 599q-1 -4 -4 -4q3 -1 4 -4q0 3 4 4q-4 0 -4 4zM320 599q-1 -4 -4 -4q4 -1 4 -5q0 4 4 5q-4 0 -4 4zM310 599q-1 -4 -4 -4q4 -1 4 -5q0 4 4 5q-4 0 -4 4zM330 609q-1 -4 -4 -4q3 -1 4 -4q0 3 4 4q-4 0 -4 4zM320 609
q-1 -4 -4 -4q4 -1 4 -5q0 4 4 5q-4 0 -4 4zM340 619q-1 -4 -4 -4q4 -1 4 -5q0 4 4 5q-4 0 -4 4zM330 619q-1 -4 -4 -4q4 -1 4 -5q0 4 4 5q-4 0 -4 4zM354 665q-4 0 -4 4q-1 -4 -4 -4q4 -1 4 -5q0 4 4 5zM360 689q-1 -4 -4 -4q4 -1 4 -5q0 4 4 5q-4 0 -4 4zM340 639
q-1 -4 -4 -4q3 -1 4 -4q0 3 4 4q-4 0 -4 4zM340 649q-1 -4 -4 -4q4 -1 4 -5q0 4 4 5q-4 0 -4 4zM354 635q-4 0 -4 4q-1 -4 -4 -4q3 -1 4 -4q0 3 4 4zM354 645q-4 0 -4 4q-1 -4 -4 -4q4 -1 4 -5q0 4 4 5zM360 659q-1 -4 -4 -4q3 -1 4 -4q0 3 4 4q-4 0 -4 4zM354 655
q-4 0 -4 4q-1 -4 -4 -4q4 -1 4 -5q0 4 4 5zM370 669q-1 -4 -4 -4q3 -1 4 -4q0 3 4 4q-4 0 -4 4zM360 669q-1 -4 -4 -4q4 -1 4 -5q0 4 4 5q-4 0 -4 4zM80 9q-1 -4 -4 -4q4 -1 4 -5q0 4 4 5q-4 0 -4 4zM370 679q-1 -4 -4 -4q4 -1 4 -5q0 4 4 5q-4 0 -4 4zM360 679q-1 -4 -4 -4
q4 -1 4 -5q0 4 4 5q-4 0 -4 4zM380 689q-1 -4 -4 -4q4 -1 4 -5q0 4 4 5q-4 0 -4 4zM370 689q-1 -4 -4 -4q3 -1 4 -4q0 3 4 4q-4 0 -4 4zM94 15q-4 0 -4 4q-1 -4 -4 -4q4 -1 4 -5q0 4 4 5zM370 699q-1 -4 -4 -4q4 -1 4 -5q0 4 4 5q-4 0 -4 4zM100 29q-1 -4 -4 -4q4 -1 4 -5
q0 4 4 5q-4 0 -4 4z" />
    <glyph glyph-name="_379" horiz-adv-x="269" 
d="M134 548q-38 0 -66 27.5t-28 66.5t28 66.5t66 27.5q40 0 67.5 -27.5t27.5 -66.5t-27.5 -66.5t-67.5 -27.5z" />
    <glyph glyph-name="_384" 
d="M0 -80q-34 0 -57.5 23.5t-23.5 56.5q0 34 23.5 57.5t57.5 23.5q33 0 56.5 -23.5t23.5 -57.5q0 -33 -23.5 -56.5t-56.5 -23.5z" />
    <glyph glyph-name="_385" 
d="M0 -228q-34 0 -57.5 23.5t-23.5 56.5t23.5 56.5t57.5 23.5q33 0 56.5 -23.5t23.5 -56.5t-23.5 -56.5t-56.5 -23.5z" />
    <glyph glyph-name="_387" 
d="M21 -335h-67l34 117h-58v139h141v-139z" />
    <glyph glyph-name="_391" 
d="M-85 550l20 160h151l-69 -160h-102z" />
    <glyph glyph-name="_392" 
d="M-20 829h67l-33 -117h57v-140h-141v140z" />
    <glyph glyph-name="_393" 
d="M-94 572q-33 0 -56.5 23.5t-23.5 55.5q0 33 23.5 56.5t56.5 23.5q32 0 55.5 -23.5t23.5 -56.5q0 -32 -23.5 -55.5t-55.5 -23.5zM93 572q-32 0 -55.5 23.5t-23.5 55.5q0 33 23.5 56.5t55.5 23.5q33 0 56.5 -23.5t23.5 -56.5q0 -32 -23.5 -55.5t-56.5 -23.5z" />
    <glyph glyph-name="_394" 
d="M261 462l-475 -473l-47 49l475 473z" />
    <glyph glyph-name="_395" 
d="M172 564h-343v96h343v-96z" />
    <glyph glyph-name="_396" 
d="M172 564h-343v96h343v-96z" />
    <glyph glyph-name="_397" 
d="M149 401l-297 -170v115l297 171v-116z" />
    <glyph glyph-name="_398" 
d="M-211 207v96h421v-96h-421z" />
    <glyph glyph-name="zero.zero" horiz-adv-x="633" 
d="M317 -11q-119 0 -194 80t-75 204v165q0 124 75 204t194 80q118 0 193 -80t75 -204v-165q0 -124 -75 -204t-193 -80zM317 138q53 0 85 36t32 99v87l-231 -130q11 -45 41 -68.5t73 -23.5zM199 438v-87l230 130q-11 44 -40.5 68t-71.5 24q-54 0 -86 -36t-32 -99z" />
    <glyph glyph-name="one.onum" horiz-adv-x="357" 
d="M141 0v428h-123v132h274v-560h-151z" />
    <glyph glyph-name="two.onum" horiz-adv-x="504" 
d="M45 0v119l220 204q38 35 38 69q0 19 -11.5 32t-34.5 13q-50 0 -76 -67l-145 32q23 82 82.5 125t145.5 43q80 0 134 -43.5t54 -126.5q0 -58 -22.5 -95t-69.5 -82l-95 -91h192v-132h-412z" />
    <glyph glyph-name="three.onum" horiz-adv-x="517" 
d="M252 -79q-86 0 -150 44t-82 117l143 51q13 -39 33 -59.5t56 -20.5q37 0 58.5 25.5t21.5 62.5t-21.5 62.5t-58.5 25.5h-70v100l88 101h-222v130h401v-104l-107 -125q62 -15 101.5 -64.5t39.5 -125.5q0 -94 -64 -157t-167 -63z" />
    <glyph glyph-name="four.onum" horiz-adv-x="564" 
d="M305 -68v136h-289v108l303 384h137v-370h76v-122h-76v-136h-151zM195 190h110v152z" />
    <glyph glyph-name="five.onum" horiz-adv-x="517" 
d="M261 -78q-78 0 -144.5 45t-86.5 117l143 50q27 -80 90 -80q70 0 70 87q0 36 -18.5 61t-48.5 25q-47 0 -66 -47h-140v380h381v-130h-230v-106q38 24 89 24q85 0 134.5 -57.5t49.5 -151.5q0 -100 -60 -158.5t-163 -58.5z" />
    <glyph glyph-name="six.onum" horiz-adv-x="532" 
d="M265 -11q-102 0 -166.5 60t-64.5 145q0 13 0.5 24t3.5 22.5t4 18.5t7 19.5t8 17t11 19.5t11 18t14 21.5t15 22.5l170 250h181l-146 -215q72 -9 127.5 -64.5t55.5 -139.5q0 -94 -64 -156.5t-167 -62.5zM186 206q0 -39 21.5 -63.5t57.5 -24.5t57.5 24.5t21.5 63.5
t-21.5 63.5t-57.5 24.5t-57.5 -24.5t-21.5 -63.5z" />
    <glyph glyph-name="seven.onum" horiz-adv-x="493" 
d="M194 -68h-171l274 498h-265v130h444v-116z" />
    <glyph glyph-name="eight.onum" horiz-adv-x="558" 
d="M279 -11q-97 0 -169 58t-72 146q0 96 82 146q-57 48 -57 126q0 75 60.5 123.5t155.5 48.5q94 0 154.5 -49t60.5 -123q0 -77 -58 -126q84 -51 84 -146q0 -87 -72.5 -145.5t-168.5 -58.5zM279 112q36 0 60 24t24 60t-24 60t-60 24q-38 0 -61.5 -24t-23.5 -60t23.5 -60
t61.5 -24zM279 385q30 0 49.5 19t19.5 48t-19.5 48t-49.5 19q-32 0 -51 -18.5t-19 -48.5t19 -48.5t51 -18.5z" />
    <glyph glyph-name="nine.onum" horiz-adv-x="532" 
d="M267 570q102 0 166.5 -60t64.5 -145q0 -13 -0.5 -24t-3.5 -22.5t-4 -18.5t-7 -19.5t-8 -17t-11 -19.5t-11 -18t-14 -21.5t-15 -22.5l-170 -250h-181l146 215q-72 9 -127.5 63.5t-55.5 140.5q0 94 64 156.5t167 62.5zM346 353q0 39 -21.5 63.5t-57.5 24.5t-57.5 -24.5
t-21.5 -63.5t21.5 -63.5t57.5 -24.5t57.5 24.5t21.5 63.5z" />
    <glyph glyph-name="zero.onum" horiz-adv-x="548" 
d="M274 -9q-101 0 -164.5 64t-63.5 164v123q0 100 63.5 164t164.5 64t164.5 -64t63.5 -164v-123q0 -100 -63.5 -164t-164.5 -64zM274 123q35 0 56 25.5t21 70.5v123q0 45 -20.5 70t-56.5 25t-56.5 -25t-20.5 -70v-123q0 -45 21 -70.5t56 -25.5z" />
    <glyph glyph-name="zero.onum_zero" horiz-adv-x="548" 
d="M274 -9q-101 0 -164.5 64t-63.5 164v123q0 100 63.5 164t164.5 64t164.5 -64t63.5 -164v-123q0 -100 -63.5 -164t-164.5 -64zM274 123q35 0 56 25.5t21 70.5v43l-149 -84q16 -55 72 -55zM197 342v-43l148 84q-17 54 -71 54q-36 0 -56.5 -25t-20.5 -70z" />
    <glyph glyph-name="one.tnum" horiz-adv-x="590" 
d="M377 141h173v-141h-497v141h173v420h-125v149h276v-569z" />
    <glyph glyph-name="two.tnum" horiz-adv-x="590" 
d="M48 1v133l277 268q27 27 40.5 49t13.5 49q0 31 -22 52.5t-60 21.5t-66.5 -26.5t-41.5 -67.5l-146 36q24 98 93 152.5t168 54.5q97 0 161 -55.5t64 -159.5q0 -71 -28.5 -120.5t-86.5 -105.5l-137 -132h259v-149h-488z" />
    <glyph glyph-name="three.tnum" horiz-adv-x="590" 
d="M287 -12q-88 0 -164 50.5t-97 131.5l145 57q15 -41 46 -65.5t74 -24.5q49 0 73 24t24 62q0 42 -30.5 68t-78.5 26h-94v124l120 123h-226v146h427v-118l-146 -150q87 -12 133 -72t46 -147q0 -108 -69 -171.5t-183 -63.5z" />
    <glyph glyph-name="four.tnum" horiz-adv-x="590" 
d="M348 0v154h-347v122l362 434h136v-418h91v-138h-91v-154h-151zM185 292h163v195z" />
    <glyph glyph-name="five.tnum" horiz-adv-x="590" 
d="M299 -11q-90 0 -166 51t-97 132l144 56q33 -90 119 -90q49 0 75 27t26 71q0 40 -28 69t-70 29q-31 0 -55.5 -14.5t-34.5 -38.5h-142v429h432v-146h-281v-122q40 28 105 28q105 0 165 -67.5t60 -177.5t-68.5 -173t-183.5 -63z" />
    <glyph glyph-name="six.tnum" horiz-adv-x="590" 
d="M293 -11q-114 0 -182 70t-68 178q0 34 11 65.5t24.5 53t48.5 72.5l198 282h186l-174 -248q81 -7 143.5 -67.5t62.5 -158.5q0 -107 -68 -177t-182 -70zM293 134q42 0 70 29t28 71t-28 71t-70 29q-44 0 -71 -28.5t-27 -71.5t27 -71.5t71 -28.5z" />
    <glyph glyph-name="seven.tnum" horiz-adv-x="590" 
d="M227 0h-171l318 564h-324v146h503v-131z" />
    <glyph glyph-name="eight.tnum" horiz-adv-x="590" 
d="M296 -11q-110 0 -183 65t-73 165q0 113 85 167q-57 54 -57 141q0 85 62.5 140t165.5 55t165.5 -55t62.5 -140q0 -86 -58 -141q86 -55 86 -167q0 -100 -73.5 -165t-182.5 -65zM296 128q45 0 72.5 28.5t27.5 66.5t-27.5 66.5t-72.5 28.5q-46 0 -73 -28.5t-27 -66.5
t27 -66.5t73 -28.5zM296 437q35 0 58.5 21.5t23.5 54.5t-23.5 54.5t-58.5 21.5t-58.5 -21.5t-23.5 -54.5t23.5 -54.5t58.5 -21.5z" />
    <glyph glyph-name="nine.tnum" horiz-adv-x="590" 
d="M78 0l174 248q-81 7 -143 67.5t-62 159.5q0 107 68 177t182 70t182 -70t68 -178q0 -48 -18 -85t-66 -106l-199 -283h-186zM297 377q44 0 71 28.5t27 71.5t-27 71.5t-71 28.5q-42 0 -70 -29t-28 -71t28 -71t70 -29z" />
    <glyph glyph-name="zero.tnum" horiz-adv-x="590" 
d="M296 -11q-119 0 -194 80t-75 204v165q0 124 75 204t194 80q118 0 193 -80t75 -204v-165q0 -124 -75 -204t-193 -80zM296 138q53 0 85 36t32 99v165q0 63 -32 99t-85 36q-54 0 -86 -36t-32 -99v-165q0 -63 32 -99t86 -36z" />
    <glyph glyph-name="zero.tnum_zero" horiz-adv-x="590" 
d="M295 -11q-119 0 -194 80t-75 204v165q0 124 75 204t194 80q118 0 193 -80t75 -204v-165q0 -124 -75 -204t-193 -80zM295 138q53 0 85 36t32 99v87l-231 -130q11 -45 41 -68.5t73 -23.5zM177 438v-87l230 130q-11 44 -40.5 68t-71.5 24q-54 0 -86 -36t-32 -99z" />
    <glyph glyph-name="uni2070.zero" horiz-adv-x="389" 
d="M195 403q-74 0 -120.5 50t-46.5 126v94q0 76 46.5 126t120.5 50q73 0 119.5 -50t46.5 -126v-94q0 -76 -46.5 -126t-119.5 -50zM195 507q27 0 44 19.5t17 52.5v39l-120 -64q11 -47 59 -47zM133 673v-37l119 64q-12 45 -57 45q-28 0 -45 -18.5t-17 -53.5z" />
    <glyph glyph-name="uni2080.zero" horiz-adv-x="389" 
d="M195 -122q-74 0 -120.5 50t-46.5 126v94q0 76 46.5 126t120.5 50q73 0 119.5 -50t46.5 -126v-94q0 -76 -46.5 -126t-119.5 -50zM195 -18q27 0 44 19.5t17 52.5v39l-120 -64q11 -47 59 -47zM133 148v-37l119 64q-12 45 -57 45q-28 0 -45 -18.5t-17 -53.5z" />
    <glyph glyph-name="one.numr" horiz-adv-x="249" 
d="M101 278v329h-87v103h192v-432h-105z" />
    <glyph glyph-name="two.numr" horiz-adv-x="356" 
d="M26 278v93l169 164q25 23 25 45q0 14 -9.5 23.5t-27.5 9.5q-40 0 -61 -51l-101 26q16 62 59.5 95.5t105.5 33.5q59 0 98.5 -33t39.5 -98q0 -31 -10 -56.5t-22.5 -41t-35.5 -38.5l-71 -69h143v-103h-302z" />
    <glyph glyph-name="three.numr" horiz-adv-x="352" 
d="M174 270q-55 0 -101 31t-60 82l100 40q19 -49 64 -49q21 0 34 11.5t13 31.5q0 21 -15.5 34t-41.5 13h-59v87l63 57h-134v102h266v-90l-81 -73q52 -11 79.5 -46.5t27.5 -85.5q0 -66 -43 -105.5t-112 -39.5z" />
    <glyph glyph-name="four.numr" horiz-adv-x="396" 
d="M219 278v86h-205v85l215 261h95v-251h54v-95h-54v-86h-105zM140 459h79v96z" />
    <glyph glyph-name="five.numr" horiz-adv-x="359" 
d="M182 271q-55 0 -102 31.5t-60 81.5l99 39q19 -48 66 -48q22 0 35.5 13.5t13.5 34.5q0 20 -14 34.5t-34 14.5q-35 0 -48 -31h-97v269h268v-102h-163v-57q28 15 62 15q60 0 95.5 -41t35.5 -108q0 -70 -41.5 -108t-115.5 -38z" />
    <glyph glyph-name="six.numr" horiz-adv-x="338" 
d="M167 271q-70 0 -112 42.5t-42 101.5q0 25 7 46.5t14 33.5t31 48l108 167h128l-97 -150q47 -7 82 -42t35 -95q0 -66 -41.5 -109t-112.5 -43zM167 372q21 0 34.5 14.5t13.5 35.5t-13.5 35.5t-34.5 14.5q-22 0 -35.5 -14.5t-13.5 -35.5q0 -22 13 -36t36 -14z" />
    <glyph glyph-name="seven.numr" horiz-adv-x="349" 
d="M144 278h-120l190 330h-188v102h313v-92z" />
    <glyph glyph-name="eight.numr" horiz-adv-x="364" 
d="M182 271q-67 0 -113 40t-46 99q0 63 51 99q-33 34 -33 89q0 48 38.5 83.5t102.5 35.5q63 0 101.5 -35.5t38.5 -83.5q0 -55 -33 -89q52 -36 52 -99q0 -59 -46 -99t-113 -40zM182 367q23 0 36.5 15t13.5 34t-13.5 33.5t-36.5 14.5t-37 -14.5t-14 -33.5t14 -34t37 -15z
M182 545q18 0 30.5 11t12.5 29t-12.5 29.5t-30.5 11.5t-30.5 -11.5t-12.5 -29.5t12.5 -29t30.5 -11z" />
    <glyph glyph-name="nine.numr" horiz-adv-x="338" 
d="M37 278l97 150q-47 7 -82 42t-35 95q0 66 41.5 109t112.5 43q70 0 112 -42.5t42 -101.5q0 -13 -2 -24.5t-3.5 -19.5t-7.5 -19.5t-9.5 -17.5t-14 -22t-15.5 -25l-108 -167h-128zM171 516q22 0 35.5 14.5t13.5 35.5q0 22 -13 36t-36 14q-21 0 -34.5 -14.5t-13.5 -35.5
t13.5 -35.5t34.5 -14.5z" />
    <glyph glyph-name="zero.numr" horiz-adv-x="389" 
d="M195 271q-74 0 -120.5 50t-46.5 126v94q0 76 46.5 126t120.5 50q73 0 119.5 -50t46.5 -126v-94q0 -76 -46.5 -126t-119.5 -50zM195 375q27 0 44 19.5t17 52.5v94q0 34 -16.5 53t-44.5 19t-45 -18.5t-17 -53.5v-94q0 -33 17 -52.5t45 -19.5z" />
    <glyph glyph-name="zero.numr_zero" horiz-adv-x="389" 
d="M195 271q-74 0 -120.5 50t-46.5 126v94q0 76 46.5 126t120.5 50q73 0 119.5 -50t46.5 -126v-94q0 -76 -46.5 -126t-119.5 -50zM195 375q27 0 44 19.5t17 52.5v39l-120 -64q11 -47 59 -47zM133 541v-37l119 64q-12 45 -57 45q-28 0 -45 -18.5t-17 -53.5z" />
    <glyph glyph-name="one.dnom" horiz-adv-x="249" 
d="M101 1v329h-87v103h192v-432h-105z" />
    <glyph glyph-name="two.dnom" horiz-adv-x="356" 
d="M26 1v93l169 164q25 23 25 45q0 14 -9.5 23.5t-27.5 9.5q-40 0 -61 -51l-101 26q16 62 59.5 95.5t105.5 33.5q59 0 98.5 -33t39.5 -98q0 -31 -10 -56.5t-22.5 -41t-35.5 -38.5l-71 -69h143v-103h-302z" />
    <glyph glyph-name="three.dnom" horiz-adv-x="352" 
d="M174 -7q-55 0 -101 31t-60 82l100 40q19 -49 64 -49q21 0 34 11.5t13 31.5q0 21 -15.5 34t-41.5 13h-59v87l63 57h-134v102h266v-90l-81 -73q52 -11 79.5 -46.5t27.5 -85.5q0 -66 -43 -105.5t-112 -39.5z" />
    <glyph glyph-name="four.dnom" horiz-adv-x="396" 
d="M219 1v86h-205v85l215 261h95v-251h54v-95h-54v-86h-105zM140 182h79v96z" />
    <glyph glyph-name="five.dnom" horiz-adv-x="359" 
d="M182 -6q-55 0 -102 31.5t-60 81.5l99 39q19 -48 66 -48q22 0 35.5 13.5t13.5 34.5q0 20 -14 34.5t-34 14.5q-35 0 -48 -31h-97v269h268v-102h-163v-57q28 15 62 15q60 0 95.5 -41t35.5 -108q0 -70 -41.5 -108t-115.5 -38z" />
    <glyph glyph-name="six.dnom" horiz-adv-x="338" 
d="M167 -6q-70 0 -112 42.5t-42 101.5q0 25 7 46.5t14 33.5t31 48l108 167h128l-97 -150q47 -7 82 -42t35 -95q0 -66 -41.5 -109t-112.5 -43zM167 95q21 0 34.5 14.5t13.5 35.5t-13.5 35.5t-34.5 14.5q-22 0 -35.5 -14.5t-13.5 -35.5q0 -22 13 -36t36 -14z" />
    <glyph glyph-name="seven.dnom" horiz-adv-x="349" 
d="M144 1h-120l190 330h-188v102h313v-92z" />
    <glyph glyph-name="eight.dnom" horiz-adv-x="364" 
d="M182 -6q-67 0 -113 40t-46 99q0 63 51 99q-33 34 -33 89q0 48 38.5 83.5t102.5 35.5q63 0 101.5 -35.5t38.5 -83.5q0 -55 -33 -89q52 -36 52 -99q0 -59 -46 -99t-113 -40zM182 90q23 0 36.5 15t13.5 34t-13.5 33.5t-36.5 14.5t-37 -14.5t-14 -33.5t14 -34t37 -15z
M182 268q18 0 30.5 11t12.5 29t-12.5 29.5t-30.5 11.5t-30.5 -11.5t-12.5 -29.5t12.5 -29t30.5 -11z" />
    <glyph glyph-name="nine.dnom" horiz-adv-x="338" 
d="M37 1l97 150q-47 7 -82 42t-35 95q0 66 41.5 109t112.5 43q70 0 112 -42.5t42 -101.5q0 -13 -2 -24.5t-3.5 -19.5t-7.5 -19.5t-9.5 -17.5t-14 -22t-15.5 -25l-108 -167h-128zM171 239q22 0 35.5 14.5t13.5 35.5q0 22 -13 36t-36 14q-21 0 -34.5 -14.5t-13.5 -35.5
t13.5 -35.5t34.5 -14.5z" />
    <glyph glyph-name="zero.dnom" horiz-adv-x="389" 
d="M195 -6q-74 0 -120.5 50t-46.5 126v94q0 76 46.5 126t120.5 50q73 0 119.5 -50t46.5 -126v-94q0 -76 -46.5 -126t-119.5 -50zM195 98q27 0 44 19.5t17 52.5v94q0 34 -16.5 53t-44.5 19t-45 -18.5t-17 -53.5v-94q0 -33 17 -52.5t45 -19.5z" />
    <glyph glyph-name="zero.dnom_zero" horiz-adv-x="389" 
d="M195 -7q-74 0 -120.5 50t-46.5 126v94q0 76 46.5 126t120.5 50q73 0 119.5 -50t46.5 -126v-94q0 -76 -46.5 -126t-119.5 -50zM195 97q27 0 44 19.5t17 52.5v39l-120 -64q11 -47 59 -47zM133 263v-37l119 64q-12 45 -57 45q-28 0 -45 -18.5t-17 -53.5z" />
    <glyph glyph-name="hyphen.case" horiz-adv-x="410" 
d="M58 283v144h294v-144h-294z" />
    <glyph glyph-name="uni00AD.case" horiz-adv-x="410" 
d="M58 283v144h294v-144h-294z" />
    <glyph glyph-name="endash.case" horiz-adv-x="599" 
d="M58 283v144h483v-144h-483z" />
    <glyph glyph-name="emdash.case" horiz-adv-x="955" 
d="M58 283v144h839v-144h-839z" />
    <glyph glyph-name="questiondown.case" horiz-adv-x="547" 
d="M371 447v-19q0 -43 -20.5 -73.5t-64.5 -61.5q-7 -5 -25 -16t-25.5 -16.5t-18.5 -15.5t-15 -20.5t-4 -24.5q0 -29 22 -46t54 -17q35 0 70.5 18t60.5 55l119 -82q-34 -58 -101 -99t-152 -41q-96 0 -160 60.5t-64 142.5q0 57 18 95.5t68 77.5q11 8 28.5 21t25.5 19t17 14
t12.5 14.5t3.5 13.5v1h151zM206 710h179v-179h-179v179z" />
    <glyph glyph-name="exclamdown.case" horiz-adv-x="304" 
d="M198 447l30 -184v-263h-152v263l29 184h93zM242 516h-179v179h179v-179z" />
    <glyph glyph-name="guilsinglleft.case" horiz-adv-x="331" 
d="M194 355l90 -173l-95 -61l-152 234l152 234l95 -61z" />
    <glyph glyph-name="guilsinglright.case" horiz-adv-x="331" 
d="M47 182l90 173l-90 173l95 61l152 -234l-152 -234z" />
    <glyph glyph-name="guillemotleft.case" horiz-adv-x="542" 
d="M405 355l90 -173l-95 -61l-152 234l152 234l95 -61zM194 355l90 -173l-95 -61l-152 234l152 234l95 -61z" />
    <glyph glyph-name="guillemotright.case" horiz-adv-x="542" 
d="M-164 182l90 173l-90 173l95 61l152 -234l-152 -234zM47 182l90 173l-90 173l95 61l152 -234l-152 -234z" />
    <glyph glyph-name="parenleft.case" horiz-adv-x="292" 
d="M166 355q0 -220 99 -432l-97 -48q-128 233 -128 480t128 480l97 -48q-99 -212 -99 -432z" />
    <glyph glyph-name="parenright.case" horiz-adv-x="292" 
d="M126 355q0 220 -99 432l97 48q128 -233 128 -480t-128 -480l-97 48q99 212 99 432z" />
    <glyph glyph-name="bracketleft.case" horiz-adv-x="340" 
d="M75 -125v960h230v-108h-104v-744h104v-108h-230z" />
    <glyph glyph-name="bracketright.case" horiz-adv-x="340" 
d="M265 835v-960h-230v108h104v744h-104v108h230z" />
    <glyph glyph-name="braceleft.case" horiz-adv-x="355" 
d="M321 -125h-88q-66 0 -104.5 38.5t-38.5 103.5v229q0 55 -53 55h-8v108h8q53 0 53 53v231q0 65 38.5 103.5t104.5 38.5h88v-108h-48q-31 0 -43.5 -12.5t-12.5 -44.5v-217q0 -82 -63 -98q63 -16 63 -101v-214q0 -32 12.5 -44.5t43.5 -12.5h48v-108z" />
    <glyph glyph-name="braceright.case" horiz-adv-x="355" 
d="M122 -125h-88v108h48q31 0 43.5 12.5t12.5 44.5v214q0 85 63 101q-63 16 -63 98v217q0 32 -12.5 44.5t-43.5 12.5h-48v108h88q66 0 104.5 -38.5t38.5 -103.5v-231q0 -53 53 -53h8v-108h-8q-53 0 -53 -55v-229q0 -65 -38.5 -103.5t-104.5 -38.5z" />
    <glyph glyph-name="bar.case" horiz-adv-x="276" 
d="M75 -55v820h126v-820h-126z" />
    <glyph glyph-name="brokenbar.case" horiz-adv-x="276" 
d="M75 -55v343h126v-343h-126zM75 422v343h126v-343h-126z" />
    <glyph glyph-name="periodcentered.case" horiz-adv-x="295" 
d="M237 256h-179v179h179v-179z" />
    <glyph glyph-name="plus.case" horiz-adv-x="498" 
d="M39 289v131h145v145h130v-145h145v-131h-145v-145h-130v145h-145z" />
    <glyph glyph-name="minus.case" horiz-adv-x="538" 
d="M59 289v131h420v-131h-420z" />
    <glyph glyph-name="multiply.case" horiz-adv-x="521" 
d="M138 140l-92 92l123 123l-123 123l92 92l123 -122l123 122l91 -92l-122 -123l122 -123l-91 -92l-123 122z" />
    <glyph glyph-name="equal.case" horiz-adv-x="536" 
d="M58 185v130h420v-130h-420zM58 393v131h420v-131h-420z" />
    <glyph glyph-name="less.case" horiz-adv-x="469" 
d="M419 54l-379 234v145l379 234v-152l-251 -155l251 -153v-153z" />
    <glyph glyph-name="greater.case" horiz-adv-x="469" 
d="M429 288l-379 -234v153l251 153l-251 155v152l379 -234v-145z" />
    <glyph glyph-name="acute.case" 
d="M-118 768l70 137h165l-125 -137h-110z" />
    <glyph glyph-name="breve.case" 
d="M0 747q-76 0 -127 49.5t-51 130.5h86q0 -45 26 -69t66 -24t66 24t26 69h86q0 -81 -51 -130.5t-127 -49.5z" />
    <glyph glyph-name="caron.case" 
d="M-69 768l-114 137h133l50 -49l49 49h134l-114 -137h-138z" />
    <glyph glyph-name="cedilla.case" 
d="M-119 -188l14 64q31 -17 68 -17q49 0 49 27q0 24 -32 24q-24 0 -43 -12l-36 19l52 86h64l-28 -47q15 12 47 12q34 0 58 -21.5t24 -54.5q0 -42 -41 -69t-96 -27q-61 0 -100 16z" />
    <glyph glyph-name="circumflex.case" 
d="M-183 768l114 137h138l114 -137h-134l-49 48l-50 -48h-133z" />
    <glyph glyph-name="dieresis.case" 
d="M-118 768q-33 0 -57 24t-24 56q0 34 23.5 57.5t57.5 23.5q32 0 55.5 -24t23.5 -57q0 -32 -23.5 -56t-55.5 -24zM119 768q-33 0 -56.5 24t-23.5 56q0 34 23.5 57.5t56.5 23.5t56.5 -23.5t23.5 -57.5q0 -32 -23.5 -56t-56.5 -24z" />
    <glyph glyph-name="dotaccent.case" 
d="M0 768q-33 0 -57 24t-24 56q0 34 23.5 57.5t57.5 23.5q33 0 56.5 -23.5t23.5 -57.5q0 -32 -23.5 -56t-56.5 -24z" />
    <glyph glyph-name="_524" 
d="M0 -80q-34 0 -57.5 23.5t-23.5 56.5q0 34 23.5 57.5t57.5 23.5q33 0 56.5 -23.5t23.5 -57.5q0 -33 -23.5 -56.5t-56.5 -23.5z" />
    <glyph glyph-name="_525" 
d="M0 -227q-34 0 -57.5 23.5t-23.5 56.5t23.5 56.5t57.5 23.5q33 0 56.5 -23.5t23.5 -56.5t-23.5 -56.5t-56.5 -23.5z" />
    <glyph glyph-name="_526" 
d="M21 -335h-67l34 117h-58v139h141v-139z" />
    <glyph glyph-name="grave.case" 
d="M117 768h-110l-125 137h165z" />
    <glyph glyph-name="hungarumlaut.case" 
d="M-201 768l52 137h160l-114 -137h-98zM-11 768l52 137h160l-114 -137h-98z" />
    <glyph glyph-name="macron.case" 
d="M-174 787v104h348v-104h-348z" />
    <glyph glyph-name="ogonek.case" 
d="M-2 -204q-48 0 -80.5 25.5t-32.5 68.5q0 51 56 110h159q-79 -36 -79 -72q0 -11 8 -17t16 -6q14 0 26 9l43 -85q-50 -33 -116 -33z" />
    <glyph glyph-name="ring.case" 
d="M1 753q-50 0 -86 35.5t-36 84.5t36 84.5t86 35.5t86 -35.5t36 -84.5t-36 -84.5t-86 -35.5zM1 818q23 0 39.5 16t16.5 39t-16.5 39t-39.5 16t-39.5 -16t-16.5 -39t16.5 -39t39.5 -16z" />
    <glyph glyph-name="tilde.case" 
d="M-193 776l4 28q8 55 42.5 86t78.5 31q35 0 78 -23.5t55 -23.5q19 0 28 11.5t16 36.5h83l-4 -28q-8 -55 -43 -86t-79 -31q-35 0 -78 23.5t-54 23.5q-19 0 -28.5 -11t-16.5 -37h-82z" />
    <glyph glyph-name="_533" 
d="M-175 289v138h351v-138h-351z" />
    <glyph glyph-name="_534" 
d="M372 638l-657 -656l-89 90l657 656z" />
    <glyph glyph-name="_535" 
d="M180 418l-360 -205v124l360 206v-125z" />
    <glyph glyph-name="_536" 
d="M-215 283v138h431v-138h-431z" />
    <glyph glyph-name="_537" 
d="M-374 515v108h748v-108h-748z" />
    <glyph glyph-name="uni0437.locl" horiz-adv-x="491" 
d="M-16 -94l109 92q46 -70 127 -70q40 0 64.5 24t24.5 63q0 90 -107 90h-61v122h59q44 0 66 21t22 58q0 33 -21 53t-57 20q-61 0 -109 -50l-87 90q79 92 212 92q93 0 149 -56t56 -131q0 -101 -73 -151q49 -21 76 -66t27 -105q0 -94 -64.5 -150t-175.5 -56q-79 0 -142 31
t-95 79z" />
    <glyph glyph-name="uni0449.locl" horiz-adv-x="943" 
d="M565 -11q-86 0 -140 61q-60 -61 -161 -61q-105 0 -157 64t-52 164v283h151v-256q0 -116 79 -116q53 0 86 45q-3 22 -3 44v283h151v-256q0 -116 79 -116q51 0 83 41v331h151v-330q0 -21 8.5 -30t30.5 -9h45v-253h-134v122h-6q-28 0 -50 13t-30 36q-53 -60 -131 -60z" />
    <glyph glyph-name="uni044A.locl" horiz-adv-x="586" 
d="M372 -11h-43q-92 0 -141 56.5t-49 128.5v195h-121v131h272v-140h82q92 0 141 -57.5t49 -128.5q0 -72 -49 -128.5t-141 -56.5zM421 174q0 28 -18 43t-48 15h-65v-58q0 -57 65 -57q66 0 66 57z" />
    <glyph glyph-name="_549" 
d="M165 189h-330v96h330v-96z" />
    <glyph glyph-name="uni0431.locl" horiz-adv-x="589" 
d="M67 559q0 80 60 125.5t175 45.5h160l24 -132h-193q-37 0 -58 -14.5t-21 -41.5t21.5 -42t57.5 -15h21q99 0 171 -69t72 -166q0 -110 -75.5 -185.5t-186.5 -75.5t-186.5 75.5t-75.5 185.5q0 121 87 189q-53 47 -53 120zM294 130q49 0 80 30t31 86q0 43 -32.5 75.5
t-81.5 32.5q-54 0 -80.5 -31t-26.5 -77q0 -56 30 -86t80 -30z" />
    <glyph glyph-name="_558" 
d="M77 710h-143v148h143v-148z" />
    <glyph glyph-name="uni0442.locl" horiz-adv-x="895" 
d="M329 511q86 0 139 -61q61 61 162 61q105 0 157 -64t52 -164v-283h-151v256q0 116 -79 116q-52 0 -86 -46q3 -21 3 -43v-283h-151v256q0 116 -79 116q-25 0 -48 -12t-35 -31v-329h-151v500h151v-35q18 20 50.5 33t65.5 13z" />
    <glyph glyph-name="uni041B.locl" horiz-adv-x="750" 
d="M-1 0l304 710h144l304 -710h-166l-210 491l-210 -491h-166z" />
    <glyph glyph-name="uni0432.locl" horiz-adv-x="565" 
d="M293 -11h-15q-105 0 -164 63.5t-59 165.5v291q0 108 56.5 170t166.5 62q100 0 157.5 -56.5t57.5 -148.5q0 -44 -16 -84.5t-44 -63.5q48 -23 74 -69.5t26 -104.5q0 -102 -65 -163.5t-175 -61.5zM292 121h5q85 0 85 103q0 100 -86 100h-90v-103q0 -100 86 -100zM206 527
v-81h71q73 0 73 81q0 39 -18.5 60.5t-53.5 21.5t-53.5 -21.5t-18.5 -60.5z" />
    <glyph glyph-name="_599" 
d="M91 410q69 0 121 36v-138q-52 -36 -121 -36q-34 0 -93.5 18t-88.5 18q-69 0 -121 -36v138q52 36 121 36q43 0 98 -18t84 -18z" />
    <glyph glyph-name="uni043F.locl" horiz-adv-x="602" 
d="M62 0v500h151v-36q50 47 130 47q96 0 149.5 -61.5t53.5 -164.5v-285h-151v259q0 53 -21 84t-64 31q-61 0 -97 -46v-328h-151z" />
    <glyph glyph-name="uni0433.locl" horiz-adv-x="461" 
d="M227 -11q-83 0 -139 47t-56 119q0 64 37.5 101.5t109.5 56.5l46 12q42 12 42 36q0 26 -41 26q-47 0 -79 -40l-98 81q60 83 176 83q83 0 136.5 -42.5t55.5 -111.5q2 -61 -34.5 -104t-107.5 -60l-33 -8q-37 -9 -49 -17.5t-12 -21.5q0 -28 46 -28q72 0 108 52l100 -91
q-69 -90 -208 -90z" />
    <glyph glyph-name="_608" 
d="M224 298v-140h-448v140h448z" />
    <glyph glyph-name="uni0448.locl" horiz-adv-x="894" 
d="M565 -11q-86 0 -140 61q-60 -61 -161 -61q-105 0 -157 64t-52 164v283h151v-256q0 -116 79 -116q53 0 86 45q-3 22 -3 44v283h151v-256q0 -116 79 -116q25 0 48 12t35 31v329h151v-500h-151v35q-18 -20 -50.5 -33t-65.5 -13z" />
    <glyph glyph-name="_621" 
d="M-56 -122v122h-22v131h156v-253h-134z" />
    <glyph glyph-name="uni0434.locl" horiz-adv-x="614" 
d="M286 -204q-137 0 -219 64l79 113q59 -45 138 -45q47 0 82 25t35 72v29q-46 -43 -120 -43q-107 0 -178 72t-71 178t71 178t178 72q73 0 120 -42v31h151v-473q0 -53 -16 -94t-41.5 -66t-61.5 -41.5t-71.5 -23t-75.5 -6.5zM306 148q59 0 95 48v131q-37 47 -95 47
q-52 0 -85 -31.5t-33 -81.5t33 -81.5t85 -31.5z" />
    <glyph glyph-name="uni044E.locl" horiz-adv-x="825" 
d="M537 -11q-91 0 -159 55t-89 140h-76v-184h-151v730h151v-415h75q21 86 89 141t160 55q109 0 182.5 -76t73.5 -185t-73.5 -185t-182.5 -76zM537 130q47 0 75.5 33t28.5 87t-28.5 87t-75.5 33q-48 0 -76 -32.5t-28 -86.5t28.5 -87.5t75.5 -33.5z" />
    <glyph glyph-name="uni043A.locl" horiz-adv-x="559" 
d="M387 0l-174 194v-194h-151v730h151v-427l155 197h177l-198 -247l231 -253h-191z" />
    <glyph glyph-name="uni0438.locl" horiz-adv-x="590" 
d="M528 500v-500h-151v34q-48 -45 -116 -45q-98 0 -152 61.5t-54 164.5v285h151v-259q0 -115 87 -115q48 0 84 46v328h151z" />
    <glyph glyph-name="_633" 
d="M-292 284v140h584v-140h-584z" />
    <glyph glyph-name="uni0446.locl" horiz-adv-x="637" 
d="M377 500h151v-330q0 -21 8.5 -30t30.5 -9h45v-253h-134v122h-6q-28 0 -50 13t-30 36q-53 -60 -131 -60q-98 0 -152 61.5t-54 164.5v285h151v-259q0 -115 87 -115q46 0 84 45v329z" />
    <glyph glyph-name="uni044C.locl" horiz-adv-x="504" 
d="M290 -11h-43q-92 0 -141 56.5t-49 128.5v326h151v-140h82q92 0 141 -57.5t49 -128.5q0 -72 -49 -128.5t-141 -56.5zM273 117q66 0 66 57q0 28 -18 43t-48 15h-65v-58q0 -57 65 -57z" />
    <glyph glyph-name="uni0439.locl" horiz-adv-x="590" 
d="M528 500v-500h-151v34q-48 -45 -116 -45q-98 0 -152 61.5t-54 164.5v285h151v-259q0 -115 87 -115q48 0 84 46v328h151zM291 545q-76 0 -127 49.5t-51 128.5v7h96v-7q0 -42 22 -67t60 -25t60 25t22 67v7h96v-7q0 -79 -51 -128.5t-127 -49.5z" />
    <glyph glyph-name="uni0414.locl" horiz-adv-x="762" 
d="M20 -148v300h74l215 558h144l214 -558h75v-300h-143v148h-436v-148h-143zM381 478l-122 -326h244z" />
    <glyph glyph-name="_653" 
d="M70 500h-134v122h134v-122z" />
    <glyph glyph-name="_657" 
d="M-31 -148v148h-23v152h166v-300h-143z" />
    <glyph glyph-name="uni043B.locl" horiz-adv-x="576" 
d="M-1 0l219 500h140l219 -500h-168l-122 303l-121 -303h-167z" />
    <glyph glyph-name="uni0436.locl" horiz-adv-x="836" 
d="M664 0l-170 194v-194h-151v195l-171 -195h-185l224 254l-191 246h173l150 -197v427h151v-426l149 196h173l-191 -246l224 -254h-185z" />
    <glyph glyph-name="_683" 
d="M-201 -96v96h402v-96h-402z" />
    <glyph glyph-name="_684" 
d="M-203 285v140h407v-140h-407z" />
    <glyph glyph-name="_693" 
d="M-187 205v92h374v-92h-374z" />
    </font>
</defs>
</svg>
